
//----- song ID: sick -----//
#TITLE:S!ck;
#ARTIST:Eagle;
#TITLETRANSLIT:Sick;
#BANNER:S!ck.png;
#BACKGROUND:S!ck-bg.png;
#CDTITLE:./CDTitles/bm IIDX20 tricoro.png;
#MUSIC:S!ck.ogg;
#SAMPLESTART:90.001;
#SAMPLELENGTH:15;
#DISPLAYBPM:88:177;
#BPMS:0=88.5,20=177,84=88.5,112=177,120=88.5,132=177,140=88.5,148=177;
#NOTES:
     dance-single:
     :
     Beginner:
     5:
     :
0000
0000
0000
0000
,
0000
0000
0000
0000
,
0000
0000
0000
0000
,
0000
0000
0000
0000
,
0000
0000
0000
0000
,
0000
0010
0000
0010
,
0000
0001
0000
0001
,
0000
0100
0000
0100
,
0000
1000
0000
1000
,
0000
0010
0000
0010
,
0000
1000
0000
1000
,
0000
0100
0000
0100
,
0000
0001
0000
0001
,
0000
0010
0000
1000
,
0000
0010
0000
0001
,
0000
0100
0000
0001
,
0000
0100
0000
1000
,
0000
1000
0000
0010
,
0000
0001
0000
0100
,
0000
0001
0000
1000
,
1000
0000
0000
1001
,
0000
0000
0000
0000
0000
0000
0100
0100
,
0000
0000
0000
0000
0000
0000
0010
0010
,
0000
0000
1000
0000
0000
0000
0100
0100
,
0000
0000
0001
0000
1000
0000
0010
0010
,
0000
0000
0001
0000
0100
0000
1000
1000
,
0000
0000
0100
0000
0010
0000
0001
0001
,
0000
0010
0100
0010
,
0020
0000
0000
0000
,
0030
0000
0000
0001
,
0000
1000
0000
0010
,
0000
0100
0000
0001
,
0000
0000
0010
0000
0000
0000
1000
1000
,
2000
0000
0000
3000
,
0002
0000
0000
0003
,
0000
0100
1000
0100
,
0010
0010
0010
1001
,
0000
1000
0000
1000
,
0000
0001
0001
0001
,
0000
0100
0000
0100
,
0000
0010
0000
0010
,
0010
0000
0000
0000
,
0000
0000
0000
0000
,
0000
0000
0000
0000
,
0000
0000
0000
0000
,
0000
0000
0000
0000
,
0000
0000
0000
0000
,
0000
0000
0000
0000
,
0000
0000
0000
0000
,
0000
0100
0000
0100
,
0000
1000
0000
1000
,
0000
0010
0000
0010
,
0000
0001
0000
0001
,
0000
1000
1000
1000
,
0000
0010
0010
0010
,
0000
0001
0001
0001
,
0001
0000
0000
1001
,
0000
0000
0100
0100
,
0200
0000
0300
0000
,
1000
0000
0010
0010
,
0020
0000
0030
0000
,
0001
0000
0100
0000
,
0010
0000
1000
1000
,
1000
0000
0010
0000
,
0100
0000
0001
0001
,
0001
0000
0100
0000
,
0001
0000
1000
1000
,
1000
0000
0010
0000
,
1000
0000
0100
0100
,
0100
0000
0010
0000
,
0001
0000
1000
1000
,
1000
0000
0001
0000
,
0010
0000
1000
0000
,
1001
0000
0000
0000
,
0000
0000
0000
0000
;
#NOTES:
     dance-single:
     :
     Easy:
     8:
     :
0000
0000
0000
0000
,
0000
0000
0000
0000
,
0000
0000
0000
0000
,
0000
0000
0000
0000
,
0000
0000
0000
0000
,
0010
0001
1000
0001
,
0010
0000
0001
0000
1000
0000
0010
0010
,
2000
0001
0000
0001
,
0000
0001
0000
3001
,
0001
0010
0001
0100
,
0010
0000
1000
0000
0010
0000
0100
0001
,
0100
0001
1000
0100
,
0010
0001
0100
0001
,
0000
0010
0001
1001
,
0000
0010
1000
1001
,
0000
0100
0001
1001
,
0000
0100
1000
1001
,
0100
1000
0100
1000
,
0100
0000
0010
0000
0001
0000
1000
0001
,
0020
0100
0001
0130
,
1000
0010
0100
1001
,
0020
0000
0100
0000
0130
0000
0001
0001
,
2000
0000
0010
0000
3010
0000
0100
0100
,
0020
0000
1000
0000
1030
0000
0001
0001
,
0020
0000
0100
0000
0130
0000
1000
0001
,
0200
0000
0010
0000
0301
0000
1000
0100
,
0020
0000
0001
0000
0130
0000
0010
0001
,
2000
0000
0010
0000
3100
0000
0010
1000
,
0002
0000
0000
0000
,
1000
0000
0013
0010
,
0200
1000
0310
0001
,
2000
0000
3010
0001
,
0200
0000
0000
0000
0001
0000
0310
0010
,
1000
0100
1000
0010
,
1000
0100
0010
0001
,
1000
0000
0100
1000
0010
0000
0010
0100
,
0001
0000
0001
0010
0100
0000
1000
1000
,
0002
1000
0010
0013
,
0200
0010
0001
0301
,
0002
0103
2000
3010
,
0200
0000
0000
0000
,
0310
0000
0000
0000
,
0000
0000
0000
0000
,
0000
0000
0000
0000
,
0000
0000
0000
0000
,
2000
0000
0000
0000
,
0000
0000
0000
0000
,
0002
0000
0000
0000
,
3000
0000
0000
0003
,
0000
0100
0100
0100
,
0000
0010
0010
0010
,
0000
1000
1000
1000
,
0000
0001
0001
0001
,
1000
1000
1000
0100
,
0001
0001
0001
0010
,
0200
0001
0001
0301
,
1000
0100
0010
1001
,
0200
0000
0010
0310
,
0002
0000
0100
0103
,
2000
0000
0010
3001
,
0200
0000
0310
1001
,
0002
0000
0020
0003
,
0230
0000
1300
0020
,
2030
0000
0000
3000
0002
0000
0000
0003
,
0020
0000
0100
0130
,
2000
0010
3010
0100
,
0002
1000
1003
0100
,
0020
0100
0130
1000
,
0002
1000
0013
1001
,
0010
0000
0100
0010
0100
0000
0110
0000
,
0001
1000
0001
0000
1000
0000
1001
0000
,
0200
0001
0310
1000
,
0100
0001
0100
1000
,
0020
0000
0000
0030
,
0000
0000
0000
0000
;
#NOTES:
     dance-single:
     :
     Medium:
     12:
     :
0000
0000
0000
0000
,
0000
0000
0000
0000
,
0000
0000
0000
0000
,
0000
0000
0000
0000
,
0000
0000
0000
0000
,
1000
0000
0000
0100
0000
0000
0010
0000
0000
0100
0000
0000
1000
0000
0000
0000
,
0001
0000
0000
0100
0000
0000
0010
0000
0000
0100
0000
0000
0001
0000
0000
0000
,
1000
0000
0000
0010
0000
0000
0100
0000
0000
0010
0000
0000
1000
0000
0100
0000
,
0001
0000
0000
0100
0000
0000
1000
0000
0000
0100
0000
0000
0010
0000
0000
0000
,
0011
0000
0001
0000
0010
0000
0100
1000
,
0001
0000
0100
0000
0010
0000
0001
0010
,
1000
0000
0010
0000
1000
0000
0100
0010
,
0100
0001
0100
1000
,
0010
0000
0101
0000
0001
0010
0100
1000
,
0100
0000
0011
0000
1000
0100
0010
0001
,
0100
0000
1010
0000
0010
1000
0100
0010
,
0001
0000
1100
0000
0010
0001
0100
0010
,
1000
0000
0001
0000
0010
0001
0100
1000
,
0100
0000
0010
0000
1000
0100
0001
0100
,
0010
0001
0100
0010
0001
0010
1000
0100
,
0010
0001
0010
0001
0100
0010
1000
0000
,
2000
0100
3100
0000
1001
0010
0001
0100
,
0020
1000
1030
0001
0200
0010
0320
1000
,
2030
3001
0011
0000
0010
0010
0100
0100
,
2000
0001
3002
0000
0013
0010
0100
1000
,
0002
0010
0013
0000
0101
0001
0100
1000
,
0200
0001
0301
0010
0100
1000
0200
0300
,
0110
1000
0020
0000
1030
1000
0100
0001
,
1100
0000
0000
0000
0010
0000
0000
0010
0000
0000
0001
0000
0000
0001
0000
0000
,
0100
0010
1000
0000
0101
0000
0010
1000
,
0200
0010
0010
0000
2300
0010
0010
0000
,
3002
0000
0000
0000
0010
0000
0000
0000
0010
0000
0000
0000
0000
0000
0000
0000
1000
0000
0000
0000
0000
0000
0000
0000
0003
0000
0010
0000
0000
0100
0000
0000
,
1000
0100
0010
0001
0001
0100
0001
0010
,
0100
0000
0000
1000
0000
0000
0001
0000
0100
0000
0000
0001
0000
0000
1000
0000
,
0100
0000
0000
1000
0000
0000
0001
0000
0100
0000
0010
0000
1000
0000
0100
0000
,
0020
0001
0031
1000
0100
0100
0110
1100
,
0001
0100
0010
0000
0001
0010
1000
0000
0100
0010
0001
0000
0100
0000
0110
0000
,
1000
0000
0000
0100
0000
1000
0100
0000
1000
0100
0000
0000
,
0010
0000
0000
0001
0000
0010
0001
0000
0010
0001
0000
0000
,
1000
1100
0010
0011
,
0200
0001
0020
0330
,
2002
0000
0000
0000
,
0000
0000
0000
0000
,
0000
0000
0000
0000
,
0000
0000
0000
0000
,
3000
0000
0020
0000
,
0003
0000
0200
0000
,
0030
0000
2000
0000
,
0300
0000
0002
0000
,
3003
0010
1000
1000
,
0001
0000
0010
0000
0001
1000
0001
0000
,
1000
0010
0100
0100
,
0001
0000
1000
0000
0010
1000
0010
0000
,
1000
0001
1000
0000
0010
1000
0010
0100
,
0001
1000
0001
0000
1000
0010
1000
0100
,
0010
0100
1000
0010
0100
0010
1000
0001
,
0100
1000
0100
0001
0010
0100
1000
0000
,
0002
0000
1000
0000
0103
0010
1000
0010
,
0200
0010
0301
1010
,
2000
0000
0001
0000
3100
0010
0001
1000
,
0100
1100
0110
1001
,
0200
0000
0001
0000
0310
1000
0100
1000
,
0002
0010
1003
2010
,
3002
0000
1000
0000
0013
0100
1000
0000
,
1000
0100
0001
0100
0010
0001
1000
0000
,
0010
1000
0100
0010
0001
0100
1000
0000
,
1000
0100
0010
1000
0100
0001
0100
0000
,
0100
1000
0010
0001
0010
0100
0001
0100
,
0020
0001
1030
0101
,
1000
0001
0010
0010
1000
0010
0010
0000
,
0001
0100
0100
1000
0100
0100
0001
0100
,
0020
0000
1030
0001
0020
0000
0031
1000
,
0001
0100
0001
0010
0100
1000
0100
0010
,
0002
0000
0000
0003
,
0000
0000
0000
0000
;
#NOTES:
     dance-single:
     :
     Hard:
     16:
     :
0000
0000
0000
0000
,
0000
0000
0000
0000
,
0000
0000
0000
0000
,
0000
0000
0000
0000
,
0000
0000
0000
0000
0000
0000
0000
0000
0000
0000
0000
0000
0000
0000
0000
0000
0010
0000
1000
0000
0010
0000
1000
0100
0010
0100
1000
0000
0010
0000
0000
0000
,
1000
0000
0000
0100
0000
0000
0001
0000
0000
0100
0000
0000
0010
0000
0001
0000
,
1000
0000
0000
0010
0000
0000
0001
0000
0000
0010
0000
0000
0100
0000
0001
0000
,
0010
0000
0000
0100
0000
0000
1000
0000
0000
0100
0000
0000
0001
0000
0100
0000
,
1000
0000
0000
0010
0000
0000
0100
0000
0000
0001
0000
0000
0010
0000
0100
0000
,
1000
0000
0000
0100
0000
0000
0001
0000
0000
1000
0000
0000
0010
0000
0001
0000
,
0010
0000
0000
0001
0000
0000
1000
0000
0000
0001
0000
0000
0100
0000
1000
0000
,
0001
0000
0000
0010
0000
0000
1000
0000
0000
0100
0000
0000
0010
0000
0001
0000
,
1000
0000
0000
0100
0000
0000
0001
0000
0000
1000
0000
0000
0010
0000
0001
0000
,
1000
0000
0001
0010
0000
0100
1000
0000
0001
0010
0000
0100
1000
0000
0001
0000
,
0100
0000
0010
1000
0000
0001
0100
0000
0010
1000
0000
0001
0100
0000
0010
0000
,
1000
0000
0100
0010
0000
0001
1000
0000
0100
0010
0000
0001
1000
0000
0010
0000
,
0100
0000
0001
1000
0000
0010
0100
0000
0001
1000
0000
0010
0100
0000
0001
0000
,
1000
0100
0001
1000
0010
0001
0100
0010
,
0001
0010
1000
0001
0100
1000
0001
0010
,
1000
0010
1000
0010
1000
0001
1000
0001
0010
0001
0010
0001
0010
0100
0010
0100
,
2000
3200
0320
0032
0203
0310
1001
0000
,
0002
0000
0000
0000
0000
0000
0000
0000
0103
0000
0010
1000
0010
1000
0010
1000
0200
0000
0000
0000
0000
0000
0310
0000
0001
0100
0010
0000
0001
0000
0010
0000
,
2000
0000
0000
0000
0000
0000
3100
0000
0011
0000
0000
0000
1100
0000
0000
0000
0002
0000
0000
0000
0103
0000
0010
0000
1000
0001
1000
0000
0100
0000
0000
0000
,
0022
0000
0000
0000
0000
0000
0030
0000
1003
0000
0100
0000
0100
0000
0100
0000
0010
0000
0001
1000
0001
0000
0010
0000
0100
0000
1000
0000
0100
0000
0010
0000
,
0002
0000
0000
0000
1003
0000
0010
1000
0200
0000
0000
0000
0310
0000
0001
0000
1000
0000
0010
0000
0001
0000
0010
0000
1000
0000
0000
1000
0000
0000
1000
0000
,
0002
0000
0000
0000
1003
0000
0100
0000
0010
0000
0001
1000
0001
1000
0001
1000
0020
0000
0000
0000
1030
0000
0100
0000
0010
0001
0100
0000
0010
0000
1000
0000
,
0200
0000
0000
0000
0000
0000
0310
0000
0001
0000
0010
0000
0100
0000
0100
0000
1000
0000
0001
0000
0010
0000
0100
0000
1000
0001
1000
0000
0010
0000
0100
0010
,
2000
0000
0000
0001
0000
0000
0100
0000
3010
0000
0100
0000
0100
0000
0100
0000
0001
0000
0010
0001
0010
0000
0001
0000
0100
0000
1000
0000
0100
0000
0010
0000
,
0100
0000
0000
0000
1001
0000
0000
1010
0000
0000
0101
0000
0000
0110
0000
0000
,
1010
0000
0010
0100
0001
0000
1000
0000
0100
0010
0100
0010
0100
0000
0010
0100
,
2000
0000
0000
0000
0100
0000
0000
0000
3002
0000
0000
0000
0103
0020
0000
0000
,
2030
0000
0000
0000
0000
0000
0000
0000
3100
0000
0000
0000
0000
0000
0000
0000
0002
0000
0000
0000
0013
0000
0200
0000
0000
0000
1300
0000
0000
0010
0000
0000
,
0100
0000
0000
0000
0010
0000
1000
0100
0010
0000
0001
0000
0000
0000
1000
0000
0010
0000
0001
0000
1000
0000
0100
0000
0001
0100
0001
0000
1000
0000
0000
0000
,
0001
0100
0000
0010
1000
0000
0001
0100
0001
0100
0000
0010
1000
0000
0001
0100
,
0001
0100
0000
0010
1000
0000
0001
1000
0001
0100
0010
0000
1000
0000
0001
0000
,
0020
0000
0000
0000
0000
0000
0130
0000
1000
0000
0100
0000
0001
0000
0100
0000
1000
0000
0001
0010
0001
0010
0001
0000
1000
0100
1000
0000
0001
0000
0010
0000
,
0100
0000
1000
0010
0100
0000
0001
0000
1000
0010
0100
0001
0100
0000
0010
0000
1000
0000
0100
1000
0001
0000
0010
0000
0011
0000
1000
0100
0010
0000
0000
0000
,
0021
0000
0000
0032
0000
1003
0100
0000
0010
0002
0000
0103
,
0020
0000
0000
2030
0000
3001
0100
0000
0010
2000
0000
3100
,
0010
0000
0000
0001
0010
0001
0010
0000
0001
0100
0000
0010
,
1000
0000
0000
0000
0100
0000
0010
0000
0100
0000
1000
0000
0010
0000
0100
0000
0010
0000
1000
0000
0100
0000
0010
0100
,
2000
0000
0000
0000
0000
0000
0000
3001
,
0020
0000
0031
0200
0000
0310
0000
2000
,
0000
0000
0000
0000
0000
0000
0000
0000
0000
0000
0000
0001
0000
0200
0000
0000
,
0000
0000
0000
3300
,
0020
0000
0000
0000
0031
0100
0010
1000
,
0200
0000
0000
0000
0300
0000
1000
0001
,
1000
0000
0001
0010
0000
0100
1000
0000
0001
0010
0000
0100
1000
0000
0001
0010
,
0001
0000
1000
0100
0000
0010
0001
0000
1000
0100
0000
0010
0001
0000
1000
0000
,
0010
0000
1000
0010
0000
0100
0001
0000
1000
0010
0000
0100
0001
0000
1000
0000
,
0100
0000
0010
0001
0000
1000
0100
0000
0010
0001
0010
0001
0010
0000
0100
0000
,
1000
0000
0001
0010
0000
0100
1000
0000
0001
0010
0000
0100
1000
0000
0001
0000
,
1000
0000
0100
0010
0000
0001
1000
0000
0010
0100
0010
0100
0010
0000
1000
0000
,
0001
0100
1000
0001
0010
1000
0100
0010
,
1000
0010
0001
1000
0100
0001
1000
0010
,
0001
1000
0001
1000
0001
0100
0001
0100
0010
1000
0010
1000
0010
0100
0010
0100
,
0002
0023
0230
2300
3002
0103
0110
0000
,
2000
0000
0000
0000
3100
0000
0010
0000
0001
0000
0100
0001
0100
0001
0100
0001
,
0020
0000
0000
0000
0100
0000
0031
0000
0100
0000
1000
0000
0100
0001
0100
0001
,
2000
0000
0010
3001
0201
0000
0320
0000
,
1030
0000
0001
0000
0101
0000
0100
0000
0110
0000
0001
1000
0001
0000
0000
0000
,
2000
0000
0000
0000
0010
0000
3100
0000
0100
0000
1000
0010
0100
0000
0001
0010
,
0100
0000
1000
0001
0100
0000
0010
0000
1010
0000
1000
0000
1002
0000
0000
0000
,
0023
0000
0000
0000
0031
0000
0100
0000
0010
0100
0001
0000
0010
0000
0001
0100
,
0010
0000
1000
0000
0100
0000
0010
0000
1001
0000
0000
0110
0000
0000
1001
0000
,
2000
0000
0010
0000
3010
0000
0001
0010
1000
0000
1000
0000
0100
0010
0100
0010
,
0001
0000
0100
1000
0100
0000
0001
0010
0001
0010
0100
0000
1000
0000
0001
0000
,
2000
0100
3002
0010
2003
0100
3002
0010
,
0203
0000
0010
0000
1000
0000
1300
0000
0010
1000
0001
0000
0100
0000
0001
0010
,
1000
0000
0010
0001
0100
0000
0010
1000
0100
0000
0001
0000
0100
0000
0010
0001
,
0100
0000
0010
0100
0001
0000
1000
0000
0001
1000
0010
0000
0100
0000
0001
0100
,
1000
0000
0100
0000
0001
0000
1000
0100
0020
0000
0000
0000
0032
0000
0000
0000
,
1003
0010
1000
0010
1000
0010
1000
0010
0100
0001
0100
0001
0100
0010
0100
0010
,
2000
0000
0000
3000
,
0000
0000
0000
0000
;
#NOTES:
     dance-double:
     :
     Easy:
     8:
     :
00000000
00000000
00000000
00000000
,
00000000
00000000
00000000
00000000
,
00000000
00000000
00000000
00000000
,
00000000
00000000
00000000
00000000
,
00000000
00000000
00000000
00000000
,
00000001
00001000
00000010
00001000
,
00000001
00001000
00000100
00010000
,
00200000
01000000
00000000
10000000
,
00000000
01000000
00000000
10300000
,
01000000
00010000
00001000
00010000
,
00000010
00001000
00000100
00010000
,
00001000
00100000
01000000
10000000
,
10000000
01000000
00100000
00010000
,
00000000
00000010
00000001
00001001
,
00000000
00000010
00010000
00011000
,
00000000
00000010
00001000
00001001
,
00000000
00000100
00010000
00011000
,
00001000
00010000
00100000
00010000
,
00001000
00000100
00001000
00010000
,
02000000
10000000
00100000
13000000
,
00100000
00010000
00001000
00000010
,
00000002
00000000
00000100
00000000
00000103
00000000
00000010
00000010
,
00002000
00000000
00000001
00000000
00003001
00000000
00000010
00000010
,
00002000
00000000
00010000
00000000
00013000
00000000
01000000
01000000
,
00020000
00000000
00100000
00000000
01030000
00000000
10000000
10000000
,
02000000
00000000
00100000
00000000
03010000
00000000
00001000
00000100
,
00000002
00000000
00000010
00000000
00000103
00000000
00000001
00001000
,
00000001
00000100
00001000
00000000
00010000
00000000
00001000
00010000
,
02000000
00000000
00000000
00000000
,
10000000
00000000
03100000
00100000
,
00020000
10000000
01030000
00100000
,
00020000
00000000
00030000
00000010
,
00000002
00000000
00000000
00000000
00000100
00000000
00001000
00000103
,
00000100
00001000
00000100
00000010
,
00000100
00000001
00000010
00001000
,
00010000
00000000
01000000
00100000
00010000
00000000
10000000
01000000
,
00010000
00000000
01000000
10000000
00100000
00000000
01000000
00100000
,
00020000
00000000
00001000
00031000
,
00000200
00000000
00000001
00000301
,
00002000
00003010
00000002
00000103
,
00000020
00000000
00000000
00000030
,
00010000
00000000
00000000
00000000
,
00000000
00000000
00000000
00000000
,
00000000
00000000
00000000
00000000
,
00000000
00000000
00000000
00000000
,
00020000
00000000
00000000
00000000
,
00000000
00000000
00000000
00000000
,
00002000
00000000
00000000
00000000
,
00030000
00000000
00000000
00003000
,
00000000
00010000
00010000
00010000
,
00000000
00100000
00100000
00100000
,
00000000
10000000
10000000
10000000
,
00000000
00010000
00010000
00010000
,
00100000
01000000
00010000
00001000
,
00000010
00000001
00000100
00000010
,
00002000
00000001
00000100
00000010
,
00003001
00000100
00001000
00010000
,
00200000
00000000
10300000
10000000
,
02000000
00000000
03010000
00010000
,
00002000
00000000
00003010
00000001
,
00000200
00000000
00000310
00001001
,
00000002
00000000
00000200
00000003
,
00002300
00000000
00013000
02000000
,
23000000
00000000
00000000
30000000
00020000
00000000
00000000
00030000
,
00200000
00000000
01000000
01300000
,
00020000
00000000
00031000
00000010
,
00000002
00000000
00000103
00001000
,
00020000
00000000
00031000
00000010
,
00000200
00000000
00010300
00011000
,
00100000
10000000
01000000
10000000
,
00010000
10000000
01000000
00010000
,
00002000
00013000
00000010
00001000
,
00000100
00000001
00000100
00001000
,
00000020
00000000
00000000
00000030
,
00000000
00000000
00000000
00000000
;
#NOTES:
     dance-double:
     :
     Medium:
     12:
     :
00000000
00000000
00000000
00000000
,
00000000
00000000
00000000
00000000
,
00000000
00000000
00000000
00000000
,
00000000
00000000
00000000
00000000
,
00000000
00000000
00000000
00000000
,
00000010
00000000
00000000
00000001
00000000
00000000
00000010
00000000
00000000
00001000
00000000
00000000
00010000
00000000
00000000
00000000
,
00100000
00000000
00000000
10000000
00000000
00000000
00010000
00000000
00000000
01000000
00000000
00000000
00100000
00000000
00000000
00000000
,
10000000
00000000
00000000
01000000
00000000
00000000
00010000
00000000
00000000
00001000
00000000
00000000
00010000
00000000
00100000
00000000
,
00010000
00000000
00000000
00001000
00000000
00000000
00000010
00000000
00000000
00000001
00000000
00000000
00001000
00000000
00000000
00000000
,
00000110
00000000
00000001
00000000
00000100
00000000
00001000
00010000
,
00001000
00000000
01000000
00000000
10000000
00000000
01000000
00010000
,
00100000
00000000
10000000
00000000
00100000
00000000
00001000
00010000
,
00001000
01000000
00100000
00010000
,
00001000
00000000
00001010
00000000
00000001
00000010
00000100
00001000
,
00000001
00000000
00000101
00000000
00001000
00010000
01000000
10000000
,
00100000
00000000
01010000
00000000
00010000
01000000
10000000
01000000
,
00010000
00000000
00110000
00000000
00001000
00100000
00010000
10000000
,
01000000
00000000
00010000
00000000
00001000
00000100
00000001
00000100
,
00001000
00000000
00010000
00000000
00100000
10000000
00100000
00010000
,
00001000
00010000
00000100
00000000
00000010
00000001
00000100
00000000
,
00000010
00001000
00000001
00000100
00001000
00010000
00001000
00000000
,
00020000
00100000
00130000
00000000
10100000
10000000
01000000
00100000
,
00002000
01000000
01003000
00100000
20000000
01000000
32000000
00010000
,
03020000
00031000
00011000
00000000
00000010
00000100
00010000
00000100
,
00002000
00000001
00003002
00000000
00000013
00000010
00000001
00001000
,
00002000
00010000
00013000
00000000
01100000
10000000
00010000
00100000
,
00200000
00000000
01300000
10000000
01000000
00010000
00001000
00010000
,
10000000
00100000
00020000
00000000
00031000
00000100
00000001
00000100
,
00001000
00000000
00000000
00000000
00000001
00000000
00000000
00000001
00000000
00000000
00000100
00000000
00000000
00000100
00000000
00000000
,
00000001
00000100
00001000
00000000
00011000
00000000
00001000
00010000
,
02000000
00010000
23000000
00100000
,
30020000
00000000
00000000
00000000
00000000
00000000
00000000
00000000
00001000
00000000
00000000
00000000
00000000
00000000
00000000
00000000
00100000
00000000
00000000
00000000
00000000
00000000
00000000
00000000
00030000
00000000
10000000
00000000
00000000
00100000
00000000
00000000
,
00010000
00001000
00010000
00000000
00001000
00000010
00000100
00001000
,
00000001
00000000
00000000
00001000
00000000
00000000
00000100
00000000
00001000
00000000
00000000
00000001
00000000
00000000
00000100
00000000
,
00000001
00000000
00000000
00000100
00000000
00000000
00001000
00000000
00010000
00000000
01000000
00000000
10000000
00000000
00100000
00000000
,
02000000
00000000
03001000
00100000
01000000
10000000
01000000
00010000
,
00001000
00000010
00000001
00000000
00000100
00000001
00000010
00000000
00000001
00000010
00001000
00000000
00000010
00000000
00000011
00000000
,
00000001
00000000
00000000
00000100
00000000
00001000
00010000
00000000
00001000
00010000
00000000
00000000
,
00100000
00000000
00000000
10000000
00000000
00010000
01000000
00000000
00010000
01000000
00000000
00000000
,
00100000
11000000
00100000
00011000
,
00000020
00001000
00020030
00030100
,
00002200
00000000
00000000
00000000
,
00000000
00000000
00000000
00000000
,
00000000
00000000
00000000
00000000
,
00000000
00000000
00000000
00000000
,
00000300
00000000
00000002
00000000
,
00003000
00000000
00000200
00000000
,
00000003
00000000
00020000
00000000
,
00000300
00000000
02000000
00000000
,
03030000
00100000
00010000
00010000
,
00001000
00010000
00001000
00001000
,
00000010
00000001
00000100
00000100
,
00001000
00010000
01000000
01000000
,
10000000
00000000
00100000
00000000
00010000
00001000
00010000
00000010
,
00000100
00000000
00000001
00000000
00000100
00001000
00010000
01000000
,
10000000
01000000
00010000
00000000
00001000
00100000
00010000
00000000
,
10000000
01000000
00010000
00001000
00010000
01000000
10000000
00000000
,
00200000
00000000
10000000
00000000
00310000
00001000
00000100
00000001
,
00000200
00001000
00000310
00001010
,
00000002
00000000
00000010
00000000
00000103
00001000
00010000
00100000
,
10000000
01100000
00001000
00110000
,
02000000
00000000
00010000
00000000
13000000
00100000
00010000
00001000
,
00000200
00000001
00001300
00101000
,
00000200
00000000
00001000
00000000
00000310
00000001
00000010
00001000
,
00010000
00000000
00000010
00000000
00000100
00001000
00010000
00000000
,
01000000
10000000
00100000
00000000
00100000
01000000
00001000
00000000
,
00010000
00000010
00000100
00000000
00000001
00001000
00000001
00000000
,
00000010
00000100
00010000
00000000
00000010
00000100
00000001
00000000
,
00000020
00000100
00000031
00001100
,
00011000
00000000
00001000
00000010
00000001
00001000
00000001
00000000
,
00000110
00000000
00010000
01000000
10000000
01000000
00010000
00000000
,
00200000
00000000
00310000
10000000
02000000
00000000
13000000
00010000
,
10000000
01000000
00100000
00010000
01000000
00100000
00010000
00001000
,
00020000
00000000
00000000
00030000
,
00000000
00000000
00000000
00000000
;
#NOTES:
     dance-double:
     :
     Hard:
     16:
     :
00000000
00000000
00000000
00000000
,
00000000
00000000
00000000
00000000
,
00000000
00000000
00000000
00000000
,
00000000
00000000
00000000
00000000
,
00000000
00000000
00000000
00000000
00000000
00000000
00000000
00000000
00000000
00000000
00000000
00000000
00000000
00000000
00000000
00000000
00000010
00000000
00000100
00000000
00000001
00000000
00000100
00000010
00001000
00000010
00000100
00000000
00000001
00000000
00000000
00000000
,
00000010
00000000
00000000
00000100
00000000
00000000
00001000
00000000
00000000
00000001
00000000
00000000
00000010
00000000
00001000
00000000
,
00010000
00000000
00000000
01000000
00000000
00000000
10000000
00000000
00000000
00010000
00000000
00000000
00100000
00000000
01000000
00000000
,
10000000
00000000
00000000
00100000
00000000
00000000
01000000
00000000
00000000
00010000
00000000
00000000
10000000
00000000
00100000
00000000
,
00010000
00000000
00000000
00001000
00000000
00000000
00000100
00000000
00000000
00000001
00000000
00000000
00001000
00000000
00000010
00000000
,
00000001
00000000
00000000
00000010
00000000
00000000
00001000
00000000
00000000
00010000
00000000
00000000
00100000
00000000
01000000
00000000
,
10000000
00000000
00000000
01000000
00000000
00000000
00010000
00000000
00000000
00001000
00000000
00000000
00000100
00000000
00000010
00000000
,
00000001
00000000
00000000
00000010
00000000
00000000
00001000
00000000
00000000
00010000
00000000
00000000
00100000
00000000
01000000
00000000
,
10000000
00000000
00000000
01000000
00000000
00000000
00010000
00000000
00000000
01000000
00000000
00000000
00100000
00000000
00010000
00000000
,
10000000
00000000
01000000
00100000
00000000
00010000
01000000
00000000
00100000
10000000
00000000
01000000
00010000
00000000
00001000
00000000
,
00000010
00000000
00000001
00000100
00000000
00000010
00001000
00000000
00000100
00000010
00000000
00000001
00000100
00000000
00001000
00000000
,
00010000
00000000
01000000
10000000
00000000
00100000
01000000
00000000
00010000
10000000
00000000
01000000
00010000
00000000
00001000
00000000
,
00000010
00000000
00000001
00000100
00000000
00000010
00001000
00000000
00000100
00000010
00000000
00000001
00000100
00000000
00001000
00000000
,
00010000
00100000
10000000
00010000
01000000
10000000
00010000
00100000
,
00010000
00001000
00000010
00001000
00000010
00000001
00000100
00000010
,
00001000
00000001
00001000
00000001
00000010
00000001
00000010
00000001
00001000
00000100
00001000
00000100
00000010
00000001
00000010
00000001
,
00002000
00003020
00000230
00002300
00023000
02030000
13000000
00000000
,
02000000
00000000
00000000
00000000
00000000
00000000
00000000
00000000
03100000
00000000
00010000
01000000
00010000
01000000
00010000
01000000
00200000
00000000
00000000
00000000
00000000
00000000
10300000
00000000
01000000
00100000
00010000
00000000
10000000
00000000
00100000
00000000
,
00020000
00000000
00000000
00000000
00000000
00000000
00031000
00000000
00000020
00000000
00000000
00000000
00000032
00000000
00000000
00000000
00002003
00000000
00000000
00000000
00003010
00000000
00000100
00000000
00000001
00001000
00000001
00000000
00000100
00000000
00000000
00000000
,
00002020
00000000
00000000
00000000
00000000
00000000
00000030
00000000
00003001
00000000
00000100
00000000
00001000
00000000
00010000
00000000
00000010
00000000
00010000
00001000
00010000
00000000
00001000
00000000
00100000
00000000
01000000
00000000
10000000
00000000
10000000
00000000
,
00020000
00000000
00000000
00000000
10030000
00000000
01000000
00100000
00020000
00000000
00000000
00000000
10030000
00000000
01000000
00000000
00010000
00000000
00001000
00000000
00000010
00000000
00000001
00000000
00000100
00000000
00000000
00000100
00000000
00000000
00000100
00000000
,
00000020
00000000
00000000
00000000
00001030
00000000
00000001
00000000
00000100
00000000
00000010
00001000
00000010
00001000
00000010
00001000
00000002
00000000
00000000
00000000
00000103
00000000
00000010
00000000
00001000
00000100
00000010
00000000
00000001
00000000
00000100
00000000
,
00002000
00000000
00000000
00000000
00000000
00000000
00013000
00000000
01000000
00000000
10000000
00000000
01000000
00000000
01000000
00000000
00100000
00000000
00010000
00000000
00100000
00000000
01000000
00000000
10000000
01000000
10000000
00000000
00010000
00000000
01000000
00100000
,
20000000
00000000
00000000
00010000
00000000
00000000
00100000
00000000
31000000
00000000
00100000
00000000
00010000
00000000
10000000
00000000
01000000
00000000
00010000
00001000
00010000
00000000
00001000
00000000
00000100
00000000
00000001
00000000
00000100
00000000
00000010
00000000
,
00001000
00000000
00000000
00000000
00000101
00000000
00000000
00000110
00000000
00000000
00001001
00000000
00000000
00010010
00000000
00000000
,
00000001
00000000
00000100
00000010
00001000
00000000
00000010
00000000
00010000
00001000
00010000
00001000
00010000
00000000
00000010
00000000
,
00000200
00000000
00000000
00000000
00000010
00000000
00000000
00000000
00002300
00000000
00000000
00000000
00013000
02000000
00000000
00000000
,
23000000
00000000
00000000
00000000
00000000
00000000
00000000
00000000
30010000
00000000
00000000
00000000
00000000
00000000
01000000
00000000
00200000
00000000
00000000
00000000
10300000
00000000
00020000
00000000
00000000
00000000
10030000
00000000
00000000
01000000
00000000
00000000
,
00010000
00000000
00000000
00000000
00001000
00000000
00000100
00000001
00000100
00000000
00000010
00000000
00000000
00000000
00001000
00000000
00000001
00000000
00000100
00000000
00000010
00000000
00001000
00000000
00000001
00000100
00000001
00000000
00001000
00000000
00000000
00000000
,
00000100
00001000
00000000
00000001
00000010
00000000
00001000
00000000
00010000
00001000
00000000
00000010
00000001
00000000
00000010
00000000
,
00001000
00010000
00000000
00001000
00000010
00000000
00000001
00000000
00000100
00000000
00001000
00000000
00010000
00000000
01000000
00000000
,
20000000
00000000
00000000
00000000
00000000
00000000
30010000
00000000
00100000
00000000
01000000
00000000
00100000
00000000
00010000
00000000
01000000
00000000
00100000
10000000
00100000
00000000
01000000
00000000
00010000
10000000
00010000
00000000
01000000
00000000
00100000
00000000
,
00010000
00000000
00001000
00010000
00001000
00000000
00000010
00000000
00000001
00001000
00000001
00000000
00000100
00000000
00000010
00000000
00001000
00000000
00000100
00000000
00000010
00000000
00000000
00000000
00001001
00000000
00000000
00000000
00000110
00000000
00000000
00000000
,
00002000
00000000
00000000
00003200
00000000
00000310
00000001
00000000
00000100
00002000
00000000
00013000
,
02000000
00000000
00000000
23000000
00000000
30100000
01000000
00000000
00010000
00200000
00000000
01300000
,
10000000
00000000
00000000
00200000
00000000
00310000
00001000
00000000
00000000
00000020
00000000
00000031
,
00000100
00000000
00000010
00010000
00000010
00001000
00000001
00000100
00000010
00001000
00000010
00000100
,
00000002
00000000
00000000
00000000
00000000
00000000
00000000
00001003
,
00000020
00000000
00010030
02000000
00000000
13000000
00000000
00020000
,
00000000
00000000
00000000
00000000
00000000
00000000
00000000
01030000
,
00002000
00000000
00000000
00003000
,
00020000
00000000
00000000
00000000
01030000
10000000
00100000
00010000
,
00002000
00000000
00000000
00000000
00003000
00000000
00000100
00000001
,
00000010
00000000
00001000
00010000
00000000
00001000
00000010
00000000
00001000
00010000
00000000
00001000
00000010
00000000
00001000
00000000
,
00010000
00000000
00100000
10000000
00000000
00100000
00010000
00000000
00100000
10000000
00000000
01000000
00100000
00000000
00010000
00000000
,
10000000
00000000
01000000
00100000
00000000
01000000
10000000
00000000
01000000
00100000
00000000
01000000
10000000
00000000
00100000
00000000
,
00010000
00000000
00001000
00010000
00000000
00001000
00000010
00000000
00001000
00010000
00000000
00001000
00000010
00000000
00000001
00000000
,
00000100
00000000
00000010
00001000
00000000
00000010
00000001
00000000
00000010
00001000
00000000
00000010
00000001
00000000
00000010
00000000
,
00000100
00000000
00001000
00010000
00000000
00001000
00000100
00000000
00001000
00010000
00000000
00001000
00000100
00000000
00001000
00000000
,
00010000
01000000
10000000
00010000
00100000
01000000
10000000
00100000
,
00010000
00001000
00000010
00000100
00000010
00000001
00001000
00000010
,
00000100
00000001
00000100
00000001
00000100
00000001
00000100
00000001
00001000
00000010
00001000
00000010
00001000
00000001
00001000
00000001
,
00000200
00002300
00023000
02030000
23000000
30200000
02300000
03000000
,
00020000
00000000
00000000
00030000
00100000
00000000
01000000
00000000
10000000
00000000
00010000
10000000
00010000
10000000
00010000
10000000
,
00200000
00000000
00000000
00000000
10300000
00000000
01000000
00000000
00010000
00001000
00010000
00000000
00000100
00000000
00000010
00000001
,
00002000
00000000
00003001
00001000
00020000
00000000
00032000
00000000
,
00003001
00011000
00001001
00000110
,
00000002
00000000
00000000
00000000
00000103
00000000
00000001
00000000
00000010
00000000
00001000
00010000
00001000
00000000
00100000
01000000
,
10000000
00000000
00010000
01000000
00100000
00000000
10000000
00000000
00010000
00000000
00000000
00000000
00021000
00000000
00000000
00000000
,
10030000
00000000
00000000
00000000
00100000
00000000
10000000
00000000
01000000
00000000
00010000
00001000
00010000
00000000
00000100
00001000
,
00000100
00000000
00000010
00000001
00000010
00000000
00000100
00000000
00010000
00000000
00000000
00010100
00000000
00000000
00001100
00000000
,
00000002
00000000
00000010
00000000
00000013
00000000
00001000
00000000
00010000
00000000
00001000
00000000
00000010
00000001
00000010
00000001
,
00000100
00000000
00010000
00000000
00000100
00000000
00000001
00000000
00000100
00000010
00010000
00000000
00000100
00000000
00000010
00000000
,
00002000
00010000
00023000
00001000
00230000
20300000
32000000
03020000
,
00031000
00000000
00000010
00000000
00010000
00000000
00100000
00000000
00001000
00000000
00010000
00000000
00002000
00000000
00003000
00000010
,
00000001
00000000
00001000
00000100
00000010
00000000
00000001
00000000
00001000
00000000
00001000
00000000
00010000
00000000
00010000
00000000
,
10000000
00000000
00010000
00100000
10000000
00000000
00010000
00000000
00010000
00000000
00001000
00000000
00001000
00000000
00000001
00000000
,
00001001
00000000
00000000
00000000
00000001
00000000
00000100
00001000
00020000
00000000
00000000
00000000
00230000
00000000
00000000
00000000
,
10300000
00010000
10000000
00010000
10000000
00010000
10000000
00010000
00100000
00010000
00100000
00010000
00100000
01000000
00100000
01000000
,
20000000
00000000
00000000
30000000
,
00000000
00000000
00000000
00000000
;
