
//----- song ID: rosi -----//
#TITLE:炉心融解;
#ARTIST:iroha;
#TITLETRANSLIT:Roshin yuukai;
#BANNER:Roshin yuukai.png;
#BACKGROUND:Roshin yuukai-bg.png;
#CDTITLE:./CDTitles/SOUND VOLTEX BOOTH.png;
#MUSIC:Roshin yuukai.ogg;
#SAMPLESTART:69.092;
#SAMPLELENGTH:15;
#BPMS:0=165;
#NOTES:
     dance-single:
     :
     Beginner:
     2:
     :
0000
0000
0000
0000
,
0000
0000
0000
0000
,
0000
0000
0000
0000
,
0000
0000
0000
0000
,
0000
0000
0000
0000
,
0000
0000
0000
0000
,
0000
0000
1000
0000
,
1000
0000
0010
0000
,
0000
0000
1000
0000
,
0010
0000
1000
0000
,
0000
0000
0001
0000
,
0001
0000
0010
0000
,
0000
0000
0002
0000
,
0003
0000
0000
0000
,
0001
0001
0001
0000
,
0000
0000
0000
0000
,
1000
1000
1000
0000
,
0000
0000
0000
0000
,
0010
0010
0010
0000
,
0000
0000
0000
0000
,
0100
0100
0100
0000
,
0000
0000
1001
0000
,
0000
0000
0001
0000
,
0010
0000
0002
0000
,
0003
0000
0010
0000
,
0010
0000
0001
0000
,
0000
0000
1000
0000
,
0010
0000
2000
0000
,
3000
0000
0010
0000
,
0010
0000
1000
0000
,
0000
0000
0002
0000
,
0003
0000
0001
0000
,
0000
0000
2000
0000
,
3000
0000
1000
0000
,
0000
0000
0020
0000
,
0030
0000
0010
0000
,
0000
0000
0200
0000
,
0300
0000
0100
0000
,
0100
0000
0001
0000
,
0001
0000
0001
0000
,
0000
0000
1000
0000
,
0010
0000
1000
0000
,
0100
0000
1000
0000
,
1000
0000
1000
0000
,
0000
0000
0001
0000
,
0010
0000
0002
0000
,
0000
0000
0000
0000
,
0003
0000
0000
0000
,
0001
0000
0010
0000
,
0001
0000
0100
0000
,
0001
0000
0000
0000
,
1001
0000
0000
0000
,
1000
0000
1000
0000
,
0010
0000
0000
0000
,
0002
0000
0003
0000
,
2000
0000
3000
0000
,
1000
0000
0010
0000
,
1000
0000
0100
0000
,
1000
0000
0000
0000
,
1001
0000
0000
0000
,
0001
0000
0001
0000
,
0010
0000
0000
0000
,
2000
0000
3000
0000
,
0002
0000
0003
0000
,
1000
0000
1000
0000
,
1000
0000
0000
0000
,
0001
0000
0001
0000
,
0001
0000
0000
0000
,
1000
0000
0010
0000
,
1000
0000
0100
0000
,
2000
0000
3000
0000
,
0002
0000
0003
0000
,
1001
0000
0000
0000
,
0000
0000
0000
0000
;
#NOTES:
     dance-single:
     :
     Easy:
     6:
     :
0000
0000
0000
0000
,
0000
0000
0000
0000
,
0000
0000
0000
0000
,
0000
0000
0000
0000
,
0000
0000
0000
0000
,
0000
0000
0000
0000
,
0000
0000
0001
0001
,
0100
0000
0010
1000
,
1001
0000
1000
1000
,
0100
0000
0010
0001
,
1000
0000
0001
0001
,
1000
0000
0010
0100
,
0002
0000
0203
0000
,
0000
0000
0300
0000
,
1001
1001
0100
0010
,
1000
0001
0100
0000
,
0110
0000
0001
0100
,
0010
1000
0001
0000
,
1001
0000
0010
0100
,
1000
0001
1000
0000
,
1001
0000
0001
0100
,
1000
0100
0001
0000
,
1001
0000
0110
0000
,
1001
0000
0001
0010
,
0100
1000
1001
0000
,
0110
0000
0010
1000
,
0001
0000
0110
0000
,
1001
0000
1000
0100
,
0010
0001
1001
0000
,
0110
0000
0010
0001
,
1000
0000
1000
0100
,
0010
0001
0020
0000
,
0030
0000
0001
0100
,
0100
0010
0010
1000
,
0001
0000
0001
0010
,
0100
1000
0200
0000
,
0300
0000
0010
0010
,
0001
0001
1000
0001
,
1001
0000
1000
0100
,
0001
0100
1000
0001
,
1000
0000
0001
0100
,
1000
0100
0001
1000
,
0100
1000
0001
0010
,
1000
0010
0001
1000
,
0001
0000
1000
0010
,
0001
0010
2000
0000
,
0000
0000
0000
0000
,
3000
0000
0000
0000
,
0001
0100
0010
1000
,
0001
1000
0100
0000
,
0120
0000
0031
0000
,
0001
0100
1000
0000
,
0002
0000
2003
0000
,
3020
0000
0230
0000
,
0301
1000
0001
0010
,
0100
1000
0001
0000
,
1000
0100
0010
0001
,
1000
0001
0100
0000
,
0120
0000
1030
0000
,
1000
0100
0001
0000
,
2000
0000
3002
0000
,
0023
0000
0230
0000
,
1300
0001
1000
0010
,
0100
0001
1000
0000
,
1001
1000
0100
0010
,
0001
0100
0010
0000
,
1001
0001
0100
0000
,
0110
0001
1000
0000
,
0002
0000
0203
0000
,
2300
0000
3020
0000
,
0032
0000
0000
0000
,
2003
0000
0000
0000
,
3001
0000
0000
0000
,
0000
0000
0000
0000
;
#NOTES:
     dance-single:
     :
     Medium:
     10:
     :
0000
0000
0000
0000
,
0000
0000
0000
0000
,
0000
0000
0000
0000
,
0000
0000
0000
0000
,
0000
0000
0000
0000
,
0000
0000
0000
0000
,
0000
0000
0000
0000
1000
0000
1000
0100
,
0000
0010
0001
0000
1000
0000
0010
0100
,
0000
0001
0100
0000
0010
0000
0010
1000
,
0000
0010
0100
0000
0001
0000
0010
0100
,
0000
1000
0100
0000
0010
0000
0010
0001
,
0000
1000
0001
0000
0100
0000
0010
1000
,
0020
0000
0230
0301
,
0002
1003
2000
3100
,
0110
0000
1001
0000
0001
0001
0000
0000
,
0000
0011
0000
1001
0000
1100
0000
1000
,
0100
0000
0010
0000
0100
0100
0000
0000
,
0000
0110
0000
0011
0000
1001
0000
0001
,
0100
0000
0010
0000
1000
1000
0000
0000
,
0000
1010
0000
0110
0000
0101
0000
0001
,
0100
0000
0010
0000
1000
1000
0000
0000
,
0000
1001
0000
0110
0000
1001
0000
0100
,
0010
0000
0000
0000
1001
0000
0100
0010
,
1000
0000
0010
0100
0001
0000
1000
0000
,
0001
0000
0010
0000
0100
0000
1000
0001
,
1000
0000
0100
0010
0001
0000
2000
0000
,
3001
0000
0000
0000
0011
0000
0100
1000
,
0001
0000
0010
0100
1000
0000
0001
0000
,
0100
0000
0010
0000
1000
0000
0001
1000
,
0010
0000
0100
0000
0001
1000
0001
0000
,
1000
0000
1001
0000
0001
0000
0100
0010
,
1000
0000
0001
0200
0000
0000
0300
0000
,
0000
0000
0001
1000
0001
0000
0010
0000
,
0100
1000
0001
0000
1000
0000
0001
0000
,
1001
0000
0000
0000
0001
0000
0010
0100
,
1000
0000
0001
0020
0000
0000
0030
0000
,
0000
0000
0001
1000
0001
0000
0010
0000
,
0100
1000
0001
0000
1000
0000
0001
0000
,
1001
2000
3010
0100
,
0001
0100
0010
0000
1000
0001
0100
0000
,
0110
0000
0000
0000
0001
0100
1000
0000
,
1000
0100
0001
0000
1000
0100
0001
0000
,
0001
0100
1000
0000
0001
0000
1000
0000
,
0001
0010
0100
0000
1000
0001
0010
0000
,
0110
0000
1000
0010
,
0100
0001
1000
0002
0000
0000
0000
2000
,
0000
0000
0000
0000
,
3003
0000
0000
0000
,
0001
0010
0100
1000
,
0010
0000
0100
0001
0000
1000
0010
1000
,
0000
0000
0000
0000
0000
0001
0100
0010
,
1000
0000
0010
0100
0000
0001
0000
1001
,
0000
0000
0000
0000
0000
0001
0010
0100
,
1000
0000
0100
0010
0000
0010
0001
0000
,
1000
0100
0010
0000
0001
0010
0100
0000
,
1000
0001
0100
0000
0001
1000
0001
0000
,
1000
0010
0100
0001
,
0010
0000
0100
1000
0000
0001
0010
0001
,
0000
0000
0000
0000
0000
1000
0100
0010
,
0001
0000
0010
0100
0000
1000
0000
1001
,
0000
0000
0000
0000
0000
1000
0010
0100
,
0001
0000
0100
0010
0000
0010
1000
0000
,
0001
0100
0010
0000
1000
0010
0100
0000
,
0001
1000
0100
0000
1000
0001
1000
0000
,
1001
0010
1001
0100
,
0011
1001
1010
0110
,
1001
0100
1001
0010
,
0110
1001
0110
0000
,
2100
3001
0012
1003
,
1200
0310
0021
0130
,
0200
0001
1000
0001
,
0320
1000
0001
1030
,
2002
0000
0000
0000
,
0000
0000
0000
0000
,
0000
0000
0000
0000
,
0000
0000
0000
0000
,
3003
0000
0000
0000
,
0000
0000
0000
0000
;
#NOTES:
     dance-single:
     :
     Hard:
     12:
     :
0000
0000
0000
0000
,
0000
0000
0000
0000
,
0000
0000
0000
0000
,
0000
0000
0000
0000
,
0000
0000
0000
0000
,
0000
0000
0000
0000
,
0000
0000
0000
0000
0001
1000
0010
0100
,
0000
0001
1000
0001
0010
0000
0010
0100
,
0000
0100
1000
1000
0100
0010
0001
1000
,
0000
0001
1000
0010
0100
0000
0100
0001
,
0000
0001
1000
1000
0010
0100
0001
1000
,
0000
0100
0010
0001
1000
0000
1000
0010
,
0002
0000
0013
0000
0001
0010
0100
0000
,
1000
0100
0001
0000
1000
0001
0010
0000
,
0110
0000
1001
0000
0001
0001
1000
0100
,
0010
0001
1000
0001
0000
0010
0000
0100
,
0110
0000
0011
0000
1000
1000
0001
1000
,
0010
0100
0001
1000
0000
0010
0000
0100
,
0110
0000
1010
0000
0010
0010
1000
0001
,
0010
0100
1000
0100
0000
0010
0000
0001
,
0011
0000
0110
0000
1000
1000
0001
0010
,
0100
1000
0001
0100
0000
0010
0000
1000
,
1001
0000
0000
0001
1000
0000
0010
0100
,
0001
0000
1000
0001
1000
0100
0001
0100
,
1000
0010
0001
0010
1000
0000
0001
1000
,
0010
0000
0100
0001
0000
0100
0010
1000
,
0000
0000
0000
1000
0100
0000
0010
0001
,
1000
0000
0100
0010
0001
0010
0100
0010
,
0001
0100
1000
0100
0001
0000
1000
0010
,
0100
0000
0001
1000
0000
0001
0100
0000
,
0010
0100
0010
1000
0001
0000
1000
0100
,
0001
1000
0010
0001
0000
1000
0001
0100
,
0010
1000
0001
0100
0010
0000
0110
0000
,
0001
0100
0010
1000
0000
0001
0010
0100
,
0000
1000
0001
1000
0100
0000
0001
0100
,
1000
0001
0010
1000
0000
0010
0001
0010
,
0100
1000
0001
0100
0010
0000
1010
0000
,
0001
0100
0010
1000
0000
0010
0100
0001
,
0000
1000
0100
0010
0110
0000
1001
0000
,
0010
0100
0001
1000
0001
0100
1000
0100
,
0000
0010
0100
0010
0110
0000
1001
0000
,
0010
0100
1000
0001
0000
0010
1000
0010
,
0001
0100
1000
0100
0110
0000
1001
0000
,
0010
0100
1000
0100
0001
0100
1000
0100
,
0000
1000
0100
0010
0110
0000
1001
0000
,
0001
0100
0010
1000
0000
0100
0010
0002
,
0000
0000
0000
0000
,
0003
0000
0000
0000
,
0101
1100
1010
0011
,
1001
0000
1000
0010
0000
0100
0001
1000
,
0000
0001
0100
0010
1000
0001
0100
0010
,
0100
0000
0010
1000
0000
0001
1000
0100
,
0000
0010
0001
1000
0001
0010
0100
1000
,
0001
0000
1000
0100
0000
0010
0100
0010
,
0001
0100
1000
0100
0001
1000
0001
0010
,
0100
0001
0100
1000
0001
0100
0001
0000
,
1010
0011
0101
1100
,
1001
0000
0001
0100
0000
0010
1000
0001
,
0000
1000
0010
0100
0001
1000
0010
0100
,
0010
0000
0100
0001
0000
1000
0001
0010
,
0000
0100
1000
0001
1000
0100
0010
0001
,
1000
0000
0001
0010
0000
0100
0010
0100
,
1000
0010
0001
0010
1000
0001
1000
0100
,
0010
1000
0010
0001
1000
0010
1000
0000
,
0001
0001
0100
0010
0000
1000
0001
0100
,
0000
0010
1000
0001
1000
0010
0100
0000
,
0010
0010
1000
0001
0000
1000
0100
0010
,
0010
0001
0100
0001
1000
0010
0100
0000
,
0001
0001
0010
0100
1000
1000
0010
0100
,
0001
0001
0010
0001
1000
1000
0010
0100
,
0001
0001
0010
0100
1000
0001
1000
0100
,
0010
0010
0001
1000
0010
0100
0001
0000
,
2002
0000
0000
0000
,
0000
0000
0000
0000
,
0000
0000
0000
0000
,
0000
0000
0000
0000
,
3003
0000
0000
0000
,
0000
0000
0000
0000
;
#NOTES:
     dance-double:
     :
     Easy:
     6:
     :
00000000
00000000
00000000
00000000
,
00000000
00000000
00000000
00000000
,
00000000
00000000
00000000
00000000
,
00000000
00000000
00000000
00000000
,
00000000
00000000
00000000
00000000
,
00000000
00000000
00000000
00000000
,
00000000
00000000
00001000
00001000
,
00000100
00000010
00000001
00001000
,
00001001
00000000
00000001
00000001
,
00000100
00001000
00010000
00001000
,
00010000
00100000
10000000
10000000
,
00010000
10000000
01000000
00010000
,
00002000
00000000
00003020
00000000
,
00000000
00000000
00000000
00000030
,
00000011
00000011
00000100
00001000
,
00010000
00100000
10000000
00100000
,
01100000
00000000
10000000
01000000
,
00010000
00001000
00010000
00001000
,
00001100
00000000
00000010
00001000
,
00000001
00000100
00001000
00010000
,
00011000
00000000
00010000
00100000
,
10000000
00010000
10000000
01000000
,
00010000
00000000
00011000
00000000
,
00000110
00000000
00000001
00000010
,
00000100
00001000
00001001
00000000
,
00000110
00000000
00000100
00001000
,
00010000
00000000
00011000
00000000
,
01100000
00000000
10000000
00100000
,
01000000
00010000
10010000
00000000
,
01100000
00000000
00100000
00001000
,
00010000
00000000
00001000
00000100
,
00000001
00000100
00000020
00000000
,
00000030
00000000
00000001
00000100
,
00000100
00001000
00001000
00010000
,
00010000
00100000
10000000
00010000
,
10000000
01000000
00200000
00000000
,
00300000
00000000
01000000
01000000
,
00010000
00010000
00001000
00010000
,
00011000
00000000
00001000
00000010
,
00000001
00000010
00001000
00010000
,
00001000
00000000
00010000
01000000
,
10000000
01000000
00010000
00001000
,
00000100
00001000
00010000
00100000
,
10000000
00100000
00010000
00001000
,
00010000
00000000
00001000
00000100
,
00000001
00000100
00002000
00000000
,
00000000
00000000
00000000
00000000
,
00003000
00000000
00000000
00000000
,
00001000
00010000
00100000
01000000
,
00010000
10000000
01000000
00000000
,
20000000
00000000
31000000
00000000
,
01000000
00010000
00001000
00000000
,
00020000
00000000
00032000
00000000
,
00003020
00000000
00000032
00000000
,
00000103
00001000
00010000
00100000
,
10000000
01000000
00010000
00000000
,
00010000
00001000
00000010
00000100
,
00001000
00000001
00000100
00000000
,
00000002
00000000
00000103
00000000
,
00000100
00001000
00010000
00000000
,
00002000
00000000
00023000
00000000
,
00230000
00000000
20300000
00000000
,
31000000
00010000
00001000
00000010
,
00000001
00000100
00001000
00000000
,
00011000
00010000
00100000
10000000
,
00010000
01000000
00100000
00000000
,
10010000
10000000
01000000
00010000
,
00011000
00001000
00000010
00000000
,
00000002
00000000
00000203
00000000
,
00002300
00000000
00023000
00000000
,
00230000
00000000
00000000
00000000
,
20300000
00000000
00000000
00000000
,
30010000
00000000
00000000
00000000
,
00000000
00000000
00000000
00000000
;
#NOTES:
     dance-double:
     :
     Medium:
     10:
     :
00000000
00000000
00000000
00000000
,
00000000
00000000
00000000
00000000
,
00000000
00000000
00000000
00000000
,
00000000
00000000
00000000
00000000
,
00000000
00000000
00000000
00000000
,
00000000
00000000
00000000
00000000
,
00000000
00000000
00000000
00000000
00001000
00000000
00001000
00000100
,
00000000
00000010
00000001
00000000
00000010
00000000
00000100
00001000
,
00000000
00000001
00001000
00000000
00000001
00000000
00000001
00000100
,
00000000
00001000
00010000
00000000
00001000
00000000
00100000
00010000
,
00000000
00100000
01000000
00000000
10000000
00000000
10000000
00100000
,
00000000
00010000
00001000
00000000
00010000
00000000
00001000
00000100
,
00000002
00000000
00000023
00000130
,
00000200
00001300
00002000
00013000
,
00110000
00000000
01100000
00000000
10000000
10000000
00000000
11000000
,
00000000
01010000
00000000
01100000
00000000
01000000
00000000
00010000
,
00001000
00000000
00000010
00000000
00000001
00000001
00000000
00000101
,
00000000
00001100
00000000
00000110
00000000
00000010
00000000
00000100
,
00001000
00000000
00010000
00000000
00100000
00100000
00000000
10100000
,
00000000
00110000
00000000
00011000
00000000
00001000
00000000
00000100
,
00000001
00000000
00000010
00000000
00000001
00000001
00000000
00000011
,
00000000
00001010
00000000
00011000
00000000
00010000
00000000
01000000
,
10000000
00000000
00000000
00000000
11000000
00000000
00100000
00010000
,
10000000
00000000
01000000
00010000
00001000
00000000
00010000
00000000
,
00001000
00000000
00000010
00000000
00000001
00000000
00000100
00000001
,
00001000
00000000
00000010
00000100
00000010
00000000
00001000
00000000
,
00000001
00000000
00000000
00000000
00000011
00000000
00000001
00000100
,
00001000
00000000
00010000
00001000
00010000
00000000
00100000
00000000
,
10000000
00000000
00100000
00000000
01000000
00000000
00010000
10000000
,
01000000
00000000
00100000
00000000
00001000
00010000
00001000
00000000
,
00010000
00000000
00011000
00000000
00010000
00000000
00001000
00000010
,
00000001
00000000
00000010
00000100
00001000
00000000
00000000
00000000
,
00000000
00000000
00000001
00001000
00000001
00000000
00000100
00000000
,
00001000
00010000
00001000
00000000
00010000
00000000
00001000
00000000
,
00011000
00000000
00000000
00000000
00001000
00000000
00010000
00100000
,
10000000
00000000
00100000
01000000
00010000
00000000
00000000
00000000
,
00000000
00000000
10000000
00010000
10000000
00000000
01000000
00000000
,
00010000
00001000
00010000
00000000
00001000
00000000
00010000
00000000
,
00011000
00020000
00031000
00000010
,
00000001
00000010
00000100
00000000
00001000
00000001
00000100
00000000
,
00000110
00000000
00000000
00000000
00000001
00000100
00001000
00000000
,
00000100
00001000
00010000
00000000
00001000
00010000
00100000
00000000
,
00010000
00100000
01000000
00000000
00100000
00000000
10000000
00000000
,
00010000
01000000
00100000
00000000
10000000
00010000
00100000
00000000
,
01100000
00000000
10000000
01000000
,
00010000
00001000
00010000
00002000
00000000
00000000
00000000
00020000
,
00000000
00000000
00000000
00000000
,
00033000
00000000
00000000
00000000
,
00001000
00000010
00000001
00000010
,
00000100
00000000
00001000
00000001
00000000
00000100
00000010
00000100
,
00000000
00000000
00000000
00000000
00000000
00000001
00000100
00001000
,
00000100
00000000
00001000
00010000
00000000
00001000
00000000
00011000
,
00000000
00000000
00000000
00000000
00000000
00010000
00100000
10000000
,
00100000
00000000
01000000
00010000
00000000
10000000
00010000
00000000
,
10000000
00000000
01000000
00000000
00010000
00001000
00000010
00000000
,
00000001
00000000
00000100
00000000
00001000
00010000
00001000
00000000
,
00010000
00100000
10000000
00100000
,
01000000
00000000
00010000
10000000
00000000
01000000
00100000
01000000
,
00000000
00000000
00000000
00000000
00000000
10000000
01000000
00010000
,
01000000
00000000
00010000
00001000
00000000
00010000
00000000
00011000
,
00000000
00000000
00000000
00000000
00000000
00001000
00000010
00000001
,
00000010
00000000
00000100
00001000
00000000
00000001
00001000
00000000
,
00000001
00000000
00000100
00000000
00001000
00010000
00100000
00000000
,
10000000
00000000
01000000
00000000
00010000
00001000
00010000
00000000
,
00011000
00000100
00000110
00001000
,
00000011
00001010
00000101
00001010
,
00000110
00001000
00011000
00100000
,
01100000
10010000
01100000
00000000
,
20000000
31000000
00020000
00130000
,
20000000
31000000
00200000
00310000
,
00002000
00000100
00000001
00000010
,
00023000
01000000
10000000
00130000
,
00022000
00000000
00000000
00000000
,
00000000
00000000
00000000
00000000
,
00000000
00000000
00000000
00000000
,
00000000
00000000
00000000
00000000
,
00033000
00000000
00000000
00000000
,
00000000
00000000
00000000
00000000
;
#NOTES:
     dance-double:
     :
     Hard:
     12:
     :
00000000
00000000
00000000
00000000
,
00000000
00000000
00000000
00000000
,
00000000
00000000
00000000
00000000
,
00000000
00000000
00000000
00000000
,
00000000
00000000
00000000
00000000
,
00000000
00000000
00000000
00000000
,
00000000
00000000
00000000
00000000
00000010
00001000
00000001
00000010
,
00000000
00000100
00001000
00000001
00000100
00000000
00000100
00001000
,
00000000
00001000
00010000
00010000
00100000
10000000
00010000
01000000
,
00000000
00100000
10000000
00010000
00100000
00000000
00100000
01000000
,
00000000
01000000
00010000
00010000
00001000
00000010
00000001
00000010
,
00000000
00000100
00001000
00000001
00000100
00000000
00000100
00000010
,
00000002
00000000
00000013
00000000
00001000
00000010
00000100
00000000
,
00000001
00001000
00000100
00000000
00010000
00001000
00100000
00000000
,
01100000
00000000
10010000
00000000
00100000
00100000
10000000
01000000
,
00100000
00010000
10000000
00010000
00000000
00100000
00000000
01000000
,
01100000
00000000
00110000
00000000
00001000
00001000
00010000
00001000
,
00000100
00000010
00001000
00000001
00000000
00000010
00000000
00000100
,
00000110
00000000
00000011
00000000
00001000
00001000
00000001
00000100
,
00000010
00001000
00000100
00010000
00000000
00001000
00000000
00010000
,
00011000
00000000
00110000
00000000
10000000
10000000
00010000
01000000
,
00100000
10000000
00010000
00100000
00000000
01000000
00000000
10000000
,
10010000
00000000
00000000
00010000
10000000
00000000
01000000
00010000
,
00001000
00000000
00010000
00001000
00000100
00000001
00001000
00000001
,
00000010
00000100
00001000
00000001
00000100
00000000
00001000
00010000
,
00001000
00000000
00010000
00100000
00000000
10000000
00010000
01000000
,
00000000
00000000
00000000
10000000
00010000
00000000
00100000
00001000
,
00010000
00000000
00001000
00000100
00000001
00001000
00000010
00000100
,
00000001
00000010
00000100
00001000
00000100
00000000
00000010
00000001
,
00000010
00000000
00000100
00010000
00000000
00001000
00100000
00000000
,
01000000
00100000
01000000
10000000
00010000
00000000
10000000
01000000
,
00010000
00001000
00000010
00000001
00000000
00001000
00000001
00000100
,
00000010
00001000
00000001
00000010
00000100
00000000
00000110
00000000
,
00000001
00000010
00001000
00010000
00000000
00001000
00010000
00100000
,
00000000
10000000
00010000
10000000
00100000
00000000
10000000
00100000
,
00010000
00001000
00000100
00000001
00000000
00001000
00000001
00000010
,
00000100
00001000
00000001
00000100
00000010
00000000
00001010
00000000
,
00000001
00000100
00001000
00010000
00000000
00000010
00001000
00010000
,
00000000
01000000
00100000
01000000
01100000
00000000
10010000
00000000
,
01000000
00100000
00001000
00010000
00100000
00010000
00001000
00000100
,
00000000
00000010
00000100
00000010
00000110
00000000
00001001
00000000
,
00000010
00001000
00010000
00100000
00000000
00010000
00001000
00010000
,
01000000
10000000
00010000
10000000
11000000
00000000
00110000
00000000
,
00001000
00010000
00100000
00010000
00001000
00000100
00000001
00001000
,
00000000
00000001
00000010
00000100
00000110
00000000
00001001
00000000
,
00000001
00000100
00001000
00010000
00000000
00100000
00010000
00002000
,
00000000
00000000
00000000
00000000
,
00003000
00000000
00000000
00000000
,
00011000
00110000
10100000
11000000
,
01100000
00000000
00010000
00100000
00000000
00010000
00001000
00000100
,
00000000
00000010
00000100
00000010
00000001
00001000
00000010
00000100
,
00000010
00000000
00000100
00001000
00000000
00010000
00001000
01000000
,
00000000
00100000
10000000
00010000
10000000
01000000
00010000
00001000
,
00010000
00000000
00001000
00000100
00000000
00000010
00000100
00000000
,
00000001
00000100
00001000
00000001
00000010
00001000
00010000
01000000
,
00100000
10000000
01000000
00010000
10000000
00100000
00010000
00000000
,
00011000
00001010
00000011
00000101
,
00000110
00000000
00001000
00000010
00000000
00001000
00010000
01000000
,
00000000
00100000
01000000
00100000
10000000
00010000
00100000
01000000
,
00100000
00000000
01000000
00010000
00000000
00001000
00010000
00000100
,
00000000
00000010
00000001
00001000
00000001
00000100
00001000
00010000
,
00001000
00000000
00010000
01000000
00000000
00100000
01000000
00000000
,
10000000
01000000
00010000
10000000
00100000
00010000
00001000
00000100
,
00000010
00000001
00000100
00001000
00000001
00000010
00001000
00000000
,
00010000
00010000
01000000
00100000
00000000
10000000
00010000
01000000
,
00000000
00100000
10000000
00010000
10000000
01000000
00100000
00000000
,
01000000
01000000
00010000
00001000
00000000
00010000
00001000
00000100
,
00000100
00000010
00001000
00000001
00001000
00000100
00000010
00000000
,
00000001
00000001
00000010
00000100
00001000
00001000
00000001
00000100
,
00001000
00001000
00010000
00001000
00010000
00010000
00100000
10000000
,
00010000
00010000
00100000
01000000
10000000
00010000
10000000
01000000
,
00100000
00100000
00010000
00001000
00000100
00000010
00000001
00000000
,
00002002
00000000
00000000
00000000
,
00000000
00000000
00000000
00000000
,
00000000
00000000
00000000
00000000
,
00000000
00000000
00000000
00000000
,
00003003
00000000
00000000
00000000
,
00000000
00000000
00000000
00000000
;
