
//----- song ID: lonh -----//
#TITLE:ロンロンへ ライライライ!;
#ARTIST:ここなつ;
#TITLETRANSLIT:Ronron e rairairai!;
#ARTISTTRANSLIT:CocoNatsu;
#BANNER:Ronron e rairairai!.png;
#BACKGROUND:Ronron e rairairai!-bg.png;
#CDTITLE:./CDTitles/SDVX III GRAVITY WARS.png;
#MUSIC:Ronron e rairairai!.ogg;
#SAMPLESTART:78.466;
#SAMPLELENGTH:15;
#DISPLAYBPM:156;
#BPMS:0=156.4,4=156;
#NOTES:
     dance-single:
     :
     Beginner:
     3:
     :
0000
0000
0000
0000
,
0000
0000
0000
0000
,
0000
0000
0000
0000
,
0000
0000
0000
0000
,
0000
0000
0000
0000
,
0000
0000
0000
0000
,
0000
0000
0000
0000
,
0000
0000
0000
0000
,
0000
0000
0000
0000
,
0000
0000
0000
0000
,
0010
0010
0010
0010
,
0000
1000
0000
0001
,
0000
1000
0000
0001
,
0000
0010
0000
0100
,
0100
0100
0100
0000
,
0000
1000
0000
0001
,
0000
1000
0000
0001
,
0000
0010
0000
0100
,
0100
0100
0100
0000
,
1000
0000
0001
0000
,
1000
0000
0000
0000
,
0001
0000
1000
0000
,
0001
0001
0001
0000
,
1000
1000
0000
0000
,
0001
0001
0000
0000
,
0010
0010
0010
0000
,
0001
0001
0001
0000
,
0001
0001
0000
0000
,
1000
1000
0000
0000
,
0010
0010
0010
0000
,
1000
1000
1000
0000
,
1000
1000
0000
0000
,
0001
0001
0000
0000
,
0100
0100
0100
0000
,
0001
0001
0001
0000
,
0001
0001
0001
0000
,
1000
1000
1000
0000
,
0100
0000
0100
0000
,
1000
1000
1000
0000
,
2000
0000
0000
3000
,
0002
0000
0000
0003
,
0200
0000
0000
0300
,
0000
0000
0000
0000
,
0002
0000
0000
0003
,
2000
0000
0000
3000
,
0200
0000
0000
0300
,
0000
0000
0000
0000
,
0010
0000
1000
0000
,
0010
0000
0000
0000
,
0010
0000
0001
0000
,
0010
0010
0010
0000
,
0001
0000
0010
0000
,
1000
0000
0100
0000
,
1000
1000
1000
0000
,
0001
0001
0001
0000
,
1000
0000
0010
0000
,
0001
0000
0100
0000
,
0000
0001
0000
0001
,
0001
0001
0001
0000
,
0001
0000
0010
0000
,
1000
0000
0100
0000
,
1000
1000
1000
0000
,
0001
0001
0001
0000
,
1000
0000
0001
0000
,
1000
0000
0001
0000
,
1000
0000
0001
0000
,
0010
0010
0010
0000
,
1000
0000
0001
0000
,
0020
0000
0030
0000
,
0000
0001
0000
1000
,
0000
0001
0000
1000
,
0000
0010
0000
0100
,
0100
0100
0100
0000
,
0000
0001
0000
1000
,
0000
0001
0000
1000
,
0000
0010
0000
0100
,
0100
0100
0100
0000
,
0000
0000
0000
0000
;
#NOTES:
     dance-single:
     :
     Easy:
     6:
     :
0000
0000
0000
0000
,
0000
0000
0000
0000
,
0000
0000
0000
0000
,
0000
0000
0000
0000
,
0000
0000
0000
0000
,
0000
0000
0000
0000
,
0000
0000
0000
0000
,
0000
0000
0000
0000
,
0000
0000
0000
0000
,
0000
0000
0000
0000
,
1000
0001
1000
1001
,
1000
0100
0010
0000
,
0100
1000
0001
0010
,
0010
0001
0100
0000
,
0001
1000
1001
0000
,
0001
0100
0010
0000
,
0100
0001
1000
0010
,
0010
1000
0100
0000
,
1000
0001
1001
0000
,
1000
1000
0000
0000
0001
0001
0000
0000
,
1000
1000
0000
0000
0000
0000
0000
0000
,
0001
0001
0000
0000
1000
1000
0000
0000
,
0001
1000
0001
0000
,
1000
0001
0100
0000
,
0001
0010
1000
0000
,
0010
0001
0100
0000
,
0010
0100
1001
0000
,
0001
1000
0100
0000
,
1000
0010
0001
0000
,
0010
1000
0100
0000
,
0010
0100
1001
0000
,
1000
0001
0010
0000
,
0001
0100
1000
0000
,
0100
0001
0010
0000
,
0100
0010
1001
0110
,
0001
1000
0010
0000
,
1000
0100
0010
0000
,
0100
0100
0010
0010
,
0100
0010
1001
0000
,
2000
0000
0000
3000
,
0002
0000
0000
0003
,
0100
0010
0200
0000
,
0310
0200
0010
0300
,
0002
0000
0000
0003
,
2000
0000
0000
3000
,
0100
0010
0200
0000
,
0310
0200
0010
0310
,
0001
0001
0000
0000
1000
1000
0000
0000
,
0010
0010
0000
0000
0000
0000
0000
0000
,
1000
1000
0000
0000
0100
0100
0000
0000
,
0010
0001
0100
0000
,
0010
1000
0100
0001
,
0010
1000
0100
0000
,
0001
0100
1000
0000
,
1000
0100
0001
0000
,
0010
0001
0100
1000
,
0010
0001
0100
0000
,
1000
0100
0001
0000
,
0001
1000
1001
0000
,
1000
0100
0001
0100
,
1000
0100
1000
0000
,
1000
0001
0100
0001
,
1000
0100
1000
0100
,
2000
0000
0000
3001
,
0010
0001
1000
0000
,
1000
0001
0001
0000
,
1000
0100
0001
0100
,
2000
0000
0002
3003
,
0220
0000
0330
0000
,
1000
0100
0010
0000
,
0100
1000
0001
0010
,
0010
0001
0100
0000
,
0001
1000
1001
0000
,
0001
0100
0010
0000
,
0100
0001
1000
0010
,
0010
1000
0100
0000
,
1001
1001
1001
0000
,
0000
0000
0000
0000
;
#NOTES:
     dance-single:
     :
     Medium:
     10:
     :
0000
0000
0000
0000
,
0000
0000
0000
0000
,
0000
0000
0000
0000
,
0000
0000
0000
0000
,
0000
0000
0000
0000
,
0000
0000
0000
0000
,
0000
0000
0000
0000
,
0000
0000
0000
0000
,
0000
0000
0000
0000
,
0000
0000
0000
0000
,
1000
0001
0110
1001
,
0010
0001
1000
0000
0001
0100
0001
0000
,
1000
0100
1000
0010
0001
0000
0010
0000
,
0010
0100
0001
0100
0001
1000
0100
0000
,
1100
0011
1100
0000
,
0010
1000
0001
0000
1000
0100
1000
0000
,
0001
0100
0001
0010
1000
0000
0010
0000
,
0010
0100
1000
0100
1000
0001
0100
0000
,
0001
0000
0000
1000
0000
0000
0001
0000
1001
0000
0000
0000
0000
0000
0000
0000
,
1000
0100
1000
0000
0100
0010
0100
0000
,
0010
0001
0010
0000
0000
0000
0000
0000
,
0001
1000
0001
0000
0100
1000
0100
0000
,
0001
0000
0000
1000
0000
0000
0001
0000
1001
0000
0000
0000
0110
0000
0000
0000
,
1000
0000
1000
0000
0010
0001
0010
0000
,
0100
0000
0010
0000
1000
0001
1000
0000
,
1000
0001
0010
0000
0100
1000
0100
0000
,
0011
1100
1001
0000
,
0001
0000
0001
0000
0010
1000
0010
0000
,
0100
0000
0010
0000
0001
1000
0001
0000
,
0001
1000
0010
0000
0100
0001
0100
0000
,
1010
0101
1001
0000
,
0000
1000
0010
0001
0010
0000
0100
0000
,
0000
0001
0100
0010
1000
0001
0100
0000
,
0000
0001
0100
0001
1000
0000
0010
0000
,
0101
1100
0101
0011
,
0000
0001
0010
1000
0010
0000
0100
0000
,
0000
1000
0100
0010
0001
1000
0100
0000
,
1000
0001
1000
0000
0001
0010
0001
0000
,
1100
0011
1001
0000
,
0002
0000
0000
0203
,
2300
0000
3200
0000
,
0302
0023
2000
3030
,
2000
3020
0002
0033
,
2000
0100
0100
3200
,
0302
0000
0203
0000
,
2300
3020
0002
0033
,
0002
0023
2000
3030
,
0001
0100
0001
0000
0100
0010
0100
0000
,
0010
1000
0010
0000
0000
0000
0000
0000
,
1000
0001
1000
0000
0100
1000
0100
0000
,
1000
0000
0000
0001
0000
0000
1000
0000
0001
0000
0000
0000
0110
0000
0000
0000
,
1001
0000
0110
0000
1001
0000
0001
0010
,
1000
0000
0100
0001
0010
0000
0000
0000
,
0001
0000
1100
0000
1000
0100
1000
0000
,
0001
0000
0100
1000
0100
0000
0001
0000
,
1001
0000
0110
0000
1001
0000
1000
0010
,
0001
0000
0100
1000
0010
0000
0000
0000
,
1000
0000
0101
0000
0001
0100
0001
0000
,
1100
0101
1001
0000
,
1000
0100
0001
0000
0001
0100
1000
0000
,
1000
0010
0001
0000
0010
1000
0100
0000
,
1000
0000
0101
0000
0001
0010
0001
0000
,
1100
0101
1001
0100
,
2000
0000
0000
3001
,
0000
0001
0010
0100
1000
0000
0000
0000
,
1000
0100
0001
0000
0001
0100
1000
0010
,
0001
0110
1001
0110
,
2000
0000
0002
3003
,
0220
0000
0000
0330
,
0010
1000
0001
0000
1000
0100
1000
0000
,
0001
0100
0001
0010
1000
0000
0010
0000
,
0010
0100
1000
0100
1000
0001
0100
0000
,
0101
1010
0101
0000
,
0010
0001
1000
0000
0001
0100
0001
0000
,
1000
0100
1000
0010
0001
0000
0010
0000
,
0010
0100
0001
0100
0001
1000
0100
0000
,
1000
0000
0000
0001
0000
0000
1000
0000
1001
0000
0000
0000
0000
0000
0000
0000
,
0000
0000
0000
0000
;
#NOTES:
     dance-single:
     :
     Hard:
     12:
     :
0000
0000
0000
0000
,
0000
0000
0000
0000
,
0000
0000
0000
0000
,
0000
0000
0000
0000
,
0000
0000
0000
0000
,
0000
0000
0000
0000
,
0000
0000
0000
0000
,
0000
0000
0000
0000
,
0000
0000
0000
0000
,
0000
0000
0000
0000
,
1100
0110
0011
0110
,
1000
0001
1000
0010
1000
0100
1000
0000
,
0001
1000
0001
0010
0001
0100
0001
0000
,
0010
0100
0010
0000
0001
0000
0100
0000
0010
0000
1000
0000
0100
0000
1000
0000
,
1001
0110
1001
0110
,
0001
1000
0001
0010
0001
0100
0001
0000
,
1000
0001
1000
0010
1000
0100
1000
0000
,
0010
0100
0010
0000
1000
0000
0100
0000
0010
0000
0001
0000
0100
0000
0000
0000
,
0010
0000
0000
1000
0000
0000
0100
0000
0001
0000
0000
0000
0110
0000
0000
0000
,
1000
0100
1000
0000
0001
0000
0000
0000
0100
0010
0100
0000
0001
0000
0000
0000
,
0010
0001
0010
0000
0100
0000
0000
0000
0000
0000
0000
0000
0000
0000
0000
0000
,
0001
1000
0001
0000
1000
0000
0000
0000
0100
1000
0100
0000
1000
0000
0000
0000
,
0100
0000
0000
0001
0000
0000
0100
0000
1000
0000
0000
0000
0110
0000
0000
0000
,
1000
0100
1000
0001
0010
0001
0100
1000
,
0100
0001
0010
0100
1000
0001
1000
0000
,
0000
0000
1000
0000
0001
0000
1000
0000
0001
0000
0000
1000
0100
0000
1000
0000
,
1100
0011
1001
0000
,
0000
1000
0001
1000
0010
1000
0100
0001
,
0100
1000
0010
0100
0001
1000
0001
0000
,
0000
1000
0010
0001
0010
0000
0100
0001
,
0101
0110
1001
0000
,
0000
0001
1000
0001
0100
0001
0010
0100
,
0010
0001
0100
0010
1000
0001
1000
0000
,
0000
0000
0001
0100
0001
0000
1000
0000
0001
0000
1000
0000
0010
0000
1000
0000
,
1010
0101
1001
0011
,
0000
1000
0001
1000
0100
1000
0010
0100
,
0000
0010
0100
0001
0100
0010
1000
0000
,
0001
0100
0001
0000
0100
0000
0000
0000
1000
0010
1000
0000
0010
0000
0000
0000
,
1100
0011
1001
0000
,
0002
1000
0100
0010
,
2003
0100
0001
0010
,
3002
0103
2000
3100
,
0002
0013
2000
3010
,
0002
1000
0010
0100
,
2003
0001
0010
0100
,
3002
0013
2000
3010
,
0002
0103
2000
3100
,
0001
0100
0001
0000
0100
0000
0000
0000
0010
0100
0010
0000
0100
0000
0000
0000
,
0010
1000
0010
0000
1000
0000
0000
0000
0000
0000
0000
0000
0000
0000
0000
0000
,
1000
0001
1000
0000
0001
0000
0000
0000
0100
0001
0100
0000
0001
0000
0000
0000
,
1000
0000
0000
0001
0000
0000
0100
0000
0010
0000
0000
0000
1000
0000
0000
0000
,
0110
0000
1001
0000
0110
0000
0100
0001
,
0010
1000
0100
0001
0010
0000
1000
0000
,
0001
0010
0001
1000
0100
0010
0001
0010
,
0001
0100
1000
0100
0001
0000
0000
0000
,
0110
0000
1001
0000
0110
0000
0100
1000
,
0010
0001
0100
1000
0010
0000
0001
0010
,
0001
0000
1000
0100
0000
1000
0000
0000
0100
0000
0010
0000
0001
0000
0010
0000
,
1000
0110
1001
0000
,
1000
0100
1000
0001
0010
0001
0100
0010
,
1000
0100
0010
0001
1000
0000
0000
0001
,
0010
0000
0100
0010
0000
0100
0000
0000
1000
0000
0100
1000
0000
0100
0000
0000
,
1000
0010
0100
0001
1000
0000
0100
0000
,
0002
0000
0000
0000
0100
0000
0103
0100
,
0000
1000
0001
1000
0010
0000
0000
1000
,
0001
0000
0100
0001
0000
0100
0000
0000
0010
0000
1000
0000
0001
0000
1000
0000
,
0010
0110
1001
0110
,
0002
0000
2000
3003
,
0220
0000
0330
0000
,
0001
1000
0001
0010
0001
0100
0001
0000
,
1000
0001
1000
0010
1000
0100
1000
0000
,
0010
0100
0010
0000
1000
0000
0100
0000
0010
0000
0001
0000
0100
0000
0001
0000
,
1001
0110
1001
0110
,
1000
0001
1000
0010
1000
0100
1000
0000
,
0001
1000
0001
0010
0001
0100
0001
0000
,
1000
0010
1000
0000
0001
0000
0100
0000
0010
0000
1000
0000
0100
0000
0000
0000
,
0011
0000
0000
0101
0000
0000
0110
0000
1001
0000
0000
0000
0000
0000
0000
0000
,
0000
0000
0000
0000
;
#NOTES:
     dance-single:
     :
     Challenge:
     15:
     :
0000
0000
0000
0000
,
0000
0000
0000
0000
,
0000
0000
0000
0000
,
0000
0000
0000
0000
,
0000
0000
0000
0000
,
0000
0000
0000
0000
,
0000
0000
0000
0000
,
0000
0000
0000
0000
,
0000
0000
0000
0000
,
0000
0000
0000
0000
,
1000
0100
0010
0000
0001
0100
0010
0000
1000
0010
0100
0000
0110
0000
0000
0000
,
0100
0001
0010
0001
0100
0000
0010
0000
1000
0000
0001
0000
1100
0000
0000
0000
,
0100
1000
0010
1000
0100
0000
0010
0000
0001
0000
1000
0000
0101
0000
0000
0000
,
0100
0001
0010
0001
0100
0000
0010
0000
0100
0000
0001
0000
1010
0000
1000
0010
,
0100
0010
1010
1000
1100
0100
0110
0000
,
0010
0001
0100
0001
0010
0000
0100
0000
1000
0000
0001
0000
1010
0000
0000
0000
,
0010
1000
0100
1000
0010
0000
0100
0000
0001
0000
1000
0000
0011
0000
0000
0000
,
0001
0010
0100
1000
0001
0000
1000
0000
0010
0000
0100
0000
1010
0000
0000
0000
,
1000
0000
0010
0100
0000
0001
1000
0000
1001
0000
0000
0000
0000
0000
0000
0000
,
0001
0100
0010
1000
0001
0000
0000
0000
1000
0100
0010
0001
1000
0000
0000
0000
,
0010
0100
0010
1000
0001
0000
0000
0000
0000
0000
0000
0000
0000
0000
0000
0000
,
0010
0001
0010
0100
1000
0000
0000
0000
0010
1000
0010
0100
0001
0000
0000
0000
,
1000
0000
0001
0010
0000
0100
1000
0000
1001
0000
0000
0000
0110
0000
0000
0000
,
0000
0000
1000
0000
0010
0000
0100
0000
0001
0010
0001
0000
0100
0000
0020
0000
,
0030
0000
1000
0010
0100
0000
0001
0000
0010
0100
1000
0000
0002
0000
0003
0000
,
0000
0000
1000
0001
1000
0000
0001
0000
0100
0000
0000
0010
0100
0000
0010
0000
,
0110
0010
1010
1000
2002
0000
3003
0000
,
0000
0000
0001
0010
0100
0000
1000
0000
0010
0100
0010
0000
1000
0000
0001
0000
,
0000
0000
1100
0000
0000
0000
0001
0000
0100
0010
0100
0000
0101
0000
0000
0000
,
0000
0000
1000
0010
0100
0000
0001
0000
1000
0100
0010
0000
0001
0000
1000
0000
,
1100
0100
0110
0010
0011
0000
0000
0000
,
0000
0000
0001
0100
1000
0000
0100
0000
0001
0100
1000
0000
0100
0000
0010
0000
,
0000
0000
1000
0100
0001
0000
0100
0000
1000
0100
0001
0000
0200
0000
0000
0000
,
0300
0000
1000
0010
0100
0000
0010
0000
1000
0010
0100
0001
1000
0000
0010
0000
,
1010
0010
0110
0100
0101
0001
1001
0000
,
0000
0000
0001
0000
1000
0000
0001
0000
1000
0010
0100
0000
0001
0000
0100
0000
,
0000
0000
0001
0010
0100
0000
1000
0000
0100
0010
0001
0000
0010
0000
0000
0000
,
0100
1000
0100
1000
0001
0000
0000
0000
0100
0001
0100
0001
1000
0000
0000
0000
,
1001
0001
0110
0100
1001
0000
0000
0000
,
0000
2000
3020
0032
,
0023
2030
3200
0302
,
0103
1000
0010
0100
0001
0010
0100
1000
0001
0000
0000
0000
0000
0000
0000
0000
,
0010
0001
0100
0010
1000
0100
0010
0001
1000
0000
0000
0000
0000
0000
0000
0000
,
0000
0000
1000
0100
2000
0000
3020
0000
,
0032
0023
2030
3200
,
1300
0010
0100
0001
0010
0100
1000
0001
0100
0000
0000
0000
0000
0000
0000
0000
,
0001
0100
0010
1000
0100
0010
0001
1000
0010
0000
0000
0000
1010
0000
0000
0000
,
0010
1000
0100
1000
0010
0000
0000
0000
0010
1000
0100
1000
0010
0000
0000
0000
,
0010
1000
0100
1000
0001
0000
0000
0000
0000
0000
0000
0000
0000
0000
0000
0000
,
0010
0001
0100
0001
0010
0000
0000
0000
0010
0001
0100
0001
0010
0000
0000
0000
,
0001
0000
0010
0001
0000
0100
0010
0000
1000
0000
0000
0000
1001
0000
0000
0000
,
1000
0100
0010
0000
0001
0100
0010
0000
1000
0100
0010
0000
0001
0000
0010
0000
,
0001
0010
1000
0000
0001
0100
1000
0000
0020
0000
0000
0000
0030
0000
1000
0000
,
0010
0000
0100
0001
0000
0010
0000
1000
0010
0001
0100
0010
0000
1000
0000
0001
,
0010
0001
0100
0010
1000
0100
0010
0001
1000
0000
0000
0000
1001
0000
0000
0000
,
0001
0010
0100
0000
1000
0010
0100
0000
0001
0010
0100
0000
1000
0010
0100
0001
,
1000
0100
0010
0001
0010
0100
1000
0010
0100
0000
0000
0000
0001
0000
0100
0000
,
0001
0000
0010
1000
0000
0010
0000
0001
0100
0000
0010
0000
1000
0000
0001
0000
,
0101
1000
1100
0001
1001
0000
0000
0000
,
0001
0010
1000
0000
1000
0010
0001
0000
0001
0010
1000
0000
0010
0000
0001
0000
,
0100
0010
0100
0000
0010
0000
1000
0000
0001
0000
0000
0000
0000
0000
0001
0000
,
0100
0000
0010
1000
0000
0100
0000
0001
0100
1000
0010
0100
0000
0001
0000
1000
,
0100
0001
0100
1000
0010
0000
1001
0000
,
0220
0000
0000
0000
0000
0000
0000
0000
0000
0330
0000
0000
1000
0000
0001
0000
,
0000
1100
0011
1010
0101
0000
0000
0001
,
0100
0000
0001
0010
0000
0100
0000
1000
0010
0000
0100
0000
0001
0000
1000
0000
,
0020
0230
0302
2003
,
3002
0000
2000
3003
,
2002
0000
0000
3003
,
0001
0100
0010
1000
0001
0000
0010
0000
0100
0000
1000
0000
1001
0000
0000
0000
,
1000
0100
0010
0001
1000
0000
0010
0000
0100
0000
0001
0000
1001
0000
0000
0000
,
0001
1000
0001
0010
0100
0000
1000
0000
0010
0000
0001
0000
0010
0000
0100
0010
,
1000
0100
1100
0001
0011
1000
1001
0000
,
0001
0010
1000
0010
0001
0000
1000
0000
0001
0000
0100
0000
0110
0000
0000
0000
,
0001
0100
1000
0100
0001
0000
1000
0000
0001
0000
0010
0000
0110
0000
0000
0000
,
0001
1000
0010
0001
0010
0000
1000
0000
0100
0000
0010
0000
0011
0000
0000
0000
,
1100
0000
1000
0100
0000
0010
0001
0000
0011
0000
0000
0000
0000
0000
0000
0000
,
0000
0000
0000
0000
;
#NOTES:
     dance-double:
     :
     Easy:
     6:
     :
00000000
00000000
00000000
00000000
,
00000000
00000000
00000000
00000000
,
00000000
00000000
00000000
00000000
,
00000000
00000000
00000000
00000000
,
00000000
00000000
00000000
00000000
,
00000000
00000000
00000000
00000000
,
00000000
00000000
00000000
00000000
,
00000000
00000000
00000000
00000000
,
00000000
00000000
00000000
00000000
,
00000000
00000000
00000000
00000000
,
10000000
00010000
10000000
10010000
,
10000000
01000000
00100000
00000000
,
00001000
00010000
00000100
00000010
,
00000001
00000100
00001000
00000000
,
00000100
00000001
00000110
00000000
,
00000001
00000100
00000010
00000000
,
00010000
00001000
01000000
00100000
,
10000000
01000000
00010000
00000000
,
01000000
10000000
01100000
00000000
,
10000000
10000000
00000000
00000000
01000000
01000000
00000000
00000000
,
00010000
00010000
00000000
00000000
00000000
00000000
00000000
00000000
,
00001000
00001000
00000000
00000000
00010000
00010000
00000000
00000000
,
00001000
00000010
00000001
00001001
,
00001000
00000001
00000100
00000000
,
00000001
00000010
00001000
00000000
,
00100000
00010000
01000000
00000000
,
00100000
01000000
10010000
00000000
,
00010000
10000000
01000000
00000000
,
10000000
00100000
00010000
00000000
,
00000010
00001000
00000100
00000000
,
00000010
00000100
00001001
00000000
,
00001000
00000001
00000010
00000000
,
00000001
00000100
00001000
00000000
,
01000000
00010000
00100000
00000000
,
01000000
00100000
11000000
01010000
,
00010000
10000000
00100000
00000000
,
10000000
01000000
00010000
00000000
,
00001000
00001000
00010000
00010000
,
00000100
00000010
00001001
00000000
,
00000002
00000000
00000000
00000003
,
00000200
00000000
00000000
00000300
,
00001000
00010000
02000000
00000000
,
13000000
02000000
00100000
03000000
,
00020000
00000000
00000000
00030000
,
02000000
00000000
00000000
03000000
,
00010000
00001000
00000020
00000000
,
00000031
00000200
00000310
00000000
,
00000001
00000001
00000000
00000000
00000010
00000010
00000000
00000000
,
00001000
00001000
00000000
00000000
00000000
00000000
00000000
00000000
,
00010000
00010000
00000000
00000000
00100000
00100000
00000000
00000000
,
10000000
00010000
01000000
00000000
,
00100000
10000000
01000000
00010000
,
00100000
10000000
01000000
00000000
,
00001000
00010000
00001000
00000000
,
00010000
00000100
00001000
00000000
,
00000010
00001000
00000100
00000001
,
00000010
00001000
00000100
00000000
,
00010000
01000000
10000000
00000000
,
00010000
01000000
00010000
00000000
,
10000000
01000000
00010000
00001000
,
00010000
00000010
00001000
00000000
,
00000010
00000000
00000100
00000000
,
00001000
00010000
00100000
00000000
,
20000000
00000000
00000000
30010000
,
00100000
00010000
10000000
00000000
,
10000000
01000000
00010000
00000000
,
00001000
00000010
00000001
00000010
,
00002000
00000000
00000020
00003000
,
00000032
00000000
00000000
00000003
,
00000001
00000100
00000010
00000000
,
00010000
00001000
01000000
00100000
,
10000000
01000000
00010000
00000000
,
01000000
10000000
01100000
00000000
,
10000000
01000000
00100000
00000000
,
00001000
00010000
00000100
00000010
,
00000001
00000100
00001000
00000000
,
00010000
00100000
10010000
00000000
,
00000000
00000000
00000000
00000000
;
#NOTES:
     dance-double:
     :
     Medium:
     10:
     :
00000000
00000000
00000000
00000000
,
00000000
00000000
00000000
00000000
,
00000000
00000000
00000000
00000000
,
00000000
00000000
00000000
00000000
,
00000000
00000000
00000000
00000000
,
00000000
00000000
00000000
00000000
,
00000000
00000000
00000000
00000000
,
00000000
00000000
00000000
00000000
,
00000000
00000000
00000000
00000000
,
00000000
00000000
00000000
00000000
,
01100000
00110000
11000000
10010000
,
00100000
00010000
10000000
00000000
00010000
01000000
00010000
00000000
,
10000000
00000000
01000000
00000000
00010000
00001000
00000010
00000000
,
00000100
00000010
00000001
00000100
00000001
00001000
00000100
00000000
,
00010000
00001000
00010000
00010000
,
00000010
00001000
00000001
00000000
00001000
00000100
00001000
00000000
,
00000001
00000000
00000100
00000000
00001000
00010000
00100000
00000000
,
10000000
01000000
10000000
01000000
10000000
00010000
01000000
00000000
,
01010000
10100000
01010000
00000000
,
00001000
00010000
00001000
00000000
00000100
00000010
00000100
00000000
,
00000010
00001000
00000010
00000000
00000000
00000000
00000000
00000000
,
00010000
00001000
00010000
00000000
01000000
10000000
01000000
00000000
,
10000000
00000000
00000000
00010000
00000000
00000000
01000000
00000000
00010000
00000000
00000000
00000000
00011000
00000000
00000000
00000000
,
00001000
00000000
00001000
00000000
00000010
00000001
00000010
00000000
,
00000100
00000000
00000010
00000000
00000001
00000100
00001000
00000000
,
00010000
00001000
00100000
00000000
01000000
10000000
01000000
00000000
,
01100000
00110000
00011000
00000000
,
00001000
00000000
00010000
00000000
00100000
10000000
00100000
00000000
,
01000000
00000000
00100000
00000000
10000000
01000000
00010000
00000000
,
00001000
00010000
00000010
00000000
00000100
00000001
00000100
00000000
,
00000101
00001100
00011000
00000000
,
00000000
00001000
00100000
00010000
00100000
00000000
00010000
00000000
,
00000000
00010000
01000000
00100000
10000000
00000000
01000000
00000000
,
00000000
10000000
01000000
00010000
00001000
00000000
00000010
00000000
,
00000011
00001100
00000101
00000011
,
00000000
00000001
00000010
00001000
00000010
00000000
00001000
00000000
,
00000000
00010000
00001000
00100000
00010000
00000000
01000000
00000000
,
10000000
01000000
00010000
00000000
00010000
00100000
00010000
00000000
,
10000000
00010000
01010000
00000000
,
00020000
01000000
10000000
00100000
,
00032000
00000000
00000000
00003000
,
00000002
00000000
00000000
00000003
,
00000000
00000000
00000000
00000000
,
00002000
00000100
00000001
00000010
,
00023000
00000000
00000000
00030000
,
20000000
00000000
00000000
30000000
,
00000000
00000000
00000000
00000000
,
10000000
01000000
00010000
00000000
00010000
00001000
00000100
00000000
,
00000100
00000001
00000010
00000000
00000000
00000000
00000000
00000000
,
00000001
00000100
00001000
00000000
00001000
00010000
00100000
00000000
,
10000000
00000000
00000000
00010000
00000000
00000000
10000000
00000000
00010000
00000000
00000000
00000000
01100000
00000000
00000000
00000000
,
10010000
01100000
10010000
00100000
,
10000000
01000000
00010000
00001000
,
00010000
00000000
00000100
00000000
00001000
00000100
00001000
00000000
,
00000001
00000000
00000100
00001000
00000100
00000000
00000000
00000000
,
00001000
00000000
00010000
00000000
00100000
00000000
10000000
00100000
,
10000000
00000000
01000000
10000000
00100000
00000000
00000000
00000000
,
10000000
00000000
01000000
00000000
00010000
00001000
00000010
00000000
,
00000011
00000101
00001001
00000000
,
00001000
00000100
00000001
00000000
00000001
00000100
00000010
00000000
,
00000001
00000010
00001000
00000000
00010000
00001000
00010000
00000000
,
00001000
01000000
00010000
00100000
,
00110000
01100000
10010000
01000000
,
20000000
00000000
00000000
30010000
,
00000000
01000000
00001000
00010000
00001000
00000000
00000000
00000000
,
00001000
00000100
00000001
00000000
00000001
00000100
00001000
00000000
,
00010000
00011000
00010000
01100000
,
10000000
00000000
00010000
00000000
,
00002000
00000000
00000000
00003000
,
00000010
00001000
00000001
00000000
00001000
00000100
00001000
00000000
,
00000001
00000000
00000100
00000000
00001000
00010000
00100000
00000000
,
01000000
00100000
10000000
01000000
10000000
00010000
01000000
00000000
,
00001000
00010000
00001000
00001000
,
00100000
00010000
10000000
00000000
00010000
01000000
00010000
00000000
,
10000000
00000000
01000000
00000000
00010000
00001000
00000010
00000000
,
00000001
00000100
00000001
00000100
00000001
00001000
00000100
00000000
,
00010000
00000000
00000000
00001000
00000000
00000000
00010000
00000000
00001000
00000000
00000000
00000000
00000000
00000000
00000000
00000000
,
00000000
00000000
00000000
00000000
;
#NOTES:
     dance-double:
     :
     Hard:
     12:
     :
00000000
00000000
00000000
00000000
,
00000000
00000000
00000000
00000000
,
00000000
00000000
00000000
00000000
,
00000000
00000000
00000000
00000000
,
00000000
00000000
00000000
00000000
,
00000000
00000000
00000000
00000000
,
00000000
00000000
00000000
00000000
,
00000000
00000000
00000000
00000000
,
00000000
00000000
00000000
00000000
,
00000000
00000000
00000000
00000000
,
00011000
00001100
00000110
00000101
,
00000100
00000001
00001000
00000010
00010000
00000100
00001000
00000000
,
00000100
00001000
00000001
00000010
00000001
00000100
00001000
00000000
,
01000000
00100000
10000000
01000000
00100000
00010000
01000000
10000000
,
11000000
01100000
10010000
10000000
,
01000000
10000000
00010000
00100000
00001000
01000000
00010000
00000000
,
01000000
00010000
10000000
00100000
10000000
01000000
00010000
00000000
,
00000100
00000010
00000001
00000100
00000010
00001000
00000100
00000000
,
00010000
00000000
00000000
00001000
00000000
00000000
00010000
00000000
00011000
00000000
00000000
00000000
00000000
00000000
00000000
00000000
,
00001000
00010000
00001000
00000000
00010000
00000000
00000000
00000000
00100000
01000000
00100000
00000000
01000000
00000000
00000000
00000000
,
00010000
10000000
00010000
00000000
10000000
00000000
00000000
00000000
00000000
00000000
00000000
00000000
00000000
00000000
00000000
00000000
,
10000000
01000000
10000000
00000000
01000000
00000000
00000000
00000000
00010000
01000000
00010000
00000000
01000000
00000000
00000000
00000000
,
00010000
00000000
00000000
00001000
00000000
00000000
00000100
00000000
00000010
00000000
00000000
00000000
00001001
00000000
00000000
00000000
,
00000000
00000100
00001000
00000001
00000010
00000001
00000100
00001000
,
00010000
00001000
00000100
00000010
00010000
00001000
00010000
00000000
,
00000000
00010000
00100000
10000000
00010000
00000000
10000000
00000000
,
01100000
00010000
00001000
00000000
,
00000000
00000100
00000001
00001000
00000010
00001000
00000100
00000001
,
00000100
00001000
00000010
00000100
00000001
00000100
00001000
00000000
,
00010000
00000000
01100000
00000000
00100000
00000000
01000000
00010000
,
10000000
01000000
00010000
00000000
,
00000000
00001000
00010000
00001000
00000100
00000001
00000010
00001000
,
00000010
00000001
00000100
00000010
00000100
00001000
00010000
00000000
,
00000000
00001000
00010000
00001000
00100000
00010000
00100000
01000000
,
01100000
00110000
10010000
10000000
,
00000000
01000000
00010000
00001000
00000100
00001000
00000100
00000010
,
00001000
00000001
00000010
00000001
00000010
00000100
00010000
00000000
,
00001000
00010000
00001000
00000000
00100000
00010000
00100000
00000000
,
00001000
00010000
00011000
00000000
,
00020000
00000100
00001000
00000100
,
00032000
01000000
00010000
02003000
,
03020000
01000000
10000000
00100000
,
00032000
00000100
00000001
00003020
,
00020030
00000100
00001000
00000100
,
00032000
01000000
00010000
02003000
,
03020000
01000000
10000000
00100000
,
00032000
00000100
00000001
00000010
,
00003001
00000100
00000001
00000000
00000100
00000000
00000000
00000000
00000100
00000010
00000100
00000000
00000010
00000000
00000000
00000000
,
00000010
00010000
00000010
00000000
00010000
00000000
00000000
00000000
00000000
00000000
00000000
00000000
00000000
00000000
00000000
00000000
,
00001000
00010000
00001000
00000000
00010000
00000000
00000000
00000000
00010000
01000000
00010000
00000000
01000000
00000000
00000000
00000000
,
10000000
00000000
00000000
01000000
00000000
00000000
00010000
00000000
00001000
00000000
00000000
00000000
00011000
00000000
00000000
00000000
,
00000010
00000000
00001000
00000000
00000100
00000000
00000001
00000010
,
00001000
00000000
00000100
00000001
00000010
00000000
00001000
00000000
,
00000100
00010000
00001000
00000000
00100000
00001000
00010000
00000000
,
00001000
00010000
01000000
10000000
01000000
00000000
01100000
00000000
,
00010000
00000000
00001000
00000000
00000100
00000000
00000001
00000010
,
00001000
00000000
00000100
00000001
00000010
00000000
00000001
00000000
,
00000001
00001000
00000100
00001000
00000100
00010000
00001000
00010000
,
01000000
10000000
10010000
00000000
,
10000000
01000000
10000000
00010000
00100000
00000000
00100000
00001000
,
00010000
00001000
00000100
00000010
00000100
00000000
00000000
00000010
,
00001000
00000000
00000010
00001000
00000000
00000000
00000000
00000000
00000010
00000000
00000100
00000010
00000000
00000000
00000000
00000000
,
00000100
00001000
00010000
00100000
01000000
00000000
00100000
00000000
,
20000000
00000000
00000000
00000000
01000000
00000000
31000000
01000000
,
00000000
00010000
00001000
00000010
00000001
00000000
00000000
00001000
,
00000001
00000000
00000010
00000001
00000000
00000010
00000000
00000000
00000100
00000000
00001000
00000000
00000001
00000000
00000010
00000000
,
00001000
00010000
00001000
00010000
,
02000000
00000000
00200000
03300000
,
20020000
00000000
30030000
00000000
,
01000000
10000000
00010000
00100000
00001000
01000000
00010000
00000000
,
01000000
00010000
10000000
00100000
10000000
01000000
00010000
00000000
,
00000100
00000010
00000001
00000100
00000010
00001000
00000100
00000001
,
00000101
00000110
00001001
00000001
,
00000100
00000001
00001000
00000010
00010000
00000100
00001000
00000000
,
00000100
00001000
00000001
00000010
00000001
00000100
00001000
00000000
,
01000000
00100000
10000000
01000000
00100000
00010000
01000000
00000000
,
00001000
00000000
00000000
00010000
00000000
00000000
00001000
00000000
00011000
00000000
00000000
00000000
00000000
00000000
00000000
00000000
,
00000000
00000000
00000000
00000000
;
#NOTES:
     dance-double:
     :
     Challenge:
     15:
     :
00000000
00000000
00000000
00000000
,
00000000
00000000
00000000
00000000
,
00000000
00000000
00000000
00000000
,
00000000
00000000
00000000
00000000
,
00000000
00000000
00000000
00000000
,
00000000
00000000
00000000
00000000
,
00000000
00000000
00000000
00000000
,
00000000
00000000
00000000
00000000
,
00000000
00000000
00000000
00000000
,
00000000
00000000
00000000
00000000
,
20000000
30020000
00032000
00003001
,
00000001
00000100
00000010
00000100
00000001
00000000
00000010
00000000
00000100
00000000
00001000
00000000
00001100
00000000
00000000
00000000
,
00010000
00001000
00100000
00001000
00010000
00000000
00001000
00000000
00100000
00000000
00010000
00000000
00110000
00000000
00000000
00000000
,
10000000
00100000
01000000
00100000
10000000
00000000
00100000
00000000
01000000
00000000
00010000
00000000
00110000
00000000
00100000
00010000
,
10000000
00100000
10100000
10000000
10100000
00100000
10010000
00000000
,
10000000
00100000
01000000
00100000
10000000
00000000
01000000
00000000
00100000
00000000
00010000
00000000
00110000
00000000
00000000
00000000
,
00001000
00010000
00000100
00010000
00001000
00000000
00010000
00000000
00000100
00000000
00001000
00000000
00001100
00000000
00000000
00000000
,
00000001
00000100
00000010
00000100
00000001
00000000
00000100
00000000
00000010
00000000
00001000
00000000
00001100
00000000
00000000
00000000
,
00001000
00000000
00000100
00000010
00000000
00000010
00000001
00000000
00001001
00000000
00000000
00000000
00000000
00000000
00000000
00000000
,
00000001
00000010
00000100
00001000
00000100
00000000
00000000
00000000
00001000
00000100
00010000
00001000
00100000
00000000
00000000
00000000
,
00010000
01000000
00100000
10000000
01000000
00000000
00000000
00000000
00000000
00000000
00000000
00000000
00000000
00000000
00000000
00000000
,
10000000
01000000
00100000
00010000
00100000
00000000
00000000
00000000
00010000
00100000
00001000
00010000
00000100
00000000
00000000
00000000
,
00001000
00000000
00000010
00000100
00000000
00000001
00000010
00000000
00000110
00000000
00000000
00000000
00001001
00000000
00000000
00000000
,
00000000
00000000
00000001
00000000
00000100
00000000
00001000
00000000
00000100
00000010
00000100
00000000
00000010
00000000
00002000
00000000
,
00003000
00000000
00000100
00010000
00001000
00000000
00010000
00000000
00001000
01000000
00010000
00000000
20000000
00000000
30000000
00000000
,
00000000
00000000
00100000
01000000
00100000
00000000
10000000
00000000
00100000
00000000
00000000
00010000
00001000
00000000
00010000
00000000
,
00011000
00001000
00101000
00100000
00220000
00000000
00330000
00000000
,
00000000
00000000
10000000
00010000
10000000
00000000
01000000
00000000
00100000
01000000
00100000
00000000
00001000
00000000
00010000
00000000
,
00000000
00000000
00011000
00000000
00000000
00000000
00001000
00000000
00000100
00000010
00000100
00000000
00000110
00000000
00000000
00000000
,
00000000
00000000
00000001
00000010
00000001
00000000
00000100
00000000
00000010
00001000
00000010
00000000
00001000
00000000
00000100
00000000
,
00010100
00010000
00011000
00001000
00101000
00000000
00000000
00000000
,
00000000
00000000
00001000
00010000
00100000
00000000
10000000
00000000
01000000
00010000
00001000
00000000
00010000
00000000
00000100
00000000
,
00000000
00000000
00010000
00001000
00000010
00000000
00000001
00000000
00000100
00001000
00010000
00000000
00002000
00000000
00000000
00000000
,
00003000
00000000
00010000
00001000
00100000
00000000
00010000
00000000
01000000
00010000
00100000
01000000
10000000
00000000
01000000
00000000
,
11000000
01000000
01100000
00100000
00101000
00001000
00011000
00000000
,
00000000
00000000
00010000
00000000
00001000
00000000
00000100
00000000
00000001
00001000
00000001
00000000
00000010
00000000
00000100
00000000
,
00000000
00000000
00001000
00000100
00010000
00000000
00001000
00000000
00010000
00001000
01000000
00000000
00010000
00000000
00000000
00000000
,
00100000
00001000
00010000
00001000
00010000
00000000
00000000
00000000
00000010
00010000
00001000
00010000
00001000
00000000
00000000
00000000
,
00011000
00000100
00001100
00000010
00000110
00000000
00000000
00000000
,
00000000
00000002
00000203
00002300
,
00023000
00230000
20300000
32000000
,
13000000
01000000
00100000
00010000
10000000
00100000
01000000
00001000
00010000
00000000
00000000
00000000
00000000
00000000
00000000
00000000
,
00001000
00010000
00000100
00001000
00000010
00000100
00000001
00000010
00000100
00000000
00000000
00000000
00000000
00000000
00000000
00000000
,
00000000
00000000
00000010
00000001
00000200
00000000
00002300
00000000
,
00023000
00230000
20300000
30010000
,
10000000
00100000
01000000
00100000
10000000
01000000
00010000
00001000
00010000
00000000
00000000
00000000
00000000
00000000
00000000
00000000
,
00001000
00010000
00001000
00000100
00000001
00000010
00000100
00001000
00000001
00000000
00000000
00000000
00001001
00000000
00000000
00000000
,
00000001
00000010
00000100
00001000
00000100
00000000
00000000
00000000
00001000
00000100
00010000
00001000
00100000
00000000
00000000
00000000
,
00010000
00100000
01000000
10000000
00010000
00000000
00000000
00000000
00000000
00000000
00000000
00000000
00000000
00000000
00000000
00000000
,
10000000
00100000
01000000
00010000
00100000
00000000
00000000
00000000
00001000
00010000
00000100
00001000
00000010
00000000
00000000
00000000
,
00000100
00000000
00000001
00000010
00000000
00000100
00001000
00000000
00000001
00000000
00000000
00000000
00001001
00000000
00000000
00000000
,
00000001
00000100
00000010
00000000
00001000
00000100
00000010
00000000
00000001
00000100
00000010
00000000
00000100
00000000
00001000
00000000
,
00010000
01000000
10000000
00100000
00020000
00000000
00030000
00100000
,
10000000
00000000
01000000
00010000
00000000
00001000
00000000
00010000
00000100
00001000
00000100
00000010
00000000
00000001
00000000
00001000
,
00000010
00000100
00000001
00000000
00000010
00000100
00001000
00000000
00000001
00000000
00000000
00000000
00001001
00000000
00000000
00000000
,
00000001
00000010
00000100
00000000
00001000
00000010
00000100
00000000
00000001
00000010
00000100
00000000
00001000
00000000
00010000
00000000
,
00100000
10000000
00010000
01000000
10000000
00000000
00100000
10000000
,
00100000
00000000
01000000
00010000
00000000
00100000
00000000
00001000
00010000
00000000
00000100
00000000
00000010
00000000
00000001
00000000
,
00000011
00001000
00001010
00000100
00000110
00000000
00000000
00000000
,
00000001
00000100
00001000
00000000
00000100
00001000
00010000
00000000
00001000
00010000
00100000
00000000
10000000
00000000
01000000
00000000
,
00100000
00010000
00100000
00000000
01000000
00000000
10000000
00000000
00010000
00000000
00000000
00000000
00000000
00000000
10000000
00000000
,
01000000
00000000
00010000
00001000
00000000
00010000
00000000
00001000
00010000
00000100
00000010
00000100
00000000
00001000
00000000
00000001
,
00000100
00001000
00000001
00000010
00000100
00000000
00000110
00000000
,
00002002
00000000
00000000
00000000
00000000
00000000
00000000
00000000
00000000
00003003
00000000
00000000
00000001
00000000
00000100
00000000
,
00000000
00001000
00010000
01000000
11000000
00000000
00000000
10000000
,
01000000
00000000
10000000
01000000
00000000
00010000
00000000
00001000
00100000
00000000
00010000
00000000
00001000
00000000
00000100
00000000
,
00000002
00002003
00003020
00000032
,
00002003
00000000
00000002
00003003
,
00002002
00000000
00000000
00003003
,
00000001
00000100
00001000
00000100
00000001
00000000
00000100
00000000
00001000
00000000
00010000
00000000
00011000
00000000
00000000
00000000
,
00010000
00001000
00100000
00001000
00010000
00000000
01000000
00000000
10000000
00000000
00100000
00000000
01100000
00000000
00000000
00000000
,
10000000
00100000
00010000
00100000
10000000
00000000
00100000
00000000
01000000
00000000
00010000
00000000
00110000
00000000
00100000
00010000
,
01000000
00001000
01001000
01000000
01010000
00010000
10010000
00000000
,
10000000
00100000
00010000
00100000
10000000
00000000
01000000
00000000
00010000
00000000
00001000
00000000
00011000
00000000
00000000
00000000
,
00001000
00010000
00000100
00010000
00001000
00000000
00000100
00000000
00000001
00000000
00000010
00000000
00000110
00000000
00000000
00000000
,
00000001
00000100
00001000
00000100
00000001
00000000
00000100
00000000
00000010
00000000
00001000
00000000
00001001
00000000
00000000
00000000
,
00001000
00000000
00000100
00000010
00000000
00000010
00000001
00000000
00001001
00000000
00000000
00000000
00000000
00000000
00000000
00000000
,
00000000
00000000
00000000
00000000
;
