
//----- song ID: rpgg -----//
#TITLE:ロールプレイングゲーム;
#ARTIST:そらまふうらさか;
#TITLETRANSLIT:Role-playing game;
#ARTISTTRANSLIT:SoraMafuUraSaka;
#BANNER:Role-playing game.png;
#BACKGROUND:Role-playing game-bg.png;
#CDTITLE:./CDTitles/jubeat clan.png;
#MUSIC:Role-playing game.ogg;
#SAMPLESTART:76.99;
#SAMPLELENGTH:15;
#BPMS:0=162;
#NOTES:
     dance-single:
     :
     Beginner:
     2:
     :
0000
0000
0000
0000
,
0000
0000
0000
0000
,
0000
0000
0000
0000
,
0000
0000
0000
0000
,
0000
0000
0000
0000
,
0000
0000
0000
0000
,
0001
0000
0000
0000
,
1000
0000
0000
0000
,
0001
0000
0000
0000
,
1000
1000
1000
0000
,
0010
0000
0000
0000
,
0001
0000
0001
0000
,
0010
0000
0000
0000
,
1000
0000
1000
0000
,
0100
0000
0000
0000
,
0001
0000
0001
0000
,
0100
0000
0000
0000
,
1000
0000
0000
0000
,
0001
0000
0000
0000
,
0010
0000
0010
0000
,
1000
0000
0000
0000
,
0010
0000
0010
0000
,
0001
0000
0000
0000
,
0100
0000
0100
0000
,
1000
0000
0000
0000
,
0100
0000
0100
0000
,
1000
0000
1000
0000
,
0002
0000
0003
0000
,
0010
0000
0000
0000
,
1000
0000
0001
0000
,
0010
0000
0000
0000
,
0001
0000
1000
0000
,
0100
0000
0000
0000
,
1000
0000
0001
0000
,
0100
0000
0000
0000
,
0100
0000
0100
0000
,
1000
0000
1000
0000
,
0010
0000
0010
0000
,
0001
0000
0001
0000
,
0100
0000
0100
0000
,
2000
0000
3000
0000
,
0002
0000
0003
0000
,
2000
0000
3000
0000
,
0002
0000
0003
0000
,
0010
0000
0010
0000
,
0001
0000
0001
0000
,
1000
0000
1000
0000
,
0010
0000
0010
0000
,
1000
0000
1000
0000
,
0001
0000
0001
0000
,
0020
0000
0030
0000
,
0200
0000
0300
0000
,
1000
0000
1000
0000
,
0001
0000
0001
0000
,
0010
0000
0010
0000
,
0100
0100
0100
0000
,
0001
0000
0001
0000
,
1000
0000
1000
0000
,
0020
0000
0030
0000
,
0002
0000
0003
0000
,
1000
0000
0010
0000
,
0001
0000
0010
0000
,
0100
0000
0100
0000
,
0010
0010
0010
0000
,
0001
0000
0010
0000
,
1000
0000
0010
0000
,
0001
0000
1000
0000
,
0001
0001
0001
0000
,
0010
0000
0000
0000
,
1000
0000
1000
0000
,
0010
0000
0000
0000
,
0001
0000
0001
0000
,
0100
0000
0000
0000
,
1000
0000
1000
0000
,
0100
0000
0001
0000
,
0010
0000
1000
0000
,
0002
0000
0000
0000
0000
0000
0000
0003
,
0000
0000
0000
0000
;
#NOTES:
     dance-single:
     :
     Easy:
     5:
     :
0000
0000
0000
0000
,
0000
0000
0000
0000
,
0000
0000
0000
0000
,
0000
0000
0000
0000
,
0000
0000
0000
0000
,
0000
0000
0000
0000
,
0010
0000
0010
0000
,
1000
0000
1000
0000
,
0001
0000
0001
0000
,
1000
1000
2000
3000
,
0010
0000
0010
0000
,
1000
0001
1000
0000
,
0010
0000
0010
0000
,
0001
1000
0001
0000
,
0100
0000
0100
0000
,
1000
0001
1000
0000
,
0010
0000
0100
0000
,
0010
0100
0020
0030
,
1000
1000
0010
0000
,
0001
0001
0010
0000
,
1000
1000
0001
0001
,
1000
0000
0001
0000
,
1000
1000
0100
0000
,
0001
0001
0100
0000
,
1000
1000
0001
0001
,
1000
1000
0001
0001
,
0010
0000
0010
0000
,
1000
0001
2000
3000
,
0100
0100
0001
0000
,
0100
0100
1000
0000
,
0001
0001
1000
1000
,
0001
1000
0001
0000
,
0010
0010
0001
0000
,
0010
0010
1000
0000
,
0001
0001
1000
1000
,
0001
1000
0001
1000
,
0001
0001
0010
0010
,
0001
0010
0001
0000
,
1000
1000
0010
0010
,
1000
0010
1000
0000
,
0001
0001
1000
1000
,
0001
1000
0001
0000
,
0010
0000
0010
0000
,
0100
0100
0100
0000
,
2000
0000
3000
0000
,
0020
0000
0030
0000
,
0002
0000
0003
0000
,
0200
0000
0300
0000
,
1000
1000
1000
0000
,
0010
0010
0010
0000
,
0001
0001
0001
0000
,
0200
0000
0000
0300
,
0010
0000
0010
0000
,
1000
0001
1000
0000
,
1000
0100
0001
0000
,
0001
0010
1000
0000
,
0010
0000
0010
0000
,
0001
1000
0001
0000
,
1000
1000
0100
0100
,
2000
0000
0000
3000
,
0100
0100
0100
0000
,
0001
1000
0001
0000
,
0001
0100
1000
0000
,
1000
0010
0001
0000
,
0100
0100
0100
0000
,
1000
0001
1000
0000
,
0001
0000
0100
0000
,
0001
1000
1001
0000
,
0010
0000
0010
0000
,
0001
1000
0001
0000
,
0010
0000
0010
0000
,
1000
0001
1000
0000
,
0100
0000
0100
0000
,
0001
1000
0001
0000
,
0010
0000
0100
0000
,
0010
0100
0010
0000
,
0002
0000
0000
0000
0000
0000
0000
0003
,
0000
0000
0000
0000
;
#NOTES:
     dance-single:
     :
     Medium:
     10:
     :
0000
0000
0000
0000
,
0000
0000
0000
0000
,
0000
0000
0000
0000
,
0000
0000
0000
0000
,
0000
0000
0000
0000
,
0000
0000
0000
0000
,
0100
0100
1000
1000
,
0010
0010
0001
0001
,
0100
0000
0100
0000
1000
0100
0010
0001
,
1000
0001
1000
0000
0020
0000
0030
0000
,
1001
0000
0110
0000
0001
0010
0100
0000
,
1000
0001
0100
0001
1000
0000
0100
0000
,
1001
0000
0110
0000
0010
1000
0100
0000
,
0010
0001
1000
0010
0100
0001
1000
0000
,
1100
0000
0101
0000
1000
0010
0100
0000
,
0001
1000
0100
1000
0001
0000
0100
0000
,
0010
0000
1000
0000
0001
0010
1000
0000
,
0010
0001
0200
0300
,
0010
0000
1001
0000
0010
0001
0100
0000
,
0010
1000
0010
0100
0020
0000
0030
0000
,
1000
0010
1000
0000
0001
0010
0001
0000
,
1000
0000
1000
0000
0001
0100
1000
0000
,
0100
0000
0001
0000
1000
0001
0100
0000
,
0010
1000
0100
0010
0002
0000
0003
0000
,
1000
0100
1000
0000
0001
0100
0001
0000
,
1000
0010
1000
0000
0001
0010
0001
0000
,
1000
0010
0001
0100
,
1001
0110
2002
3003
,
0010
0000
1001
0000
0010
1000
0100
0000
,
0010
0001
0010
0100
0020
0000
0030
0000
,
0001
0010
0001
0000
1000
0010
1000
0000
,
0001
0000
0001
0000
1000
0100
0001
0000
,
0100
0000
1000
0000
0001
1000
0100
0000
,
0010
0001
0100
0010
2000
0000
3000
0000
,
0001
0100
0001
0000
1000
0100
1000
0000
,
0001
0010
0001
0000
1000
0010
1000
0000
,
0012
0010
1000
1000
,
0100
0100
1003
0110
,
2010
0010
0001
0001
,
0100
0100
3001
0110
,
1000
1000
1000
0000
0010
0010
0010
0000
,
0001
0001
0001
0000
0100
0000
1001
0000
,
0100
0001
0010
1000
,
0100
0000
1000
0000
0010
0010
0010
0000
,
1000
0001
0020
0000
0100
0000
0130
0000
,
1000
0001
0200
0000
0010
0000
0310
0000
,
1000
0100
0020
0000
0001
0000
0031
0000
,
0100
0010
2000
0000
0001
0000
3001
0000
,
0010
0001
0010
1000
,
0100
0001
0100
1000
,
0010
1000
0100
0000
0010
0001
0100
0000
,
0010
0100
0010
0100
0020
0000
0030
0000
,
1000
0000
1000
0000
0001
1000
0001
1000
,
0000
0010
0010
0000
0100
0010
0100
0000
,
1000
0000
0010
0000
0001
0010
0100
0000
,
1000
0001
0100
0001
2000
0000
3000
0000
,
0010
0000
0010
0000
0100
0001
0010
0000
,
0100
0010
0001
0010
0100
0000
0000
0000
,
2010
0001
0010
3001
,
0200
0000
0000
0300
,
0001
0000
0001
0000
1000
0001
1000
0001
,
0000
0010
0010
0000
0100
0010
0100
0000
,
0001
0000
0010
0000
1000
0010
0100
0000
,
0001
1000
0100
1000
0002
0000
0003
0000
,
0010
0000
0010
0000
0100
1000
0010
0000
,
0100
0010
1000
0010
0100
0000
0000
0000
,
0012
1000
0010
1003
,
0001
1000
0220
0330
,
1001
0000
0110
0000
1000
0010
0100
0000
,
0001
1000
0100
1000
0001
0000
0100
0000
,
1001
0000
0110
0000
0010
0001
0100
0000
,
0010
1000
0001
0010
0100
1000
0001
0000
,
0101
0000
1100
0000
0001
0010
0100
0000
,
1000
0001
0100
0001
1000
0000
0100
0000
,
0010
0000
0001
0000
1000
0010
0001
0000
,
0010
1000
0200
0300
,
1000
0000
0001
0000
0010
0100
1000
0001
,
0000
0000
0000
0000
;
#NOTES:
     dance-single:
     :
     Hard:
     14:
     :
0000
0000
0000
0000
,
0000
0000
0000
0000
,
0000
0000
0000
0000
,
0000
0000
0000
0000
,
0000
0000
0000
0000
,
0000
0000
0000
0000
,
0010
0000
0010
1000
0001
0000
0001
1000
,
0100
0000
0100
0010
0001
0100
0010
1000
,
0001
0000
0001
1000
0010
0100
0001
1000
,
0100
1000
0001
0100
0002
0000
1003
0000
,
1010
0000
0000
0000
0101
0000
0000
0000
1000
0000
0100
1000
0100
0000
0010
0000
,
0001
0000
1000
0001
1000
0000
0010
0000
1000
0000
0001
0000
0010
0000
0100
0000
,
1100
0000
0000
0000
0101
0000
0000
0000
0010
0000
0001
0010
0001
0000
1000
0000
,
0100
0010
0001
0100
0010
1000
0001
0000
,
0011
0000
0000
0000
1100
0000
0000
0000
0001
0000
0100
0001
0100
0000
0010
0000
,
1000
0000
0001
1000
0001
0000
0010
0000
0001
0000
1000
0000
0010
0000
0100
0000
,
0001
0000
0100
0000
0010
0000
0100
0000
1000
0000
0100
0010
0100
0000
0001
0000
,
0100
0010
1000
0100
0020
0000
0030
0000
,
0001
0000
0000
0000
0110
0000
0000
0010
0100
0000
0010
0000
0001
0000
1000
0000
,
0010
1000
0001
1000
0100
0000
0000
1000
,
0001
0001
1000
1000
0001
0100
0010
1000
,
0000
0010
0100
0010
1000
0001
0100
0000
,
2010
0000
0000
0000
3001
0000
0000
0001
0010
0000
0001
0000
1000
0000
0010
0000
,
1000
0001
0100
0010
1000
0000
0000
0001
,
1000
0000
0001
0010
0001
0000
1000
0010
1000
0000
0001
0100
0001
0000
1000
0100
,
1000
0000
0001
1000
0001
0000
0010
0100
0010
0000
0001
1000
0001
0000
0100
0010
,
0100
0100
0010
0100
,
0010
1000
0100
0010
0002
0000
1003
0000
,
0010
0000
0000
0010
0100
0000
0000
0000
0100
0000
0010
0000
1000
0000
0001
0000
,
0010
0001
1000
0001
0100
0000
0000
0001
,
1000
1000
0001
0001
1000
0100
0010
0001
,
0000
0010
0100
0010
0001
1000
0100
0010
,
0012
0000
0000
0000
1003
0000
0000
1000
0010
0000
1000
0000
0001
0000
0010
0000
,
0001
1000
0001
0100
0010
0000
0000
1000
,
0001
0000
1000
0010
1000
0000
0001
0010
0001
0000
1000
0100
1000
0000
0001
0100
,
0001
0100
0001
0100
0001
0000
1000
0001
1000
0000
0100
0000
0010
0000
0001
0000
,
1000
0000
0001
0000
1000
0000
0001
0100
0001
0000
1000
0000
0001
0000
1000
0100
,
1000
0001
0100
0010
1000
0000
0110
0000
,
0001
0000
1000
0000
0001
0000
1000
0010
0100
0010
0100
0010
1000
0000
0001
0000
,
1000
0000
0001
0010
0001
0000
1000
0010
1000
0000
0000
0000
0110
0000
0000
0000
,
0001
0000
1000
0010
1000
0000
0001
0100
0001
0000
1000
0010
1000
0000
0001
0100
,
0001
0000
0100
0010
0100
0010
0100
0000
0010
0000
0000
0000
1001
0000
0000
0000
,
0010
1000
0100
0010
0001
0100
0010
1000
,
0001
0000
0010
0000
0100
0000
1000
0000
0001
1000
0001
1000
0001
0000
0000
0000
,
0000
0000
1000
0000
1000
0000
0100
0000
0001
0000
0000
0100
0000
0000
1000
0000
,
0000
0000
0001
0000
0001
0000
0010
0000
1000
0000
0000
0010
0000
0000
0001
0000
,
0000
0000
1000
0000
1000
0000
0010
0000
0001
0000
0000
0010
0000
0000
1000
0000
,
0000
0000
0001
0000
0001
0000
0100
0000
1000
0000
0000
0100
0000
0000
0001
0000
,
1000
1000
0010
0010
,
0001
0001
0100
0100
,
0010
1000
0001
0100
0010
1000
0100
0010
,
0001
1000
0001
1000
0001
1000
0001
1000
0020
0000
0000
0000
1030
0000
0000
0000
,
0201
0000
0000
0000
1300
0000
0000
1000
0100
0000
1000
0000
0100
0000
1000
0000
,
0100
0001
0001
0010
1000
0010
1000
0000
,
0001
0000
0000
0001
1000
0000
0000
1000
0010
0000
0100
0000
0001
0000
0010
0000
,
0001
1000
0100
1000
0002
0010
0013
0000
,
1020
0000
0000
0000
0031
0000
0000
0001
0010
0000
1000
0000
0100
0000
0010
0000
,
0001
0010
0100
1000
0001
0000
0000
0100
,
0001
0100
1000
0100
0001
0100
1000
0100
,
0002
0000
0000
0000
0000
0000
0000
0000
0013
0100
0010
0100
0010
0100
0010
0100
,
1000
0000
0000
0000
0001
0000
0000
0001
0100
0000
0001
0000
0100
0000
0001
0000
,
0100
1000
1000
0010
0001
0010
0001
0000
,
1000
0000
0000
1000
0001
0000
0000
0001
0010
0000
0100
0000
1000
0000
0010
0000
,
1000
0001
0100
0001
2000
0010
3010
0000
,
0021
0000
0000
0000
1030
0000
0000
1000
0010
0000
0001
0000
0100
0000
0010
0000
,
1000
0010
0100
0001
1000
0000
0000
0100
,
1000
0100
0001
0100
1000
0100
0001
0000
,
1001
0110
2002
3003
,
0011
0000
0000
0000
1100
0000
0000
0000
0001
0000
0100
0001
0100
0000
0010
0000
,
1000
0000
0001
1000
0001
0000
0010
0000
0001
0000
1000
0000
0010
0000
0100
0000
,
0101
0000
0000
0000
1100
0000
0000
0000
0010
0000
1000
0010
1000
0000
0001
0000
,
0100
0010
1000
0100
0010
0001
1000
0000
,
1010
0000
0000
0000
0101
0000
0000
0000
1000
0000
0100
1000
0100
0000
0010
0000
,
0001
0000
1000
0001
1000
0000
0010
0000
1000
0000
0001
0000
0010
0000
0100
0000
,
1000
0000
0100
0000
0010
0000
0100
0000
0001
0000
0100
0010
0100
0000
1000
0000
,
0100
0010
0001
0100
0020
0000
0030
0000
,
1000
0000
0001
0000
0100
0001
0100
0001
0100
0000
0010
0000
1000
0000
0001
0000
,
0000
0000
0000
0000
;
#NOTES:
     dance-double:
     :
     Easy:
     5:
     :
00000000
00000000
00000000
00000000
,
00000000
00000000
00000000
00000000
,
00000000
00000000
00000000
00000000
,
00000000
00000000
00000000
00000000
,
00000000
00000000
00000000
00000000
,
00000000
00000000
00000000
00000000
,
00000010
00000000
00000010
00000000
,
00000001
00000000
00000001
00000000
,
00000100
00000000
00000100
00000000
,
00001000
00010000
00002000
00003000
,
00100000
00100000
00100000
00000000
,
00010000
10000000
01000000
00000000
,
00100000
00100000
00100000
00000000
,
10000000
00010000
01000000
00000000
,
00001000
00001000
00001000
00000000
,
00010000
00001000
00010000
00000000
,
00000010
00000000
00001000
00000000
,
00000001
00001000
00000002
00000003
,
00000100
00000010
00001000
00000000
,
00000100
00000010
00000001
00000000
,
00000100
00000100
00001000
00001000
,
00010000
00001000
00010000
00000000
,
00100000
01000000
00010000
00000000
,
00100000
01000000
10000000
00000000
,
00010000
00010000
10000000
10000000
,
00010000
00010000
10000000
10000000
,
00100000
00100000
00100000
00000000
,
10000000
00010000
20000000
30000000
,
01000000
00100000
00010000
00000000
,
00100000
00001000
00010000
00000000
,
00000100
00000100
00001000
00001000
,
00000001
00001000
00000001
00000000
,
00000010
00000001
00000100
00000000
,
00000010
00001000
00000100
00000000
,
00010000
00010000
00001000
00001000
,
00010000
00001000
00010000
00001000
,
00010000
00010000
00100000
00100000
,
00010000
00100000
00010000
00000000
,
10000000
10000000
01000000
01000000
,
10000000
01000000
10000000
00000000
,
00010000
00010000
01000000
01000000
,
00010000
01000000
00010000
00000000
,
00001000
00000000
00010000
00000000
,
00001000
00001000
00001000
00000000
,
00000010
00000000
00000010
00000000
,
00000001
00000000
00000001
00000000
,
00000100
00000000
00000100
00000000
,
00001000
00000000
00001000
00000000
,
00010000
00010000
00010000
00000000
,
00100000
00100000
00100000
00000000
,
10000000
10000000
10000000
00000000
,
02000000
00000000
00000000
03000000
,
00100000
00100000
00100000
00000000
,
00010000
10000000
00010000
00000000
,
01000000
00100000
10000000
00000000
,
01000000
00100000
00010000
00000000
,
00001000
00001000
00001000
00000000
,
00010000
00001000
00010000
00000000
,
00000010
00000010
00001000
00001000
,
00000002
00000000
00000000
00000003
,
00000100
00000100
00000100
00000000
,
00000001
00001000
00000001
00000000
,
00000100
00000010
00001000
00000000
,
00000100
00000010
00000001
00000000
,
00000100
00000100
00000100
00000000
,
00000010
00000100
00000010
00000000
,
00010000
00000000
00001000
00000000
,
00010000
00001000
00011000
00000000
,
00100000
00100000
00100000
00000000
,
00010000
10000000
01000000
00000000
,
00100000
00100000
00100000
00000000
,
10000000
00010000
01000000
00000000
,
00001000
00001000
00001000
00000000
,
00010000
00001000
00010000
00000000
,
00000010
00000000
00001000
00000000
,
00000001
00001000
00000002
00000003
,
00000020
00000000
00000000
00000000
00000000
00000000
00000000
00000030
,
00000000
00000000
00000000
00000000
;
#NOTES:
     dance-double:
     :
     Medium:
     10:
     :
00000000
00000000
00000000
00000000
,
00000000
00000000
00000000
00000000
,
00000000
00000000
00000000
00000000
,
00000000
00000000
00000000
00000000
,
00000000
00000000
00000000
00000000
,
00000000
00000000
00000000
00000000
,
10000000
10000000
01000000
01000000
,
00010000
00010000
00001000
00001000
,
00000100
00000000
00000100
00000000
00000001
00001000
00000001
00000100
,
00000010
00001000
00000100
00000000
00000020
00000000
00000030
00000000
,
00001001
00000000
00000110
00000000
00000010
00001000
00000100
00000000
,
00010000
00001000
00100000
00000000
00010000
10000000
00100000
00000000
,
10010000
00000000
01100000
00000000
10000000
00010000
01000000
00000000
,
00100000
01000000
00100000
01000000
00100000
10000000
00010000
00000000
,
10010000
00000000
01100000
00000000
00100000
00010000
01000000
00000000
,
00001000
00010000
00000010
00000000
00001000
00000001
00000010
00000000
,
00001000
00000000
00000100
00000000
00000010
00000001
00000100
00000000
,
00000010
00001000
00000001
00000000
00000200
00000000
00000300
00000000
,
00001000
00000000
00001000
00000000
00000010
00000100
00000001
00000000
,
00001000
00000100
00010000
00001000
00020000
00000000
00030000
00000000
,
00001000
00100000
00010000
00000000
00100000
00001000
00010000
00000000
,
00100000
00000000
00100000
00000000
01000000
00100000
10000000
00000000
,
00010000
00000000
00100000
00000000
10000000
01000000
00100000
00000000
,
00010000
00100000
01000000
00100000
00020000
00000000
00030000
00000000
,
00100000
00001000
00010000
00000000
00001000
00010000
00000010
00000000
,
00001000
00000010
00010000
00000000
00001000
00010000
00001000
00000000
,
00010000
00100000
10000000
01000000
,
00010000
10000000
00010000
00000000
02200000
00000000
03300000
00000000
,
00010000
00000000
00010000
00000000
00100000
01000000
10000000
00000000
,
00010000
01000000
00001000
00010000
00002000
00000000
00003000
00000000
,
00010000
00000010
00001000
00000000
00000010
00010000
00001000
00000000
,
00000010
00000000
00000010
00000000
00000100
00000010
00000001
00000000
,
00001000
00000000
00000010
00000000
00000001
00000100
00000010
00000000
,
00001000
00000010
00000100
00000010
00002000
00000000
00003000
00000000
,
00000010
00010000
00001000
00000000
00010000
00001000
00100000
00000000
,
00010000
00100000
00001000
00000000
00010000
00001000
00010000
00000000
,
00000020
00001000
00020030
00001000
,
00030020
00001000
00010030
00011000
,
00200000
00010000
00302000
00010000
,
00203000
00010000
00301000
00011000
,
00000200
00001000
00020300
00001000
,
00030200
00001000
00010300
00011000
,
00100000
10000000
01000000
00010000
,
00001000
00000000
00000010
00000000
00000001
00000001
00000001
00000000
,
00001000
00000001
00000200
00000000
00000010
00000000
00000310
00000000
,
00010000
00001000
00020000
00000000
00001000
00000000
00031000
00000000
,
00100000
00010000
20000000
00000000
00100000
00000000
30100000
00000000
,
01000000
00010000
20000000
00000000
01000000
00000000
31000000
00000000
,
00100000
00100000
00010000
00010000
,
00001000
00001000
00000100
00000100
,
00000010
00000001
00000100
00000000
00000010
00001000
00000100
00000000
,
00000010
00000100
00000010
00000100
00000020
00000000
00000030
00000000
,
00000001
00000000
00000001
00000000
00000100
00000010
00001000
00000010
,
00000000
00010000
00001000
00000000
00100000
00010000
01000000
00000000
,
00100000
00000000
10000000
00000000
01000000
00100000
00010000
00000000
,
10000000
00010000
01000000
00010000
20000000
00000000
30000000
00000000
,
01000000
00000000
01000000
00000000
00100000
00010000
01000000
00000000
,
00001000
00010000
00001000
00010000
00001000
00000000
00000000
00000000
,
00000010
00001000
00010000
01000000
,
00200000
00000000
00000000
00300000
,
10000000
00000000
10000000
00000000
01000000
00100000
00010000
00100000
,
00000000
00001000
00010000
00000000
00000010
00001000
00000100
00000000
,
00000010
00000000
00000001
00000000
00000100
00000010
00001000
00000000
,
00000001
00001000
00000100
00001000
00000002
00000000
00000003
00000000
,
00000100
00000000
00000100
00000000
00000010
00001000
00000100
00000000
,
00010000
00001000
00010000
00001000
00010000
00000000
00000000
00000000
,
00100000
00010000
00001000
00000100
,
00000001
00001000
00000220
00000330
,
00001001
00000000
00000110
00000000
00000010
00001000
00000100
00000000
,
00010000
00001000
00100000
00000000
00010000
10000000
00100000
00000000
,
10010000
00000000
01100000
00000000
10000000
00010000
01000000
00000000
,
00100000
01000000
00100000
01000000
00100000
10000000
00010000
00000000
,
10010000
00000000
01100000
00000000
00100000
00010000
01000000
00000000
,
00001000
00010000
00000010
00000000
00001000
00000001
00000010
00000000
,
00001000
00000000
00000100
00000000
00000010
00000001
00000100
00000000
,
00000010
00001000
00000001
00000000
00000200
00000000
00000300
00000000
,
00000100
00000000
00001000
00000000
00010000
00001000
00010000
00001000
,
00000000
00000000
00000000
00000000
;
#NOTES:
     dance-double:
     :
     Hard:
     14:
     :
00000000
00000000
00000000
00000000
,
00000000
00000000
00000000
00000000
,
00000000
00000000
00000000
00000000
,
00000000
00000000
00000000
00000000
,
00000000
00000000
00000000
00000000
,
00000000
00000000
00000000
00000000
,
00000001
00000000
00000001
00000100
00001000
00000000
00010000
01000000
,
10000000
00000000
10000000
00100000
00010000
00100000
10000000
01000000
,
00100000
00000000
00100000
00010000
00100000
01000000
00010000
00001000
,
00000010
00000001
00001000
00000001
00000200
00000000
00000301
00000000
,
00000011
00000000
00000000
00000000
00001100
00000000
00000000
00000000
00000001
00000000
00000100
00000001
00000100
00000000
00000010
00000000
,
00010000
00000000
00001000
00010000
00001000
00000000
00100000
00000000
00010000
00000000
10000000
00000000
00100000
00000000
10000000
00000000
,
10100000
00000000
00000000
00000000
01010000
00000000
00000000
00000000
10000000
00000000
01000000
10000000
01000000
00000000
00100000
00000000
,
00010000
01000000
00100000
10000000
01000000
00010000
00001000
00000000
,
00110000
00000000
00000000
00000000
00011000
00000000
00000000
00000000
00000010
00000000
00001000
00000001
00001000
00000000
00000100
00000000
,
00000010
00000000
00000001
00000010
00000001
00000000
00000100
00000000
00000010
00000000
00001000
00000000
00000001
00000000
00000100
00000000
,
00001000
00000000
00010000
00000000
00001000
00000000
00100000
00000000
00001000
00000000
00010000
00001000
00010000
00000000
00001000
00000000
,
00010000
00100000
10000000
00010000
00200000
00000000
00300000
00000000
,
00010000
00000000
00000000
00000000
11000000
00000000
00000000
00100000
00010000
00000000
10000000
00000000
00010000
00000000
01000000
00000000
,
00001000
00010000
00000010
00001000
00000001
00000000
00000000
00001000
,
00000100
00000001
00000100
00001000
00000001
00000100
00001000
00000100
,
00000000
00001000
00010000
00001000
00010000
00100000
10000000
00000000
,
00020000
00000000
00000000
00000000
00130000
00000000
00000000
01000000
10000000
00000000
00010000
00000000
01000000
00000000
00100000
00000000
,
10000000
00100000
00010000
00100000
10000000
00000000
00000000
00010000
,
01000000
00000000
00001000
00010000
00001000
00000000
01000000
00010000
01000000
00000000
00001000
00010000
00001000
00000000
00100000
00010000
,
00100000
00000000
00001000
00010000
00001000
00000000
00100000
00010000
00100000
00000000
00001000
00010000
00001000
00000000
01000000
00010000
,
01000000
00100000
10000000
01000000
,
00010000
00001000
00000010
00000001
00002000
00000000
00003010
00000000
,
00000100
00000000
00000000
00000100
00000010
00000000
00000000
00000000
00001000
00000000
00000001
00000000
00001000
00000000
00000100
00000000
,
00010000
00001000
00100000
00010000
10000000
00000000
00000000
00010000
,
01000000
10000000
01000000
00010000
10000000
01000000
00010000
01000000
,
00000000
00010000
00001000
00010000
00001000
00000010
00000001
00000001
,
00002000
00000000
00000000
00000000
00003010
00000000
00000000
00000100
00000001
00000000
00001000
00000000
00000100
00000000
00000010
00000000
,
00000001
00000010
00001000
00000010
00000001
00000000
00000000
00001000
,
00000100
00000000
00010000
00001000
00010000
00000000
00000100
00001000
00000100
00000000
00010000
00001000
00010000
00000000
00000010
00001000
,
00000001
00001000
00000001
00001000
00000001
00000000
00001000
00000100
00001000
00000000
00000100
00000000
00000010
00000000
00000001
00000000
,
00001000
00000000
00000100
00000000
00010000
00000000
00001000
00010000
00001000
00000000
01000000
00000000
00010000
00000000
10000000
00100000
,
10000000
00010000
10000000
01000000
00100000
00000000
10010000
00000000
,
00100000
00000000
10000000
00000000
01000000
00000000
00100000
01000000
00100000
01000000
00100000
01000000
00100000
00000000
00001000
00000000
,
00010000
00000000
00000100
00001000
00000100
00000000
00010000
00001000
00010000
00000000
00000000
00000000
00001010
00000000
00000000
00000000
,
00001000
00000000
00000001
00000010
00000001
00000000
00001000
00000100
00001000
00000000
00000001
00000100
00000001
00000000
00001000
00000010
,
00001000
00000000
00000010
00000100
00000010
00000100
00000010
00000000
00001000
00000000
00000000
00000000
00011000
00000000
00000000
00000000
,
00001000
00010000
01000000
10000000
00010000
01000000
00100000
10000000
,
00100000
00000000
00010000
00000000
10000000
00000000
01000000
00000000
00010000
10000000
00010000
10000000
00010000
00000000
00000000
00000000
,
00000000
00000000
10000000
00000000
10000000
00000000
01000000
00000000
00010000
00000000
00000000
00001000
00000000
00000000
00000010
00000000
,
00000000
00000000
00000001
00000000
00000001
00000000
00001000
00000000
00000010
00000000
00000000
00001000
00000000
00000000
00000100
00000000
,
00000000
00000000
00000001
00000000
00000001
00000000
00000100
00000000
00001000
00000000
00000000
00010000
00000000
00000000
00100000
00000000
,
00000000
00000000
10000000
00000000
10000000
00000000
00010000
00000000
00100000
00000000
00000000
00010000
00000000
00000000
01000000
00000000
,
00100000
00100000
10000000
10000000
,
01000000
01000000
00010000
00010000
,
00001000
00100000
00010000
01000000
00001000
00100000
00010000
01000000
,
00001000
00010000
00001000
00010000
00001000
00010000
00001000
00010000
00002000
00000000
00000000
00000000
00013000
00000000
00000000
00000000
,
00001010
00000000
00000000
00000000
00000011
00000000
00000000
00000010
00000100
00000000
00000010
00000000
00000001
00000000
00000010
00000000
,
00000000
00001000
00000010
00001000
00000001
00000100
00001000
00000000
,
00010000
00000000
00000000
00010000
00100000
00000000
00000000
00100000
10000000
00000000
00100000
00000000
01000000
00000000
00100000
00000000
,
10000000
00010000
01000000
00100000
20000000
00010000
30010000
00000000
,
01010000
00000000
00000000
00000000
11000000
00000000
00000000
01000000
00100000
00000000
01000000
00000000
00100000
00000000
00001000
00000000
,
00010000
00000010
00001000
00000001
00000010
00000000
00000000
00001000
,
00010000
00001000
00000100
00001000
00010000
00001000
00000100
00001000
,
00020000
00000000
00000000
00000000
00000000
00000000
00000000
00000000
00031000
00010000
00001000
00010000
00001000
00010000
00001000
00010000
,
00001000
00000000
00000000
00000000
00110000
00000000
00000000
00010000
01000000
00000000
00100000
00000000
10000000
00000000
00100000
00000000
,
00000000
00010000
00100000
00010000
10000000
01000000
00010000
00000000
,
00001000
00000000
00000000
00001000
00000010
00000000
00000000
00000010
00000001
00000000
00000010
00000000
00000100
00000000
00000010
00000000
,
00000001
00001000
00000100
00000010
00000002
00001000
00001003
00000000
,
00001100
00000000
00000000
00000000
00000101
00000000
00000000
00000100
00000010
00000000
00000100
00000000
00000010
00000000
00010000
00000000
,
00001000
00100000
00010000
10000000
00100000
00000000
00000000
00010000
,
00001000
00010000
01000000
00010000
00001000
00010000
01000000
00000000
,
01100000
00110000
00022000
00033000
,
01010000
00000000
00000000
00000000
10100000
00000000
00000000
00000000
10000000
00000000
01000000
10000000
01000000
00000000
00100000
00000000
,
00001000
00000000
00010000
00001000
00010000
00000000
00000010
00000000
00001000
00000000
00000001
00000000
00000010
00000000
00000001
00000000
,
00000011
00000000
00000000
00000000
00001100
00000000
00000000
00000000
00000001
00000000
00000100
00000001
00000100
00000000
00000010
00000000
,
00001000
00000100
00000010
00000001
00000100
00001000
00010000
00000000
,
00001010
00000000
00000000
00000000
00011000
00000000
00000000
00000000
00100000
00000000
00010000
10000000
00010000
00000000
01000000
00000000
,
00100000
00000000
10000000
00100000
10000000
00000000
01000000
00000000
00100000
00000000
00010000
00000000
10000000
00000000
01000000
00000000
,
00010000
00000000
00001000
00000000
00010000
00000000
00000010
00000000
00010000
00000000
00001000
00010000
00001000
00000000
00010000
00000000
,
00001000
00000010
00000001
00001000
00000020
00000000
00000030
00000000
,
00001000
00000000
00000100
00000000
00000010
00000001
00000010
00000001
00000010
00000000
00000001
00000000
00001000
00000000
00000100
00000000
,
00000000
00000000
00000000
00000000
;
