
//----- song ID: roku -----//
#TITLE:六兆年と一夜物語;
#ARTIST:kemu feat. IA;
#TITLETRANSLIT:Rokuchounen to ichiya monogatari;
#BANNER:Rokuchounen to ichiya monogatari.png;
#BACKGROUND:Rokuchounen to ichiya monogatari-bg.png;
#CDTITLE:./CDTitles/SDVX BOOTH.png;
#MUSIC:Rokuchounen to ichiya monogatari.ogg;
#SAMPLESTART:54.742;
#SAMPLELENGTH:15;
#BPMS:0=186;
#NOTES:
     dance-single:
     :
     Beginner:
     4:
     :
0000
0000
0000
0000
,
0000
0000
0000
0000
,
0000
0000
0000
0000
,
0000
0000
0000
0000
,
0000
0000
0000
0000
,
0000
0000
0000
0000
,
0000
0000
0000
0000
,
0000
0000
0000
0000
,
0000
0000
0000
0000
,
0000
0000
0000
0000
,
0000
0000
0000
0000
,
0001
0000
0000
0000
,
0010
0000
0000
0000
,
1000
0000
0000
0000
,
0010
0000
0010
0000
,
0000
0000
0000
0000
,
0100
0000
0000
0000
,
0010
0000
0000
0010
,
0000
0000
0000
0000
,
1000
0000
0000
0000
,
0010
0000
0000
0000
,
1000
0000
0000
0000
,
0100
0000
0000
0000
,
0001
0000
0000
0000
,
0100
0000
0000
0000
,
1000
0000
1000
0000
,
1000
0000
1000
0000
,
0000
0000
0000
0000
,
1000
0000
0000
0000
,
0010
0000
0000
0000
,
1000
0000
0000
0000
,
0001
0000
0001
0000
,
0001
0000
0001
0000
,
0000
0000
0000
0000
,
0010
0000
0000
0000
,
1000
0000
0000
0000
,
0001
0000
0000
0000
,
0100
0000
0000
0100
,
0000
0000
0000
0000
,
0001
0000
0001
0000
,
0000
0000
1000
0000
,
0000
0000
0000
0000
,
1001
0000
0000
0000
,
0010
0000
0000
0000
,
1000
0000
0000
0000
,
0010
0000
0000
0000
,
0001
0000
0000
0000
,
0010
0000
0010
0000
,
0000
0000
0000
0000
,
0100
0000
0000
0000
,
1001
0000
0000
0000
,
0001
0000
0001
0000
,
0001
0000
0000
0000
,
0010
0000
0000
0000
,
1000
0000
0000
0000
,
0010
0000
0010
0000
,
0000
0000
0000
0000
,
0100
0000
0000
0000
,
1001
0000
0000
0000
,
1000
0000
1000
0000
,
1000
0000
0000
0000
,
0010
0000
0000
0000
,
0001
0000
0000
0000
,
0010
0000
0010
0000
,
0000
0000
0000
0000
,
0100
0000
0000
0000
,
1001
0000
0000
0000
,
1000
0000
0000
0000
,
0001
0000
0000
0000
,
0000
0000
0000
0000
,
0000
0010
0000
0000
,
0000
0000
0000
1001
,
0000
0000
0000
0001
,
0000
0001
0000
0001
,
0000
0000
0000
1000
,
0000
1000
0000
1000
,
0000
0000
0000
0100
,
0000
0100
0000
0100
,
0000
0000
0000
0010
,
0000
0000
0000
0000
,
0000
0000
0000
1000
,
0000
0000
0000
0000
;
#NOTES:
     dance-single:
     :
     Easy:
     5:
     :
0000
0000
0000
0000
,
0000
0000
0000
0000
,
0000
0000
0000
0000
,
0000
0000
0000
0000
,
0000
0000
0000
0000
,
0000
0000
0000
0000
,
0000
0000
0000
0000
,
0000
0000
0000
0000
,
0000
0000
0000
0000
,
0000
0000
0000
0000
,
0000
0000
0000
0000
,
0001
1000
1000
0000
,
0010
0100
0100
0000
,
0001
0100
0100
0000
,
0100
0100
0001
0000
,
0010
0100
1000
0000
,
1000
0010
0100
0000
,
0002
0000
0003
2000
,
0000
3000
0000
0000
,
0001
0000
0001
0000
,
0010
0000
0010
0000
,
0100
0000
0100
0000
,
1000
0100
0010
0000
,
0001
0000
0001
0000
,
0100
0000
0100
0000
,
0010
0000
0010
0000
,
0010
0000
0100
0001
,
1000
0000
1000
0000
,
0010
0000
0010
0000
,
1000
0000
1000
0000
,
0001
0010
0100
0000
,
1000
0000
1000
0000
,
0010
0000
0100
0000
,
0001
0000
1000
0000
,
1000
0000
0000
0000
,
2000
0000
0000
3000
0000
0000
0010
0000
,
0000
0000
1000
0100
,
0020
0000
0000
0030
0000
0000
0001
0000
,
0000
0000
1000
0000
,
0100
0000
0010
0000
,
0001
0000
0001
0000
,
1000
0000
0001
0000
,
1001
0000
0001
0001
,
0010
0000
0100
0000
,
1000
1000
0010
0000
,
0010
0000
0100
0000
,
0001
0000
0100
0000
,
0010
0010
1000
0000
,
0100
0100
0010
0000
,
0001
0000
1000
0000
,
0000
0000
1001
0000
,
1000
0000
0010
0000
,
0100
0100
0010
0000
,
1000
1000
0100
0000
,
1000
0000
1001
0000
,
1000
0000
0010
0000
,
0100
0100
0010
0000
,
1000
1000
0100
0000
,
1000
0000
1001
0000
,
0001
0000
0010
0000
,
0100
0100
0010
0000
,
0001
0001
0100
0000
,
0001
0000
1001
0000
,
0100
0010
0010
0000
,
1000
1000
0001
0000
,
0100
0010
0100
0000
,
0001
0000
1001
0000
,
1000
1000
0100
0000
,
0012
0000
0000
0000
,
0000
0000
0000
0000
0000
0003
0000
0000
,
0000
0010
0100
0010
,
0000
0001
0000
0000
,
0000
1001
0000
0001
,
0100
0001
0000
1000
,
0100
1000
0000
0001
,
1000
0001
1000
0010
,
0100
0010
0000
1000
,
0001
1000
0000
0010
,
0100
0010
0000
2000
,
0000
3000
0000
0000
0002
0000
0000
0003
,
0000
0000
0000
0020
,
0000
0030
0000
0000
0200
0000
0000
0300
,
0000
0000
0000
0000
;
#NOTES:
     dance-single:
     :
     Medium:
     9:
     :
0000
0000
0000
0000
,
0000
0000
0000
0000
,
0000
0000
0000
0000
,
0000
0000
0000
0000
,
0000
0000
0000
0000
,
0000
0000
0000
0000
,
0000
0000
0000
0000
,
0000
0000
0000
0000
,
0000
0000
0000
0000
,
0000
0000
0000
0000
,
0000
0000
0000
0000
,
0010
0100
1000
1000
,
0010
0000
0100
0000
0010
0100
0010
0000
,
1000
0010
0100
0001
,
1000
0001
1000
0000
0001
1000
0001
0000
,
0010
0100
1000
1000
,
0010
0000
0100
0000
0010
0100
0010
0000
,
0100
0010
0000
1000
0001
0000
0010
0100
,
0000
1000
0001
1000
0000
0000
0000
0000
,
1000
0000
0001
0000
1000
0000
0000
0001
,
0001
0000
0010
0000
0100
0000
1000
0001
,
1000
0001
0010
0000
,
0100
0000
1100
0000
,
1001
0000
0000
0100
0100
0000
0000
0000
,
1001
0000
0000
0100
0100
0000
0010
0000
,
0010
0100
0001
1000
,
0001
0000
1100
1001
,
0001
0000
1000
0000
0001
0000
0000
0001
,
0001
0000
0010
0000
0100
0000
1000
0001
,
1000
0010
0100
0001
,
0100
0000
0011
0000
,
1001
0000
0000
0010
0010
0000
0000
0000
,
1001
0000
0000
0010
0010
0000
0001
0000
,
0100
0000
0100
0001
0000
0000
1000
1000
,
0000
0000
0000
0000
,
1100
0000
0000
0110
0000
0000
0011
0000
,
0000
0000
0100
0001
,
1001
0000
0000
0101
0000
0000
0110
0000
,
0000
0000
1000
0010
,
0100
0010
1000
0001
,
0010
0000
0001
1001
,
1000
1001
0001
1000
,
1001
0000
0010
0100
,
1000
0001
1000
0000
0100
0000
0100
0000
,
1000
0010
1000
0000
0010
0000
0010
0000
,
1000
0001
0010
0000
0100
0000
0100
0000
,
1000
0001
1000
0000
0010
0000
0010
0000
,
1000
0000
0001
0100
0001
0000
0010
0000
,
0001
0010
0100
1000
,
1000
0100
1000
0000
0001
0100
0001
0000
,
1000
0001
1000
0001
1000
0000
0100
0000
,
0010
0000
0001
1000
0001
0000
0010
0000
,
0100
1000
0100
0000
0010
0000
0001
0100
,
0001
0100
0010
0000
,
1100
0110
0011
0000
,
0010
0000
0001
0100
0001
0000
0010
0000
,
0001
0010
0100
1000
,
1000
0100
1000
0000
0001
0100
0001
0000
,
1000
0001
1000
0001
1000
0000
0001
0000
,
1000
0000
1000
0001
1000
0000
0010
0000
,
0100
0001
0100
0000
0010
0000
1000
0100
,
1000
0100
0010
0000
,
0011
0110
1100
0000
,
1000
0000
0001
0100
0001
0000
0010
0000
,
0001
0010
0100
1000
,
1000
0100
1000
0000
0001
0100
0001
0000
,
1000
0001
1000
0001
1000
0000
0100
1000
,
0100
0000
0010
0001
0010
0000
0001
0100
,
0010
1000
0002
0000
0000
2000
0000
0000
,
0000
0000
0000
3003
,
0000
0000
1010
0000
0110
0000
0001
0100
,
0001
0000
0100
0010
0100
0000
0001
1000
,
0001
1000
0001
0000
0000
0000
0100
0000
,
0010
1000
1000
0100
,
0010
0000
0100
0010
0100
0000
1000
0000
,
0100
0000
0010
0000
0001
0000
1000
0001
,
1000
0000
0001
1000
0001
0000
0100
0000
,
0010
1000
1000
0100
,
0010
0000
0100
0010
0100
0000
0010
0100
,
0000
1000
0001
0000
0100
0010
0000
1000
,
0001
1000
0000
0000
0000
0000
0001
0001
,
0000
0010
0010
0000
0001
0001
0000
1000
,
0001
1000
0000
0000
0000
0000
0000
0000
,
0000
0000
0000
0000
;
#NOTES:
     dance-single:
     :
     Hard:
     12:
     :
0000
0000
0000
0000
,
0000
0000
0000
0000
,
0000
0000
0000
0000
,
0000
0000
0000
0000
,
0000
0000
0000
0000
,
0000
0000
0000
0000
,
0000
0000
0000
0000
,
0000
0000
0000
0000
,
0000
0000
0000
0000
,
0000
0000
0000
0000
,
0000
0000
0000
0000
,
0100
0000
1000
0000
1000
0100
1000
0000
,
0010
0000
0100
0000
0001
0010
0100
0000
,
1000
0000
0001
0000
0001
0100
0001
0000
,
1000
0001
1000
0000
0001
1000
0001
0000
,
1000
0100
1000
0001
0100
0010
0100
0001
,
1000
0100
1000
0001
0010
0001
1000
0000
,
1000
0001
0001
0010
0100
0100
1000
0001
,
0001
1000
0001
0001
0000
0000
0000
0000
,
1000
0000
0000
0010
1000
0000
0000
0001
,
0100
0000
0001
1000
0010
0000
1000
0001
,
1000
0000
0000
0100
0010
0000
0001
0010
,
0100
0000
1000
0010
0100
0000
0000
0000
,
0001
0000
0000
0010
0100
0000
0000
1000
,
0001
0000
0000
0010
0100
0000
1000
0000
,
1000
0000
0100
0010
0000
0000
0001
1000
,
0000
0000
1000
0010
,
0100
0000
0100
0010
0100
0000
0100
0001
,
0100
0000
0001
1000
0001
0010
0100
0000
,
0100
0000
0100
0010
0100
0000
0100
1000
,
0100
0000
1000
0001
1000
0010
0100
0000
,
0010
0000
0010
0100
0010
0000
1000
0000
,
1000
0000
0001
1000
0001
0000
0001
0000
,
0010
0000
0100
1000
0000
0000
0001
1000
,
0000
0000
0000
0000
,
0110
0000
0000
1000
0000
0001
0100
0000
,
0000
0000
0010
0010
,
1001
0000
0001
0100
0000
0010
0100
0000
,
0000
0000
0000
0000
0000
0000
0000
0000
0002
0000
0000
0000
0020
0003
0000
0000
,
0200
0000
0030
0000
2000
0000
0300
0000
0020
3000
0000
0000
0200
0030
0000
0000
,
0002
0300
0000
0000
0000
0003
0000
0000
0011
0000
0000
0000
1001
0000
0000
0000
,
1100
0110
0011
0110
,
1100
0000
1000
0001
,
1000
0001
1000
0010
0100
0010
0100
0001
,
0100
0010
1000
0100
1000
0000
0100
1000
,
0001
1000
0010
0100
0001
1000
0001
1000
,
0001
0100
0010
1000
0001
0000
0100
0010
,
0100
0000
0001
1000
0001
0000
0010
0100
,
1000
0100
0010
0100
1000
0000
0100
0010
,
0001
1000
1001
0000
1000
0001
1001
0000
,
1000
0010
1000
0010
1000
0000
0010
0100
,
0001
0000
0001
0010
0100
0000
0100
1000
,
0100
0010
0001
0100
0001
0000
0100
0001
,
1000
0001
0010
0100
1000
0001
1000
0000
,
1100
0000
0110
0000
0011
0000
0100
0010
,
0001
0000
1000
0100
0010
0000
0001
0010
,
1000
0010
0001
0010
1000
0000
0010
0100
,
1000
0001
1001
0000
0001
1000
1001
0000
,
0001
0010
0001
0010
0001
0000
0010
0100
,
1000
0000
1000
0010
0100
0000
0100
0001
,
0100
0010
1000
0100
1000
0000
0100
1000
,
0001
1000
0010
0100
0001
1000
0001
0000
,
1100
0000
0110
0000
0011
0000
0100
0010
,
0001
0000
0010
0001
0010
0000
0010
1000
,
0010
0001
0010
1000
0010
0000
0001
1000
,
0010
0100
0110
0000
0100
0010
0110
0000
,
0100
0010
0100
0010
0100
0000
0001
1000
,
0001
0000
1000
0001
1000
0000
0100
0010
,
0100
1000
0002
0000
0000
2000
0000
0000
,
0000
0000
0000
3003
,
0000
0000
0010
0000
0010
0000
0100
1000
,
0100
0000
0010
0001
0010
0000
0001
1000
,
0001
1000
0001
0000
1000
0100
1000
0100
,
1000
0001
0100
0010
0100
0001
1000
0100
,
1000
0001
0010
0001
1000
0000
0001
1000
,
0001
0000
1000
0100
1000
0100
1000
0000
,
1000
0001
1000
0000
0001
1000
0001
0100
,
0001
1000
0010
0100
0010
1000
0001
0010
,
0001
1000
0100
1000
0001
0000
0001
1000
,
1000
0100
0010
0010
0001
1000
1000
0001
,
1000
1000
0000
0000
0000
0000
1000
0100
,
0100
0010
0001
0001
0100
0010
0010
1000
,
0001
0001
0000
0000
0000
0000
0000
0000
,
0000
0000
0000
0000
;
#NOTES:
     dance-single:
     :
     Challenge:
     16:
     :
0000
0000
0000
0000
,
0000
0000
0000
0000
,
0000
0000
0000
0000
,
0000
0000
0000
0000
,
0000
0000
0000
0000
,
0000
0000
0000
0000
,
0000
0000
0000
0000
,
0000
0000
0000
0000
,
0000
0000
0000
0000
,
0000
0000
0000
0000
,
0000
0000
0000
0000
0000
0000
0000
0000
0000
0000
0000
0000
0001
0100
0001
1000
,
0100
0000
0110
0000
0000
0000
0000
0000
1000
0001
1000
0001
0010
0000
0100
0000
,
1100
0000
0011
0000
0000
0000
0000
0000
1000
0001
0100
0001
0010
0000
0100
0000
,
1100
0000
1001
0000
0000
0000
0000
0000
0010
1000
0010
1000
0001
0000
0100
0000
,
0001
0000
1000
0000
0100
1000
0100
1000
0001
0000
0100
0000
0002
0000
0000
0000
,
0013
0000
0100
0000
1000
0000
0100
0000
0010
0001
0010
0001
1000
0000
0010
0000
,
0100
0000
0001
0000
0010
0000
0100
0000
1000
0010
1000
0010
0100
0000
0001
0000
,
1000
0100
1000
0100
0010
0000
0001
0100
0001
0100
0010
0000
1000
0001
1000
0001
,
0100
0000
0001
1000
0001
1000
0010
0000
0200
0000
0000
0000
0320
0000
0000
0000
,
2030
0000
3001
0100
0002
0000
0013
0100
,
2000
0000
3001
0100
2000
0000
3001
0010
,
0200
0000
1300
0001
0020
0000
0130
0001
,
0020
0000
0130
0001
2000
0000
3010
0000
,
1200
0000
0310
0001
0200
0000
1300
0002
,
0010
0000
1003
0100
0002
0000
0013
0000
,
0102
0000
1003
0010
0002
0000
0023
0200
,
0000
0330
0011
1010
,
0100
0010
1000
0001
0010
0100
1000
0010
,
0001
0010
1000
0100
0110
0000
0010
0001
,
0100
1000
0001
0010
1000
0100
0010
0001
,
1000
0010
0001
1000
1100
0000
0101
0000
,
0001
1000
0010
1000
0100
0010
0001
0100
,
1000
0001
1000
0100
0010
1000
0100
0001
,
0100
0010
0001
0100
1000
0001
0010
0100
,
0000
0000
0001
0000
1000
0000
1000
0000
0001
0000
0001
0000
0010
0100
0010
0100
,
1000
0000
0100
0110
0000
0001
0011
0000
,
0000
0000
2000
3002
,
0013
0000
0100
1100
0000
1001
0011
0000
,
0000
0000
0000
0000
0000
0000
0000
0000
0000
0000
0000
0000
0000
0000
0000
0000
0000
0000
1000
0000
0000
0100
0000
0000
0010
0000
0000
0000
0001
0000
0000
0000
0100
0000
0000
0000
0010
0000
0000
0000
1000
0000
0000
0000
0100
0000
0000
0000
,
0020
0032
0203
2300
,
3010
0000
0000
0000
0000
0000
0010
0100
0020
0000
0000
0000
0130
1000
0001
1000
,
0001
0100
1000
0001
0010
1000
0100
0010
,
1001
0000
0020
0230
,
0301
0000
1000
0100
0010
0000
0001
0000
0100
0000
0010
1000
0001
0000
0010
0000
,
1000
0000
0010
0100
1000
0000
0001
0000
0200
0000
0000
0000
0310
0000
1000
0000
,
0001
0000
0010
0100
0001
0000
0100
0000
1000
0000
0010
0000
0100
0000
0001
0000
,
1000
0100
0010
0001
0110
0000
0100
1000
,
0010
0000
0100
0000
0001
0000
0010
0000
0100
0000
1000
0010
0100
0000
0001
0000
,
1000
0100
0001
1000
0020
0000
0130
1000
,
0001
0000
1000
0100
1000
0000
0001
0100
0001
0000
1000
0010
1000
0000
0001
0010
,
0001
1000
0001
0100
0110
0000
1000
0100
,
0002
0000
0000
0103
1000
0000
0010
0000
0100
0000
0001
0010
0100
0000
1000
0000
,
0100
0000
0001
0100
0010
0000
0001
0000
0200
0000
0000
0000
0310
0000
1000
0000
,
0010
0000
0100
0001
1000
0000
0001
0000
0010
0000
0100
1000
0001
0000
0100
0000
,
0110
0000
0000
0000
1010
0000
0000
0000
0101
0000
0000
0000
1000
0100
0010
0100
,
1000
0000
0001
0100
0010
0000
1000
0000
0010
0000
0100
0000
0001
0000
1000
0000
,
0010
0000
0100
0001
1000
0000
0100
0000
0110
0000
0000
0000
1000
0000
0100
0000
,
0010
0000
0001
1000
0100
0000
0010
0001
1000
0000
0001
0100
0010
0000
1000
0100
,
0010
0001
1000
0100
0110
0000
0010
0001
,
0200
0000
0000
0310
1000
0000
0001
0100
0010
0000
0001
0000
0010
0000
1000
0000
,
0100
0000
0010
0001
1000
0000
0001
0000
0020
0000
0000
0000
0130
0000
1000
0000
,
0010
0000
0001
0010
0100
0000
1000
0000
0100
0000
0010
1000
0001
0000
0100
0000
,
0010
0000
0000
0100
0010
0000
0110
0000
1001
0000
0000
0000
0010
0100
0010
0100
,
0001
0000
0010
0000
0100
0000
1000
0000
0010
0000
0100
0001
0010
0000
0001
0000
,
1000
0000
0010
1000
0100
0000
1000
0000
0101
0000
0000
0000
1000
0000
0010
0000
,
0100
0000
0001
0100
0010
0000
1000
0100
0010
0000
0100
1000
0001
0000
0010
0001
,
0100
0010
1000
0001
0101
0000
0010
0101
,
1001
0000
0100
1010
1001
0000
0001
0100
,
0110
1010
0101
1100
0101
0011
,
1010
2002
0000
0000
,
3003
0000
0000
0000
0010
0000
0100
0001
1000
0100
0010
0000
0100
0000
1000
0001
,
0100
0000
0001
1000
0010
0000
1000
0001
0010
0000
0001
1000
0100
0000
0001
0000
,
0100
0000
1000
0000
0010
0000
0000
0000
0100
0010
0100
0001
1000
0000
0100
0000
,
0010
0000
0001
0000
1000
0100
1000
0001
0200
0000
0320
0000
1030
0000
0010
0000
,
0100
0000
0001
0000
0010
0001
1000
0010
0200
0000
0320
0000
1030
0000
0100
0000
,
0010
0000
0001
0000
0100
0010
1000
0001
0020
0000
0230
0000
1300
0000
0010
0000
,
0100
0001
1000
0100
0020
0000
0000
0000
0130
0000
1000
0000
0001
0000
0100
0000
,
1000
0000
0001
0000
0010
1000
0001
0010
0002
0000
2003
0000
3001
0000
0010
0000
,
1000
0000
0001
0000
0100
1000
0010
0100
0002
0000
2003
0000
3010
0100
0010
0100
,
0001
0000
0010
0100
0010
0100
1000
0000
0001
0100
0010
0100
0001
0000
1000
0100
,
0010
0100
1000
0000
0001
0000
0100
0000
0010
1000
0001
0000
0100
0010
1000
0001
,
0010
0000
0100
0010
0001
1000
0010
0000
0100
0001
0010
0100
1000
0000
0100
1000
,
0010
0100
0001
0000
0000
0000
0000
0000
0000
0000
0000
0000
0000
0000
0000
0000
,
0000
0000
0000
0000
;
#NOTES:
     dance-double:
     :
     Easy:
     6:
     :
00000000
00000000
00000000
00000000
,
00000000
00000000
00000000
00000000
,
00000000
00000000
00000000
00000000
,
00000000
00000000
00000000
00000000
,
00000000
00000000
00000000
00000000
,
00000000
00000000
00000000
00000000
,
00000000
00000000
00000000
00000000
,
00000000
00000000
00000000
00000000
,
00000000
00000000
00000000
00000000
,
00000000
00000000
00000000
00000000
,
00000000
00000000
00000000
00000000
,
10000000
00100000
00100000
00000000
,
01000000
00010000
00010000
00000000
,
10000000
00000000
01000000
00000000
,
00010000
00001000
00011000
00000000
,
00001000
00000010
00000001
00000000
,
00000001
00000000
00001000
00000000
,
00000010
00000000
00000000
00000010
00000000
00000000
00000100
00000000
,
00000000
00000100
00000000
00000000
00000000
00000000
00000000
00000000
,
00000001
00000000
00000001
00000000
,
00000100
00000100
00000100
00000000
,
00001000
00000000
00001000
00000000
,
00010000
00001000
00010000
00000000
,
00200000
00000000
10300000
00000000
,
00020000
00000000
01030000
00000000
,
10000000
00000000
00010000
00000000
,
10010000
00000000
00000000
00000000
,
10000000
00000000
10000000
00000000
,
01000000
01000000
01000000
00000000
,
00010000
00000000
00001000
00000000
,
00010000
00001000
00010000
00000000
,
00000020
00000000
00000130
00000000
,
00002000
00000000
00003001
00000000
,
00000001
00000000
00000100
00000000
,
00000101
00000000
00000000
00000000
,
00000002
00000000
00000000
00000103
00000000
00000000
00000100
00000000
,
00000000
00000000
00000000
00000000
,
00002000
00000000
00000000
00013000
00000000
00000000
00010000
00000000
,
00000000
00000000
00000000
00000000
,
00200000
00000000
10300000
00000000
,
02000000
00000000
03010000
00000000
,
00001000
00010000
00001000
00000000
,
00011000
00000000
00000010
00000010
,
00000001
00000000
00000010
00000000
,
00000100
00000000
00001001
00000000
,
00000001
00000100
00001000
00000000
,
00010000
00001000
00010000
00000000
,
00100000
00000000
10000000
00000000
,
00010000
01000000
00010000
00000000
,
10000000
10000000
01000000
00010000
,
00001000
00000000
00011000
00000000
,
00000010
00000010
00000001
00000000
,
00000100
00000000
00001000
00000000
,
00010000
00001000
00010000
00000000
,
00100000
01000000
01100000
00000000
,
10000000
00000000
10000000
00000000
,
01000000
00010000
00001000
00000000
,
00000010
00000010
00000100
00000100
,
00001000
00000000
00001001
00000000
,
00000010
00000010
00000001
00000000
,
00000100
00000000
00001000
00000000
,
00010000
00001000
00010000
00000000
,
00100000
01000000
01100000
00000000
,
10000000
00000000
10000000
00000000
,
01000000
00010000
00001000
00000000
,
00000010
00000010
00000100
00000100
,
00001000
00000000
00001001
00000000
,
00000001
00000100
00001000
00000000
,
00022000
00000000
00000000
00000000
,
00000000
00033000
00000000
00000000
,
00000000
00000000
00000000
00100000
,
00100000
01000000
01000000
00010000
,
10000000
10010000
00000000
10000000
,
00100000
00100000
00000000
01000000
,
00010000
00010000
00000000
10000000
,
00000000
01000000
00000000
00010000
,
00001000
00011000
00000000
00001000
,
00000010
00000001
00000000
00000001
,
00000000
00001000
00000000
00000010
,
00000000
00000010
00000000
00000000
00000100
00000000
00000000
00000100
,
00000000
00000000
00000000
00001000
,
00000000
00001000
00000000
00000000
00010000
00000000
00000000
00010000
,
00000000
00000000
00000000
00000000
;
#NOTES:
     dance-double:
     :
     Medium:
     9:
     :
00000000
00000000
00000000
00000000
,
00000000
00000000
00000000
00000000
,
00000000
00000000
00000000
00000000
,
00000000
00000000
00000000
00000000
,
00000000
00000000
00000000
00000000
,
00000000
00000000
00000000
00000000
,
00000000
00000000
00000000
00000000
,
00000000
00000000
00000000
00000000
,
00000000
00000000
00000000
00000000
,
00000000
00000000
00000000
00000000
,
00000000
00000000
00000000
00000000
,
10000000
00000000
01000000
00000000
00010000
00001000
00010000
00000000
,
00001000
00000010
00000001
00000000
,
00000001
00000000
00000100
00000000
00000010
00001000
00000100
00000000
,
00010000
00001000
00010000
00001000
00010000
00000000
00000000
00000000
,
00100000
00000000
10000000
00000000
00010000
01000000
00010000
00000000
,
00100000
00000000
00001000
00000000
00010000
00001000
00010000
00000000
,
00001000
00000010
00000000
00000010
00000001
00000000
00000001
00001000
,
00000000
00001000
00000001
00001000
00000000
00000000
00000000
00000000
,
00000001
00000100
00000001
00000100
,
00001000
00010000
00001000
00010000
,
00100000
01000000
00100000
01000000
,
00010000
10000000
10010000
00000000
,
20000000
00000000
00000000
01000000
31000000
00000000
00000000
00000000
,
00020000
00000000
00000000
00001000
00031000
00000000
00000000
00000000
,
00001000
00010000
00001000
00000010
,
00000001
00001000
00001001
00000000
,
00000001
00000000
00000100
00000000
00000010
00001000
00000010
00000000
,
00010000
00001000
00010000
00001000
00010000
00000000
00000000
00000000
,
00100000
00000000
10000000
00000000
00010000
01000000
00010000
00000000
,
10000000
01000000
10000000
01000000
10000000
00000000
00000000
00000000
,
11000000
00000000
00000000
00100000
00100000
00000000
00000000
00000000
,
00101000
00000000
00000000
00010000
00010000
00000000
00000000
00000000
,
00001000
00000010
00000001
00000100
,
00000010
00001000
00001001
00000000
,
00000101
00000000
00000000
00001100
00000000
00000000
00011000
00000000
,
00000000
00000000
00000000
00000000
,
00110000
00000000
00000000
10100000
00000000
00000000
11000000
00000000
,
00000000
00000000
10000000
01000000
,
00020000
00000000
00031000
00000000
,
00002000
00000000
00003010
00000000
,
00000001
00000010
00000100
00001000
,
00001001
00000000
00000000
00000000
,
00000001
00000000
00001000
00000000
00000010
00000100
00000010
00000000
,
00000100
00000000
00001000
00010000
00001000
00000000
00010000
00000000
,
00100000
10000000
00010000
00100000
,
01000000
10000000
10010000
00000000
,
10000000
01000000
00100000
00010000
,
10000000
00000000
00010000
01000000
00010000
00000000
00100000
00000000
,
00001000
00010000
00001000
00000000
00010000
00001000
00010000
00000000
,
00000100
00000010
00001001
00000000
,
00000000
00000000
00000001
00000000
00000100
00000000
00001000
00010000
,
00001000
00010000
00100000
10000000
,
01000000
00000000
00100000
00000000
00010000
00100000
01000000
00000000
,
10010000
01100000
10010000
00000000
,
10000000
01000000
00010000
00001000
,
00000010
00000100
00000010
00000000
00001001
00000000
00000000
00000000
,
00000002
00000103
00002000
00013000
,
00100000
01000000
00100000
00000000
10010000
00000000
00000000
00000000
,
00000000
00000000
10000000
00000000
01000000
00000000
00010000
00001000
,
00010000
00001000
00000010
00000001
,
00000100
00000000
00000010
00000000
00001000
00000010
00000100
00000000
,
00001001
00000110
00001001
00000000
,
00000001
00000100
00001000
00010000
,
00100000
01000000
00100000
00000000
10010000
00000000
00000000
00000000
,
20000000
31000000
00020000
00031000
,
00000010
00000100
00000010
00000000
00001001
00000000
00000000
00000000
,
00000001
00000100
00001000
00010000
,
00200000
00000000
00000000
00000000
00000000
20000000
00000000
00000000
,
00000000
30300000
00000000
00000000
,
00000000
00000000
10000000
00000000
01000000
00000000
00010000
00001000
,
00010000
00000000
00001000
00010000
00001000
00000000
00000100
00000010
,
00000100
00001001
00000000
00000001
,
00000100
00000000
00001000
00010000
00001000
00000000
00010000
00000000
,
00100000
10000000
00000000
10000000
,
01000000
00000000
00100000
00010000
01000000
00000000
00001000
00010000
,
00001000
00010000
00001000
00000000
00000000
00000000
00000010
00000000
,
00000001
00000000
00001000
00000100
00001000
00000000
00000010
00000000
,
00010000
00000000
00001000
00010000
00001000
00000000
00010000
00100000
,
00000000
00100000
10000000
00000000
10000000
00010000
00000000
00010000
,
10000000
00010000
00000000
00000000
00000000
00000000
10000000
01000000
,
00000000
01000000
00010000
00000000
00010000
00001000
00000000
00001000
,
00010000
00001000
00000000
00000000
00000000
00000000
00000000
00000000
,
00000000
00000000
00000000
00000000
;
#NOTES:
     dance-double:
     :
     Hard:
     12:
     :
00000000
00000000
00000000
00000000
,
00000000
00000000
00000000
00000000
,
00000000
00000000
00000000
00000000
,
00000000
00000000
00000000
00000000
,
00000000
00000000
00000000
00000000
,
00000000
00000000
00000000
00000000
,
00000000
00000000
00000000
00000000
,
00000000
00000000
00000000
00000000
,
00000000
00000000
00000000
00000000
,
00000000
00000000
00000000
00000000
,
00000000
00000000
00000000
00000000
,
11000000
00000000
01010000
00000000
00010000
00001000
00100000
00000000
,
01100000
00000000
01010000
00000000
00001000
00010000
00001000
00000000
,
00001010
00000000
00000011
00000000
00000010
00000100
00001000
00000000
,
00000001
00000100
00001000
00000100
00000001
00000000
00000010
00000000
,
00001000
00010000
00001000
00010000
00100000
01000000
00100000
00000000
,
10000000
01000000
10000000
01000000
00010000
00001000
00100000
00000000
,
00001000
00010000
00001000
00000100
00000010
00000100
00000001
00000010
,
00000001
00001000
00000100
00001000
00000000
00000000
00000000
00000000
,
00000001
00000001
00000100
00000100
,
00001000
00001000
00010000
00010000
,
00100000
00100000
10000000
10000000
,
01000000
01000000
00010000
00010000
,
00002000
00000000
00003000
00001000
00010000
00000000
00001000
00000000
,
00000020
00000000
00000030
00000010
00000001
00000000
00001000
00000000
,
00000001
00000000
00000001
00000100
00000000
00000000
00000010
00001000
,
00000000
00000000
00000001
00000010
,
00001000
00010000
00001000
00000000
00100000
01000000
00100000
00000000
,
00010000
01000000
10000000
01000000
00010000
00000000
00100000
00000000
,
01000000
10000000
01000000
00000000
00100000
00010000
00100000
00000000
,
00001000
00010000
00100000
00010000
00001000
00000000
00000010
00000000
,
00000002
00000000
00000003
00000001
00000100
00000000
00001000
00000000
,
00020000
00000000
00030000
00010000
00001000
00000000
00010000
00000000
,
00100000
00000000
00100000
10000000
00000000
00000000
10000000
00010000
,
00000000
00000000
00000000
00000000
,
11000000
00000000
01000000
00010000
00000000
00010000
00001000
00000000
,
00000000
00000000
00000000
00000000
,
00000011
00000000
00000010
00001000
00000000
00001000
00010000
00000000
,
00000000
00000000
00000000
00000000
,
20000000
00000000
30200000
00000000
,
00320000
00000000
00032000
00000000
,
00003010
00000001
00000010
00001000
,
00011000
00000000
00000000
00000000
,
10000000
01000000
00010000
00000000
10000000
00100000
00010000
00000000
,
10000000
00000000
00000000
10000000
00010000
00000000
00000000
00010000
00100000
00000000
00000000
00100000
00001000
00000000
00000000
00001000
,
00010000
00000000
00001000
00000010
00000001
00000010
00000100
00001000
,
00000001
00000100
00001000
00000100
00000001
00000000
00000001
00000010
,
00001000
00000000
00000001
00000100
00001000
00000000
00000001
00000100
,
00001000
00010000
00001000
00010000
00100000
00000000
10000000
01000000
,
00010000
00001000
00010000
01000000
00100000
10000000
00100000
00010000
,
00001000
00000100
00000001
00000100
00001000
00000000
00000001
00000100
,
00001000
00000000
00000000
00000000
00000001
00000000
00000010
00000000
00001000
00000000
00000000
00000001
00000100
00000000
00000000
00000100
,
00001000
00000000
00000000
00001000
00010000
00000000
00000000
00010000
00100000
00000000
00000000
00000000
10000000
00000000
01000000
00000000
,
00100000
00000000
00001000
00010000
01000000
10000000
01000000
00000000
,
01100000
00000000
00101000
00000000
00011000
00000000
00001000
00000100
,
00000001
00000000
00001000
00000010
00000001
00000000
00000010
00000100
,
00000001
00000010
00000100
00001000
00000100
00000000
00000010
00000000
,
00000001
00000010
00001000
00010000
00000010
00001000
00010000
01000000
,
00100000
10000000
00100000
00010000
00100000
00000000
10000000
01000000
,
00010000
00000000
00000000
00000000
10000000
00000000
00100000
00000000
00010000
00000000
00000000
00000000
10000000
00000000
00000000
10000000
,
00010000
00000000
00000000
00010000
00100000
00000000
00000000
00100000
00001000
00000000
00000000
00001000
00010000
00000000
00000000
00000000
,
00001000
00000010
00000001
00000010
00000100
00001000
00000001
00000000
,
00000011
00000000
00001010
00000000
00011000
00000000
10000000
01000000
,
00010000
00000000
10000000
00100000
00010000
00000000
10000000
00100000
,
00010000
00001000
00010000
00001000
00000100
00000000
00000001
00000010
,
00001000
00010000
00001000
00000010
00000001
00000100
00001000
00010000
,
00100000
10000000
00010000
01000000
00100000
00000000
10000000
01000000
,
00010000
00000000
10000000
00100000
00010000
00000000
00001000
00000010
,
00000001
00000010
00002000
00000000
00000000
00020000
00000000
00000000
,
00000000
00000000
00000000
00033000
,
00000000
00000000
01000000
00000000
00100000
00000000
10000000
01000000
,
00010000
00001000
00100000
00010000
00001000
00000100
00000010
00000001
,
00000010
00001000
00000010
00000000
00000000
00000000
00000011
00000000
,
00001010
00000000
00001000
00010000
00000100
00000000
00000110
00000000
,
00001010
00000000
00010000
00001000
00010000
00000000
01010000
00000000
,
11000000
00000000
01000000
00100000
00010000
00000000
10000000
00100000
,
00010000
00100000
10000000
00000000
01000000
00000000
00010000
00001000
,
00010000
00001000
00000100
00000010
00000100
00000000
00000001
00000010
,
00000001
00000010
00001000
00010000
00000100
00000000
00010000
00001000
,
00010000
00100000
01000000
00100000
10000000
01000000
10000000
00010000
,
00100000
00010000
00000000
00000000
00000000
00000000
10000000
01000000
,
00010000
00001000
00010000
00100000
00010000
00001000
00000010
00000001
,
00000100
00000010
00000000
00000000
00000000
00000000
00000000
00000000
,
00000000
00000000
00000000
00000000
;
#NOTES:
     dance-double:
     :
     Challenge:
     16:
     :
00000000
00000000
00000000
00000000
,
00000000
00000000
00000000
00000000
,
00000000
00000000
00000000
00000000
,
00000000
00000000
00000000
00000000
,
00000000
00000000
00000000
00000000
,
00000000
00000000
00000000
00000000
,
00000000
00000000
00000000
00000000
,
00000000
00000000
00000000
00000000
,
00000000
00000000
00000000
00000000
,
00000000
00000000
00000000
00000000
,
00000000
00000000
00000000
00000000
,
10100000
10100000
00000000
01000000
00010000
00001000
00000100
00000001
,
00000011
00000011
00000000
00000100
00001000
00010000
00100000
10000000
,
11000000
11000000
00000000
00100000
00010000
00001000
00000010
00000001
,
00001001
00000000
00010010
00000000
00001100
00000000
00000010
00000100
,
00001000
00000000
00010000
00000000
01000000
00000000
10000000
00000000
00100000
10000000
00100000
10000000
00010000
00000000
01000000
00000000
,
00001000
00000000
00010000
00000000
00000010
00000000
00000100
00000000
00000001
00000010
00000001
00000010
00000100
00000000
00010000
00000000
,
00001000
00010000
00001000
00010000
00001000
00000000
01000000
00010000
01000000
00010000
01000000
00000000
00100000
10000000
00100000
10000000
,
00100000
00000000
10000000
01000000
10000000
01000000
10000000
00000000
00100000
00000000
00000000
00000000
01100000
00000000
00000000
00000000
,
20100000
00000000
30010000
01000000
00002000
00000000
00013000
00001000
,
00000020
00000000
00010030
00000010
00002000
00000000
00013000
00000100
,
00000002
00000000
00001003
00000010
00000200
00000000
00000310
00001000
,
00020000
00000000
00130000
10000000
01000000
00000000
01010000
00000000
,
00011000
00000000
00001000
00000100
00000002
00000000
00000013
00000100
,
00020000
00000000
00031000
00100000
02000000
00000000
03020000
00000000
,
20030000
00000000
30100000
00002000
00000000
00000000
00013000
00001000
,
00000000
00010000
00100000
01000000
00100000
00000000
10010000
00000000
,
10000000
00100000
00010000
00001000
00010000
01000000
00010000
00001000
,
00000010
00000001
00001000
00000100
00000001
00000000
00000100
00001000
,
00000001
00000100
00001000
00010000
00001000
00000010
00001000
00010000
,
01000000
10000000
00010000
00100000
10000000
00010000
00010000
00000000
,
01000000
10000000
00100000
00010000
00001000
00000010
00001000
00010000
,
01000000
00010000
00001000
00000100
00000010
00010000
00000100
00000000
,
00000010
00000001
00000100
00002000
00000000
00013000
00100000
20000000
,
00000000
00000000
30010000
00000000
00100000
00000000
00100000
00000000
01000000
00000000
10000000
00000000
00100000
01000000
00010000
01000000
,
00001000
00010000
00000100
00000110
00000000
00000011
00001000
00000000
,
00000000
00000000
00000110
00010100
,
00001000
00010000
00100000
10100000
00000000
01100000
00010000
00000000
,
00000000
00000000
00000000
00000000
00000000
00000000
00000000
00000000
00000000
00000000
00000000
00000000
00000000
00000000
00000000
00000000
00000000
00000000
00001000
00000000
00000000
00000100
00000000
00000000
00000010
00000000
00000000
00000000
00000001
00000000
00000000
00000000
00001000
00000000
00000000
00000000
00000100
00000000
00000000
00000000
00010000
00000000
00000000
00000000
00001000
00000000
00000000
00000000
,
00020000
00230000
00320000
00032000
,
00003020
00000030
00000110
00001001
,
00000100
00000000
00001000
00000000
00010000
00000000
00100000
00000000
01000000
00000000
10000000
00000000
01000000
00100000
01000000
00001000
,
00010000
00000000
00010100
00000101
,
00002000
00000000
00000000
00003100
00010000
00000000
00001000
00000000
02000000
00000000
00000000
03100000
10000000
00000000
00010000
00000000
,
20000000
00000000
00000000
31000000
00100000
00000000
00001000
00000000
00000010
00000000
00000000
00000000
00000001
00000000
00000100
00000000
,
00010000
00000000
00010000
00001000
00000010
00000100
00000001
00000010
,
00002000
00000000
00103000
01000000
00100000
00000000
00010000
01000000
,
20000000
00000000
00000000
31000000
00100000
00000000
00010000
00000000
00002000
00000000
00000000
00003010
00000001
00000000
00001000
00000000
,
00000100
00010000
01000000
00010000
00001000
00000000
00100000
00010000
,
01000000
00001000
00010000
00000010
00000100
00001000
00010000
00100000
,
10000000
00000000
01000000
00000000
00010000
00000000
00000100
00000000
00000010
00000000
00000000
00000001
00001000
00000000
00000100
00000000
,
00020000
00000000
00000000
00000000
00031000
00000000
01000000
00000000
20000000
00000000
00000000
30010000
00100000
00000000
01000000
00000000
,
00002000
00000000
00000000
00013000
00000100
00000000
00000001
00000000
00002000
00000000
00000000
00000000
00003010
00000000
00000001
00000000
,
00000200
00000000
00000310
00001000
00000100
00010000
01000000
00010000
,
01010000
00000000
00000000
00000000
00011000
00000000
00000000
00000000
00001100
00000000
00000000
00000000
00000010
00000001
00000010
00000100
,
00002000
00000000
00000000
00003010
00000100
00000000
00001000
00000000
00020000
00000000
00000000
00000000
00130000
00000000
01000000
00000000
,
10000000
01000000
00001000
00010000
00100000
00000000
01000000
00010000
,
10000000
01000000
00001000
00010000
00000010
00000001
00001000
00000100
,
00010000
00000010
00001000
00100000
01000000
00000000
01000000
00010000
,
02000000
00000000
00000000
03001000
00010000
00000000
00000100
00000000
00000020
00000000
00000000
00000130
00010000
00000000
00001000
00000000
,
02000000
00000000
00000000
03100000
00010000
00000000
00001000
00000000
00000200
00000000
00000000
00000000
00000310
00000000
00010000
00000000
,
00002000
00000000
00103000
10000000
00010000
01000000
10000000
01000000
,
01010000
00000000
00010000
01000000
20000000
00000000
30100000
00010000
,
00002000
00000000
00003000
00010000
00000100
00000000
00000010
00000000
00002000
00000000
00003000
00000010
00001000
00000000
00100000
00000000
,
01000000
10000000
00010000
00100000
00002000
00000000
00013000
01000000
,
10000000
00000000
00010000
00100000
00001000
00000000
00010000
00000010
00001000
00000000
00000010
00010000
00001000
00000000
00010000
00001000
,
01000000
00100000
10000000
00100000
01000000
00000000
00010000
00100000
,
00011000
00000000
00001000
00000100
00011000
00000000
00010000
00001000
,
00011000
00110000
10100000
11000000
01010000
00011000
,
00001100
00001001
00000000
00000000
,
00000000
00000000
00000000
00000000
00000010
00000000
00000000
00000000
00000010
00000000
00000000
00000000
00000001
00000000
00000100
00000010
,
00001000
00000000
00000100
00000010
00001000
00000000
00010000
01000000
00100000
00000000
00010000
01000000
00100000
00000000
10000000
00000000
,
00010000
01000000
10000000
00000000
01200000
00000000
10300000
01000000
,
00010000
00000000
01000000
00000000
00200000
00000000
00301000
00010000
00000100
00000000
00000010
00000000
00000001
00000000
00000100
00000000
,
00001000
00000000
00010000
00000000
02000000
00000000
13000000
00100000
10000000
00000000
00010000
00000000
01000000
00000000
00100000
00000000
,
00010000
00000000
00001000
00000000
00000020
00000000
00000031
00000100
00000001
00000000
00000010
00000000
00001000
00000000
00010000
00000000
,
00100000
10000000
00100000
01000000
00020000
00000000
00000000
00000000
10030000
00000000
00100000
00000000
00010000
00000000
00001000
00000000
,
00000100
00000000
00000001
00000000
00001000
00000100
00001000
00000100
00001000
00000000
00000001
00000000
00000010
00000000
00001000
00000000
,
00010000
00000000
01000000
00000000
10000000
00010000
10000000
00010000
10000000
00000000
00100000
00000000
10000000
01000000
10000000
01000000
,
00100000
00000000
00010000
01000000
00010000
01000000
00001000
00000000
00010000
00000010
00010000
00000010
00000100
00000000
00000010
00001000
,
00000010
00001000
00000001
00000000
00001000
00000000
00000100
00000000
00000010
00000100
00000010
00000000
00000001
00000100
00000001
00000100
,
00000010
00000000
00001000
00000100
00001000
00000100
00010000
00000000
00001000
00100000
00001000
00100000
01000000
00000000
00100000
00010000
,
00100000
00010000
10000000
00000000
00000000
00000000
00000000
00000000
00000000
00000000
00000000
00000000
00000000
00000000
00000000
00000000
,
00000000
00000000
00000000
00000000
;
