
//----- song ID: rinn -----//
#TITLE:輪廻転生;
#ARTIST:まふまふ;
#TITLETRANSLIT:Rinnetensei;
#ARTISTTRANSLIT:Mafumafu;
#BANNER:Rinnetensei.png;
#BACKGROUND:Rinnetensei-bg.png;
#CDTITLE:./CDTitles/DDR A.png;
#MUSIC:Rinnetensei.ogg;
#SAMPLESTART:45.929;
#SAMPLELENGTH:15;
#BPMS:0=196;
#NOTES:
     dance-single:
     :
     Beginner:
     3:
     :
0000
0000
0000
0000
,
0000
0000
0000
0000
,
0000
0000
0000
0000
,
0000
0000
0000
0000
,
0000
0000
0000
0000
,
0000
0000
0000
0000
,
1000
0000
0000
0000
,
0001
0000
0000
0000
,
0010
0000
0000
0000
,
0000
0000
0000
0000
,
0010
0000
0000
0000
,
0001
0000
0000
0000
,
0010
0000
0000
0000
,
0001
0000
0000
0000
,
0010
0000
0000
0000
,
1000
0000
0000
0000
,
0010
0000
0000
0000
,
1000
0000
0000
0000
,
0001
0001
0000
0000
,
1000
0000
0000
0000
,
0001
0000
1000
0000
,
0001
0000
0000
0000
,
1000
1000
0000
0000
,
0001
0000
0000
0000
,
1000
0000
0001
0000
,
1000
0000
0001
0000
,
0020
0000
0000
0030
,
0000
0000
0000
0000
,
0010
0000
0000
0000
,
0100
0000
0000
0000
,
0020
0000
0000
0030
,
0000
0000
0000
0000
,
1000
0000
0000
0000
,
0001
0000
0000
0000
,
0010
0000
0000
0000
,
0100
0000
0000
0000
,
1000
0000
0000
0000
,
0010
0000
0010
0000
,
1000
0000
1000
0000
,
1000
1000
1000
0000
,
0100
0000
0000
0000
,
0010
0000
0000
0000
,
1000
0000
0000
0000
,
0001
0000
0000
0000
,
1000
0000
0001
0000
,
1000
0000
0000
0000
,
0001
0000
0001
0000
,
0001
0001
0001
0000
,
0100
0000
0000
0000
,
0010
0000
0000
0000
,
0001
0000
0000
0000
,
1000
0000
0000
0000
,
0001
0000
1000
0000
,
0001
0000
1000
0000
,
2002
0000
0000
3003
,
0000
0000
0000
0000
,
0000
0000
0000
0000
,
0000
0000
0000
0000
,
0001
0000
0000
0000
,
0000
0000
0000
0000
,
2002
0000
0000
3003
,
0000
0000
0000
0000
,
0000
0000
0000
0000
,
0000
0000
0000
0000
,
0001
0000
0000
0000
,
1000
0000
0000
0000
,
0001
0000
0000
0000
,
1000
0000
0000
0000
,
0001
0000
0000
0000
,
1000
0000
0000
0000
,
0001
0000
0001
0000
,
1000
1000
1000
0000
,
1000
0000
0000
0000
,
0010
0000
0000
0000
,
0001
0000
0000
0000
,
0010
0000
0000
0000
,
1000
0000
0000
0000
,
0100
0000
0000
0000
,
0001
0000
0100
0000
,
1000
0000
0000
0000
,
0010
0000
0000
0000
,
0100
0000
0000
0000
,
0001
0000
0000
0000
,
0010
0000
0010
0000
,
0000
0000
0000
0000
,
0000
0000
0000
0000
,
0001
0000
0001
0000
,
0001
0001
0001
0000
,
0100
0000
0000
0000
,
0010
0000
0000
0000
,
0001
0000
0000
0000
,
1000
0000
0000
0000
,
0001
0000
1000
0000
,
0001
0000
0000
0000
,
0000
1000
0000
1000
,
1000
1000
1000
0000
,
0100
0000
0000
0000
,
0010
0000
0000
0000
,
1000
0000
0000
0000
,
0001
0000
0000
0000
,
1000
0000
0001
0000
,
1000
0000
0001
0000
,
2002
0000
0000
3003
,
0000
0000
0000
0000
,
0000
0000
0000
0000
,
0001
0000
1000
0000
,
0001
0000
0001
0000
,
1000
0000
0000
0000
,
0001
0000
0000
0000
,
1000
0000
0001
0000
,
1000
0000
1000
0000
,
0010
0000
0000
0000
,
0100
0000
0100
0000
,
0200
0000
0000
0000
,
0000
0000
0000
0300
,
0000
0000
0000
0000
;
#NOTES:
     dance-single:
     :
     Easy:
     7:
     :
0000
0000
0000
0000
,
0000
0000
0000
0000
,
0000
0000
0000
0000
,
0000
0000
0000
0000
,
0000
0000
0000
0000
,
0000
0000
0000
0000
,
1000
0001
0010
0001
,
1000
0100
0100
0000
,
0010
0000
0000
0000
,
0000
0000
0000
0000
,
1000
0001
1000
0100
,
1000
0100
0100
0000
,
1000
0000
0001
0000
,
1000
0100
0010
0001
,
1000
0000
0001
0000
,
0001
0010
0100
1000
,
0001
0000
1000
0000
,
0001
0100
1000
0000
,
0001
0000
1000
0000
,
0001
0100
0001
0000
,
1000
0000
0001
0000
,
0010
0010
0001
0000
,
1000
1000
0001
0001
,
0010
0001
0010
0000
,
0002
0000
0003
0000
,
1000
0000
0001
0000
,
0010
0001
0010
0001
,
0001
1000
0001
0000
,
1000
0010
1000
0010
,
1000
0000
0000
0000
,
0100
1000
0100
1000
,
1000
0001
1000
0000
,
0001
0000
1000
0000
,
0001
0010
0001
0010
,
1001
0000
0000
0000
,
0110
0000
0000
0000
,
1000
0001
1000
0001
,
0010
0000
0001
0100
,
0101
0000
0011
0000
,
0001
0010
1000
0000
,
0010
0001
0100
0000
,
2000
0000
3100
0000
,
0100
0001
0100
0000
,
0001
1000
0001
0000
,
0110
0000
1001
0000
,
0001
0001
0001
0000
,
1100
0000
1010
0000
,
1000
0010
0001
0000
,
0010
1000
0100
0000
,
0002
0000
0103
0000
,
0100
1000
0100
0000
,
1000
0001
1000
0000
,
0020
0000
2030
0000
,
3200
0000
0310
0000
,
2002
0000
3003
0000
,
0110
0000
0000
0000
,
1000
0000
0000
0001
,
0000
0000
0000
0000
,
0001
0000
0000
0010
,
0000
0000
0010
0000
,
2002
0000
0000
3003
,
0000
0000
0000
0000
,
0001
0001
0000
1000
,
1000
0000
0001
0001
,
1000
0100
1000
0000
,
0010
0100
0001
0000
,
1000
0000
0001
0000
,
0001
0010
0100
0000
,
0001
0100
1000
0000
,
0001
1000
0100
0000
,
1000
0000
0001
0000
,
0001
1000
0001
0000
,
0001
0000
0100
0000
,
1000
0000
0100
0000
,
0001
0010
0001
0010
,
1000
0000
0010
0000
,
0001
0100
0001
0000
,
0100
0010
0100
0000
,
0001
0100
1000
0100
,
0001
0000
1001
0000
,
1001
0000
0000
0000
,
0110
0000
0000
0000
,
1000
0001
1000
0001
,
0010
0001
0100
0000
,
0000
0000
0000
0000
,
1000
0001
1000
0100
,
1100
0000
1010
0000
,
1000
0010
0001
0000
,
0010
1000
0100
0000
,
0002
0000
0103
0000
,
0100
1000
0100
0000
,
1000
0001
1000
0000
,
0110
0000
1001
0000
,
1000
1000
1000
0000
,
0101
0000
0011
0000
,
0001
0010
1000
0000
,
0010
0001
0100
0000
,
2000
0000
3100
0000
,
0100
0001
0100
0000
,
0001
1000
0001
0000
,
0020
0000
0032
0000
,
0203
0000
0310
0000
,
2002
0000
3003
0000
,
0220
0000
0000
0000
,
0330
0000
0000
0000
,
0001
1000
0010
1000
,
0001
0100
0100
0000
,
0001
1000
0100
1000
,
0001
0010
0010
0000
,
0200
0000
0001
0000
,
0010
0000
1300
0000
,
0110
0000
0000
0000
,
1000
0001
1000
0001
,
2002
0000
0000
0000
,
0000
0000
0000
0000
,
0000
0000
0000
0000
,
0000
0000
0000
3003
,
0000
0000
0000
0000
;
#NOTES:
     dance-single:
     :
     Medium:
     11:
     :
0000
0000
0000
0000
,
0000
0000
0000
0000
,
0000
0000
0000
0000
,
0000
0000
0000
0000
,
0000
0000
0000
0000
,
0000
0000
0000
0000
,
1000
0000
0001
0000
0010
0001
0010
0000
,
0001
0000
0100
0000
1000
0100
0001
0000
,
1000
0001
0000
0000
0000
0000
0000
0000
,
0000
0000
0000
0011
,
1000
0000
0001
0000
1000
0100
1000
0000
,
0001
1000
0100
1000
,
1000
0100
1000
0000
0001
0010
0001
0000
,
1000
0001
0100
0000
1000
0000
0100
0000
,
0001
1000
0001
0010
,
0001
0000
0010
0000
0100
0000
1000
0100
,
1000
0000
0001
0000
1000
0000
0010
0100
,
0000
0001
1000
0001
0100
0000
0100
0000
,
0001
0010
1000
0010
,
0001
0010
0001
0000
1100
0000
1100
0000
,
0010
0100
0010
0000
0001
0100
0001
0000
,
0010
0001
0010
0001
0000
0000
1000
0000
,
1100
1100
0101
0101
,
0010
0001
0010
1000
,
0010
0000
0001
0000
0101
0000
0100
1000
,
0000
0100
0001
0100
,
0010
1000
0010
1000
,
0001
0000
1000
0001
0000
0010
0000
0001
,
0000
1000
0010
0000
1000
0000
0010
0000
,
1001
0000
0000
0000
,
0100
0001
0100
0001
,
1000
0000
0001
1000
0000
0100
0000
1000
,
0000
0001
1000
0000
0100
0000
0010
0001
,
0000
0010
0100
0000
1000
0000
0001
0000
,
1100
0000
0000
0000
0010
0000
0000
1000
,
0000
0001
0010
0000
0001
0000
0000
1000
,
0000
0001
0100
0000
0001
0000
1000
0010
,
0000
0100
0001
0000
0010
0000
0001
0000
,
1001
0000
0000
0010
0001
1000
0000
0100
,
0010
0001
1000
0010
,
0100
0000
0001
0100
0000
1000
0000
0100
,
0000
0001
1000
0010
1000
0000
0001
0010
,
0001
0000
1000
0100
0000
0001
0000
0100
,
0000
1000
0000
0100
0000
0000
0000
0100
,
1000
0000
0001
0100
0000
0010
0000
0100
,
0010
0100
0010
0100
0000
0001
0010
0100
,
1100
0000
0000
0010
0001
1000
0000
0010
,
1000
0000
0010
0000
0001
0000
0010
0100
,
0010
0000
1000
0010
0000
0001
0000
0010
,
0000
1000
0001
0010
0001
0000
1000
0010
,
1000
0000
0001
0000
0100
1000
0100
0001
,
1000
0001
0010
1000
,
0020
0000
0000
0002
0030
0000
0100
0200
,
0003
0000
0000
0000
0300
0000
0001
2000
,
0002
0000
0000
3003
,
0100
0010
0000
0000
0000
0000
0000
0000
,
1000
1000
0000
0000
0000
0000
0001
0001
,
0000
0000
0000
0000
,
1000
0001
0000
0000
0000
0000
0010
0100
,
0000
0000
0010
0000
,
2002
0000
0000
3003
,
0000
0000
0000
0000
,
0001
0000
0000
0001
0000
0000
1000
0000
,
0000
1000
0000
0000
0011
0000
1100
0000
,
1000
0100
1000
0100
1000
0000
0001
0000
,
0010
0100
1000
0001
,
1000
0001
1000
0001
0010
0000
0001
0000
,
0001
0010
0100
1000
,
0001
0100
0001
0100
0001
0000
1000
0000
,
0001
1000
0100
1000
,
1000
0100
1000
0000
0001
0000
0010
0000
,
0001
0010
0001
0010
0000
0011
0000
1100
,
0000
1000
0010
0100
,
0001
0010
1000
0000
0010
0000
0001
0000
,
1000
0010
0001
0010
,
1000
0100
0001
0000
0100
0000
1000
0000
,
0001
0010
0001
0000
1000
0000
0100
0000
,
1000
0010
1000
0000
0001
0000
0100
0010
,
0000
1010
0000
0100
0000
0101
0000
0100
,
0000
0100
0000
0100
1000
0000
0100
0000
,
0101
0000
0000
0000
0010
0000
0000
1001
,
0000
0000
1000
0010
1000
0000
0000
0001
,
0000
1000
0100
1000
0001
0000
1000
0100
,
0000
1000
0001
0010
0100
0000
0000
0000
,
0000
0000
0000
0000
,
1000
0000
0001
0000
0100
0010
1000
0000
,
1001
0000
0000
0010
1000
0001
0000
0100
,
0010
1000
0001
0010
,
0100
0000
1000
0100
0000
0001
0000
0100
,
0000
1000
0001
0010
0001
0000
1000
0010
,
1000
0000
0001
0100
0000
1000
0000
0100
,
0000
0001
0000
0100
0000
0000
0000
0100
,
0001
0000
1000
0100
0000
0010
0000
0100
,
0010
0100
0010
0100
0000
1000
0010
0100
,
0001
0000
0110
0000
1000
0001
0000
0010
,
0001
0000
0010
0000
1000
0000
0010
0100
,
0010
0000
0001
0010
0000
1000
0000
0010
,
0000
0001
1000
0010
1000
0000
0001
0010
,
0001
0000
1000
0000
0100
0001
0100
1000
,
0001
1000
0010
0001
,
0020
0000
0000
2000
0030
0000
0100
0200
,
3000
0000
0000
0000
0300
0000
1000
0002
,
2000
0000
0000
3003
,
0010
0100
0000
0000
0000
0000
0000
0000
,
0000
0000
0000
0000
,
0001
0000
1000
0000
0010
1000
0010
0000
,
1000
0000
0100
0000
1000
0100
1000
0000
,
1000
0000
0001
0000
0010
0001
0010
0000
,
0100
0010
0100
0000
1000
0100
1000
0000
,
1000
0000
0001
0000
0010
0001
0010
0000
,
0001
0000
0100
0000
0001
0100
0001
0000
,
0001
1000
0100
0000
0010
0000
0001
0000
,
0100
0000
0001
0000
1000
0100
2000
0002
,
0000
0000
0000
0000
,
0000
0000
0000
0000
,
0000
0000
0000
0000
,
0000
0000
0000
3003
,
0000
0000
0000
0000
;
#NOTES:
     dance-single:
     :
     Hard:
     13:
     :
0000
0000
0000
0000
,
0000
0000
0000
0000
,
0000
0000
0000
0000
,
0000
0000
0000
0000
,
0000
0000
0000
0000
,
0000
0000
0000
0000
,
1000
0000
0000
0000
0001
0000
0000
0000
1000
0000
0010
1000
0010
0000
0100
0000
,
0010
1000
0001
0100
0001
1000
0010
1000
,
0010
0100
0000
0000
0000
0000
0000
0000
,
0000
0000
0000
0000
0000
1000
0001
0000
,
0000
1000
0010
0100
0001
0000
1000
0100
,
1000
0010
0100
0010
0100
0000
0010
1000
,
0001
0000
0100
0010
0100
0000
0001
0000
1000
0000
0000
0000
0001
0000
0010
0000
,
0100
0010
0001
1000
0000
0100
1000
0100
,
0000
0001
0000
0100
1000
0000
0001
0010
,
0001
1000
0100
0001
0100
0000
1000
0001
,
0100
0010
0100
0001
1000
0000
0001
0100
,
0000
0001
0100
1000
0100
0000
0001
0000
,
1000
0001
1000
0100
1000
0000
0001
0010
,
0001
1000
0100
1000
1001
0000
0110
0000
,
1000
0000
0000
0010
0100
0000
0001
0000
1000
0000
0000
0100
0010
0000
0001
0000
,
0010
0100
0010
0100
0000
0001
1000
0001
,
0000
0100
0010
1000
0001
0010
0001
1000
,
0010
0100
0010
0100
0001
0000
1000
0100
,
0001
0100
1000
0100
1000
0000
0001
1000
,
0000
0100
0010
0100
0010
0001
0010
0000
,
0000
1000
0000
0001
0010
0000
0001
0001
,
1000
0000
0100
0001
0000
0100
0000
1000
,
0000
0010
1000
0001
1000
0000
0100
0010
,
0100
0000
0110
0000
1000
0001
1000
0100
,
0000
1000
0000
0001
0010
0000
0001
0001
,
1000
0000
0010
0001
0000
0010
0000
1000
,
0000
0010
1000
0001
1000
0000
0100
0010
,
0000
0010
0100
0010
0001
1000
0100
1000
,
1100
0000
0000
0000
0001
0000
0000
1000
,
0000
0001
1000
0001
0020
0000
0000
0031
,
0000
1000
0100
0001
0100
1000
0001
0010
,
1000
0010
0001
1000
0100
1000
0001
1000
,
1010
0000
0010
0100
0001
0010
0000
0001
,
0010
0100
0010
0001
1000
0000
1000
0100
,
1000
0000
0001
0010
0000
0001
0000
0100
,
0000
1000
0100
0001
0010
0000
0001
1000
,
0100
0000
1000
0010
0000
1000
0000
0001
,
0010
0001
1000
0002
0000
0003
0000
0010
,
0001
0010
1000
0010
0100
0010
0001
0100
,
1000
0100
0001
1000
0000
0001
1000
0001
,
1100
0000
0000
0100
1000
0010
0000
1000
,
0010
1000
0100
1000
0001
0000
0001
0100
,
0001
0000
1000
0010
0000
1000
0000
0100
,
0000
0001
0100
1000
0010
0000
1000
0001
,
0100
0000
0001
0000
1000
0010
1000
0000
0001
0000
1000
0000
0001
0000
0100
0000
,
0001
0000
0100
0000
0010
0100
0010
0000
1000
0000
0100
0000
0001
0000
0100
0000
,
0020
0000
0000
0100
0030
0000
0002
0200
,
0000
0000
0003
0000
0000
0300
1000
0100
,
0002
0000
0000
0003
,
0011
0010
0100
1000
0100
0010
0001
0000
,
1000
1000
0000
0000
0000
0000
0001
0001
,
0000
0000
0000
0000
,
0101
0001
0000
0000
0000
0000
1010
1000
,
0000
0000
0110
0000
,
2002
0000
0000
3003
,
0000
0000
0000
0020
,
0031
0000
1000
0001
0000
0010
0001
0000
,
0100
1000
0000
0100
0001
0010
1000
0010
,
0001
0010
0100
1000
0010
0000
1000
0000
,
0010
0100
0001
0100
,
1000
0100
0010
0001
0010
0000
1000
0000
,
0001
0010
0100
1000
,
1000
0010
0100
0001
0010
0001
1000
0100
,
0010
0001
0100
1000
0100
0001
1000
0001
,
0000
2000
0000
3001
0010
0000
0100
0010
,
0001
1000
0010
0100
0000
0110
0000
0101
,
0000
1000
0100
0000
0010
0000
0001
0010
,
0000
1000
0010
0001
0010
0000
0001
1000
,
0000
0000
0100
0000
0001
0000
0100
1000
,
0000
0010
0100
0001
0010
0001
0100
0010
,
0000
1000
0001
1000
0010
1000
0100
2000
,
0000
3001
0010
0001
1000
0100
0010
0001
,
0000
0001
1000
0100
0000
0100
0010
0001
,
0000
0001
1000
0010
0100
0001
1000
0000
,
1001
0000
0000
0000
0110
0000
0010
0100
,
0000
0001
1000
0100
0010
0000
0000
0001
,
0000
0000
1000
0000
0001
0000
0010
0000
0001
0000
0000
0010
0001
0000
0100
0000
,
0000
0010
0100
0010
1000
0000
0000
0000
,
0000
0000
0000
0000
,
1000
0001
0100
0010
1000
0001
1000
0001
,
0011
0000
0010
0100
1000
0010
0000
1000
,
0010
0100
0010
1000
0001
0000
0001
0100
,
0001
0000
1000
0010
0000
1000
0000
0100
,
0000
0001
0100
1000
0010
0000
1000
0001
,
0100
0000
0001
0010
0000
0001
0000
1000
,
0010
1000
0001
2000
0000
3000
0000
0010
,
1000
0010
0001
0010
0100
0010
1000
0100
,
0001
0100
1000
0001
0000
1000
0001
1000
,
0100
0000
0110
0010
0001
0010
0000
0001
,
0100
0001
0010
0001
1000
0000
1000
0100
,
1000
0000
0001
0010
0000
0001
0000
0100
,
0000
1000
0100
0001
0010
0000
0001
1000
,
0100
0000
1000
0000
0001
0010
0001
0000
1000
0000
0001
0000
1000
0000
0100
0000
,
1000
0000
0100
0000
0010
0100
0010
0000
0001
0000
0100
0000
1000
0000
0100
0000
,
0020
0000
0000
0100
0030
0000
2000
0200
,
0000
0000
3000
0000
0000
0300
0001
0100
,
2000
0000
0000
3000
,
1010
0010
0100
0001
0100
0010
2000
0000
,
0000
0000
0000
0000
3001
0000
1000
0010
1000
0000
0001
0100
0001
0000
0100
0000
,
0001
0000
0000
0000
1000
0000
0000
0000
0001
0000
0010
0001
0010
0000
0100
0000
,
1000
0000
0001
0000
1000
0000
0100
0000
1000
0000
0001
0000
0010
0000
0001
0100
,
0001
0000
0001
0000
0010
1000
0010
0001
,
0100
1000
0100
0001
0010
0001
0010
1000
,
0020
0100
0001
0100
,
1000
0100
0001
0130
,
0001
0010
1000
0001
0100
1000
0100
0010
,
0001
0000
0100
0000
0001
0000
1000
0010
1000
0000
0001
0000
1000
0000
0200
0000
,
0000
0000
0000
0000
,
0000
0000
0000
0000
,
0000
0000
0000
0000
,
0000
0000
0000
0300
,
0000
0000
0000
0000
;
#NOTES:
     dance-single:
     :
     Challenge:
     16:
     :
0000
0000
0000
0000
,
0000
0000
0000
0000
,
0000
0000
0000
0000
,
0000
0000
0000
0000
,
0000
0000
0000
0000
,
0000
0000
0000
0000
,
0010
0000
1000
0000
0100
0000
1000
0000
0001
1000
0010
1000
0001
0000
1000
0000
,
0100
0010
0001
1000
0010
0100
0001
1000
,
0001
0002
0000
0000
0000
0000
0000
0000
,
0000
0000
0000
0000
0000
0000
0000
0000
0003
0000
0010
0001
1000
0000
0000
0000
,
0010
0010
0001
0001
,
0100
0100
1000
1000
,
0010
0000
1000
0001
1000
0000
0100
0000
0010
0100
0010
0100
0010
0000
0001
0000
,
1000
0010
0100
0001
1000
0100
1000
0001
,
1000
1000
0010
0010
,
0001
0001
0100
0100
,
1000
0010
1000
0100
1000
0000
1000
0001
,
0000
0100
0001
1000
0010
0000
1010
0000
,
0001
0000
0010
0000
0100
0000
1000
0000
0001
0100
0010
0100
0001
0000
1000
0000
,
0010
1000
0001
1000
0110
0000
0110
0000
,
1000
0000
0100
0010
0100
0000
1000
0000
0001
0010
0001
1000
0001
0000
0100
0000
,
0010
1000
0100
0010
0100
0010
0010
0010
,
0001
0000
0100
0000
0010
0000
1000
0000
0100
0010
0001
1000
0100
0000
1000
0000
,
0010
1000
0001
1000
0100
0000
1000
0001
,
0100
1000
0100
0010
0100
0000
0100
0001
,
0000
0001
0010
0010
0100
0100
1000
0000
,
0001
0000
0010
0001
0010
0000
0001
0000
1000
0100
0010
0001
1000
0000
0001
0000
,
2000
0010
0010
0010
3002
0010
2003
0010
,
3001
0000
0100
0001
0100
0000
0001
0000
1000
0010
0100
0001
1000
0000
0001
0000
,
2000
0100
0100
0100
3001
0100
0010
1000
,
0010
0000
0100
0010
0100
0000
0010
0000
1000
0100
0010
0001
1000
0000
0010
0000
,
2000
0001
0001
0001
3200
0010
2300
0001
,
3010
0000
1000
0000
0100
0000
1000
0000
0001
0100
0001
0100
0010
1000
0001
0000
,
0000
0000
1000
0010
1000
0000
0001
0010
0001
0010
0001
0000
1000
0000
0001
0000
,
0020
0000
0000
0000
0200
0000
0330
1001
,
0000
0010
0001
0100
0020
0000
0100
0000
,
2030
0000
0010
0010
0010
0010
3010
0101
,
0000
1100
0000
0110
0010
0000
0000
0000
,
0001
0000
1000
0010
1000
0000
0001
0000
1000
0000
0001
0010
0001
0000
1000
0000
,
0001
0000
0010
0100
1000
0000
0010
0100
0001
0000
0000
0000
0100
0000
0010
0000
,
1000
0000
0010
0100
0010
0000
1000
0000
0001
0100
0001
0100
0001
0000
1000
0000
,
0001
0001
1000
0001
1001
0000
0010
0001
,
0100
0000
0001
0100
0001
0000
0100
0000
0010
0000
0100
0010
0100
0000
0010
0000
,
1000
0000
0010
1000
0010
0000
1000
0000
0001
0000
1000
0001
1000
0000
0001
0000
,
1000
0000
0000
0000
0001
0000
0010
0000
0001
0100
0010
1000
0001
0100
0010
0000
,
0000
1000
0010
0100
0000
0010
1000
0100
,
1000
0000
0001
0010
0001
0000
1000
0000
0001
0000
1000
0010
1000
0000
0001
0000
,
1000
0000
0010
0100
0001
0000
0010
0100
1000
0000
0000
0000
0100
0000
0010
0000
,
0001
0000
0010
0100
0010
0000
0001
0000
1000
0100
1000
0100
1000
0000
0001
0000
,
1000
1000
0001
1000
1001
0000
0010
1000
,
0100
1000
0100
0000
1000
0000
0100
0000
0010
0100
0010
0000
0100
0000
0010
0000
,
0001
0010
0001
0000
0010
0000
0001
0000
1000
0001
1000
0000
0001
0000
1000
0000
,
0001
0010
0001
0010
0001
0000
1000
0100
1000
0100
1000
0000
0001
0100
0001
0100
,
0001
0000
1000
0010
1000
0010
1000
0000
0001
0000
0000
0000
1000
0000
0001
0000
,
0220
0000
0000
0330
,
1001
1001
0000
0000
0000
0000
0000
0000
,
1000
2000
0010
0010
0010
0010
0001
3002
,
0010
0010
0010
0010
0010
0010
0010
0010
,
1000
2003
0010
0010
0010
0010
0001
3002
,
0010
0010
0010
0013
0100
0000
0000
0000
,
0220
0000
0000
0000
,
0000
0000
0000
0330
,
0011
0000
1000
1010
0000
0001
0101
0000
,
1000
1100
0000
0001
0011
0000
0011
0000
,
1000
0000
0010
1000
0010
0000
1000
0000
0001
0100
0010
1000
0001
0000
1000
0000
,
0002
0010
0010
0010
2003
0010
3002
0010
,
1003
0000
0100
1000
0100
0000
1000
0000
0001
0010
0100
1000
0001
0000
1000
0000
,
0002
0100
0100
0100
1003
0100
0010
0001
,
0010
0000
0100
0010
0100
0000
0010
0000
0001
0100
0010
1000
0001
0000
0010
0000
,
0002
1000
1000
1000
0203
0010
0302
1000
,
0013
0000
0000
0000
0000
0000
0100
1000
0010
0000
0000
0000
0000
0000
1000
0000
,
0001
0011
0000
1010
0000
0011
0000
0110
,
0000
0000
0001
0000
0100
0000
0000
0000
0001
0100
0010
1000
0001
0000
0010
0000
,
0000
0000
0100
0000
0010
0000
0000
0000
0001
0010
0100
1000
0001
0000
0100
0000
,
0000
0000
0010
0000
1000
0000
0000
0000
0001
1000
0010
1000
0001
0000
0010
0000
,
0000
0001
0100
0010
0000
1000
0100
0010
,
0000
0000
0001
0010
0001
0000
0010
0001
0010
0001
0010
0001
0010
0000
0001
0000
,
0000
0000
1000
0010
1000
0000
0010
1000
0010
1000
0010
1000
0010
0000
1001
0000
,
0000
0010
0000
1001
0000
0100
0000
1001
,
0000
0010
0001
0010
1000
0010
0001
0000
,
0020
0000
0000
0000
0200
0000
0330
1001
,
0000
0010
1000
0100
0020
0000
0100
0000
,
0032
0000
0010
0010
0010
0010
0013
1100
,
0000
0101
0000
0110
0010
0000
0000
0000
,
0000
0000
0000
0000
,
0000
0000
0000
0000
,
1000
0000
0001
0010
0001
0000
1000
0000
0001
0000
1000
0010
1000
0000
0001
0000
,
1000
0000
0010
0100
0001
0000
0010
0100
1000
0000
0000
0000
0100
0000
0010
0000
,
0001
0000
0010
0100
0010
0000
0001
0000
1000
0100
1000
0100
1000
0000
0001
0000
,
1000
1000
0001
1000
1001
0000
0010
1000
,
0100
0000
1000
0100
1000
0000
0100
0000
0010
0000
0100
0010
0100
0000
0010
0000
,
0001
0000
0010
0001
0010
0000
0001
0000
1000
0000
0001
1000
0001
0000
1000
0000
,
0001
0000
0000
0000
1000
0000
0010
0000
1000
0100
0010
0001
1000
0100
0010
0000
,
0000
0001
0010
0100
0000
0010
0001
0100
,
0001
0000
0000
0000
0110
0000
0001
0000
1000
0000
0001
0010
0001
0000
1000
0000
,
0001
0000
0010
0100
1000
0000
0010
0100
0001
0000
0000
0000
0100
0000
0010
0000
,
1000
0000
0010
0100
0010
0000
1000
0000
0001
0100
0001
0100
0001
0000
1000
0000
,
0001
0001
1000
0001
1001
0000
0010
0001
,
0100
0001
0100
0000
0001
0000
0100
0000
0010
0100
0010
0000
0100
0000
0010
0000
,
1000
0010
1000
0000
0010
0000
1000
0000
0001
1000
0001
0000
1000
0000
0001
0000
,
1000
0010
1000
0010
1000
0000
0001
0100
0001
0100
0001
0000
1000
0100
1000
0100
,
1000
0000
0001
0010
0001
0010
0001
0000
1000
0000
0000
0000
0001
0000
1000
0000
,
0220
0000
0000
0330
,
1001
1001
0000
0000
0000
0000
0000
0000
,
0000
0000
0000
0000
,
0010
0000
0001
0000
0100
0000
0001
0000
1000
0001
0010
0001
1000
0000
0001
0000
,
0100
0000
0010
0000
1000
0000
0001
0000
0010
0000
0100
0000
1000
0000
0001
0100
,
0001
0000
1000
0000
0010
0000
1000
0000
0100
0010
0100
1000
0100
0000
0010
0000
,
0001
0100
1000
0100
0002
0000
0003
0000
,
1020
0001
1000
0031
,
1200
0001
1000
0301
,
0010
0000
0001
1000
0010
0000
1000
0001
0010
0000
0001
1000
0010
0000
1000
0001
,
0100
0000
0001
1000
0100
0000
1000
0001
0100
0010
1000
0001
0100
0000
0220
0000
,
0000
0000
0000
0000
,
0000
0000
0000
0000
,
0000
0000
0000
0000
,
0000
0000
0000
0330
,
0000
0000
0000
0000
;
#NOTES:
     dance-double:
     :
     Easy:
     7:
     :
00000000
00000000
00000000
00000000
,
00000000
00000000
00000000
00000000
,
00000000
00000000
00000000
00000000
,
00000000
00000000
00000000
00000000
,
00000000
00000000
00000000
00000000
,
00000000
00000000
00000000
00000000
,
00001000
00010000
00100000
00010000
,
00001000
00000100
00000100
00000000
,
00000010
00000000
00000000
00000000
,
00000000
00000000
00000000
00001001
,
00001000
00000001
00001000
00000100
,
00010000
00001000
00010000
00000000
,
01000000
00000000
10000000
00000000
,
10000000
01000000
00010000
00001000
,
00010000
00000000
00001000
00000000
,
00010000
00001000
00000100
00000010
,
00001000
00000000
00000001
00000000
,
00000001
00000100
00001000
00000000
,
00010000
00100000
10000000
00000000
,
00010000
01000000
00010000
00000000
,
10000000
00000000
00010000
00000000
,
00100000
00100000
00001000
00000000
,
00010000
00010000
00001000
00001000
,
00000010
00000001
00000010
00000000
,
00000002
00000000
00001003
00000000
,
00000200
00000000
00010300
00000000
,
00001000
00010000
00001000
00010000
,
00001000
00010000
00100000
00000000
,
10000000
00100000
10000000
00100000
,
01000000
00000000
00000000
00000000
,
00010000
01000000
00010000
01000000
,
00010000
01000000
00001000
00000000
,
00010000
00000000
00001000
00000000
,
00000010
00000001
00000010
00000001
,
00000101
00000000
00000100
00000000
,
00001000
00000000
00010000
00000000
,
00100000
10000000
00010000
10000000
,
00100000
10000000
01000000
00000000
,
00010000
00010000
00001000
00001000
,
00000010
00000001
00000010
00000000
,
00001000
00000000
00010000
00000000
,
00100000
10000000
00010000
00000000
,
00010000
01000000
00001000
00000000
,
00010000
00001000
00010000
00000000
,
00001000
00000000
00000110
00000000
,
00001001
00000001
00000100
00000000
,
00001000
00001000
00010000
00010000
,
00100000
10000000
00100000
00000000
,
00010000
00000000
00001000
00000000
,
00000010
00000001
00001000
00000000
,
00001000
00000100
00010000
00000000
,
00001000
00010000
00001000
00000000
,
00200000
00000000
00302000
00000000
,
02003000
00000000
03010000
00000000
,
20020000
00000000
00000000
30030000
,
01100000
00000000
00000000
00000000
,
10000000
00000000
00000000
00010000
,
00000000
00000000
00000000
00000000
,
00001000
00000000
00000000
00000001
,
00000000
00000000
00000010
00000000
,
00002002
00000000
00000000
00003003
,
00000000
00000000
00000000
00000000
,
00000001
00000010
00000000
00001000
,
00010000
00000000
00001000
00010000
,
00100000
01000000
00010000
00000000
,
10000000
00100000
10000000
00100000
,
10000000
00000000
01000000
00000000
,
00010000
00001000
00000010
00000000
,
00000001
00000100
00000001
00000000
,
00000100
00000001
00000010
00000000
,
00001000
00000000
00010000
00000000
,
00001000
00010000
00100000
10000000
,
00010000
00000000
01000000
00000000
,
10000000
00000000
01000000
00000000
,
00010000
00100000
00010000
00100000
,
00001000
00000000
00010000
00000000
,
00010000
00001000
00000010
00000000
,
00000100
00000010
00000100
00000000
,
00001000
00000100
00000001
00000100
,
00001000
00000000
01000000
00000000
,
01100000
00000000
00000000
00000000
,
10010000
00000000
00000000
00000000
,
10000000
00010000
10000000
00010000
,
00100000
00001000
00010000
00000000
,
00000000
00000000
00000000
00000000
,
00010000
00001000
00010000
00010000
,
00001000
00001000
00010000
00010000
,
00100000
10000000
00100000
00000000
,
00010000
00000000
00001000
00000000
,
00000010
00000001
00001000
00000000
,
00001000
00000100
00010000
00000000
,
00001000
00010000
00001000
00000000
,
00010000
00000000
01100000
00000000
,
10010000
10000000
01000000
00000000
,
00000000
00010000
00000000
00001000
,
00000010
00000001
00000010
00000000
,
00000100
00000000
00010000
00000000
,
00001000
00100000
00010000
00000000
,
10000000
01000000
00010000
00000000
,
00010000
00001000
00000100
00000000
,
00000020
00000000
00020030
00000000
,
00030200
00000000
00001300
00000000
,
00002002
00000000
00000000
00003003
,
00000110
00000000
00000000
00000000
,
00000000
00000000
00000000
00000000
,
00000001
00000010
00001000
00010000
,
00001000
00000000
00010000
00000000
,
00010000
00001000
00000010
00001000
,
00010000
00000000
00001000
00000000
,
00002000
00000000
00000010
00000000
,
00010000
00000000
00100000
00003000
,
00001000
00010000
00100000
00010000
,
00001000
00010000
00001000
00000000
,
00022000
00000000
00000000
00000000
,
00000000
00000000
00000000
00000000
,
00000000
00000000
00000000
00000000
,
00000000
00000000
00000000
00033000
,
00000000
00000000
00000000
00000000
;
#NOTES:
     dance-double:
     :
     Medium:
     11:
     :
00000000
00000000
00000000
00000000
,
00000000
00000000
00000000
00000000
,
00000000
00000000
00000000
00000000
,
00000000
00000000
00000000
00000000
,
00000000
00000000
00000000
00000000
,
00000000
00000000
00000000
00000000
,
00001000
00000000
00000001
00000000
00000010
00000001
00000010
00000000
,
00000001
00000000
00000100
00000000
00001000
00010000
00100000
00000000
,
10000000
01000000
00000000
00000000
00000000
00000000
00000000
00000000
,
00000000
00000000
00000000
01100000
,
10000000
00000000
00010000
00000000
10000000
01000000
10000000
00000000
,
00010000
10000000
01000000
00010000
,
00001000
00000010
00000001
00000000
00000001
00000010
00000001
00000000
,
00001000
00000000
00000100
00000000
00001000
00000001
00000100
00000000
,
00001000
00001000
00010000
00100000
,
01000000
00000000
00100000
00000000
01000000
00000000
00010000
10000000
,
00010000
00000000
10000000
00000000
00010000
00000000
01000000
00100000
,
00000000
10000000
01000000
00010000
00001000
00000000
00011000
00000000
,
00001000
00000010
00000001
00000010
,
00000001
00000010
00001000
00000000
00000011
00000000
00000011
00000000
,
00000001
00000100
00000010
00000000
00000100
00001000
00010000
00000000
,
00001000
00010000
00100000
01000000
00000000
00000000
00010000
00000000
,
11000000
11000000
01010000
01010000
,
00100000
00010000
00100000
10000000
,
00100000
00000000
00010000
00000000
00100000
00000000
00001000
00010000
,
00000000
00001000
00000100
00000001
,
00000010
00001000
00000010
00000001
,
00000001
00000000
00001000
00000001
00000000
00000010
00000000
00000001
,
00000000
00000100
00001000
00000000
00010000
00000000
00100000
00000000
,
10010000
00000000
10000000
10000000
,
00100000
00010000
00100000
10000000
,
10000000
00000000
00010000
10000000
00000000
00100000
00000000
10000000
,
00000000
01000000
00010000
00000000
00001000
00000000
00000010
00000100
,
00000000
00001000
00000001
00000000
00000010
00000000
00000001
00000000
,
00000110
00000000
00000000
00000000
00000001
00000000
00000000
00000100
,
00000000
00000000
00001000
00100000
00010000
00000000
00000000
01000000
,
00000000
00010000
01000000
00000000
10000000
00000000
00010000
00100000
,
00000000
00001000
00010000
00000000
00000100
00000000
00011000
00000000
,
00000110
00000000
00000000
00000010
00000001
00001000
00000000
00000010
,
00000001
00000000
00000010
00000000
00001000
00000000
00010000
00000100
,
00010000
00000000
00001000
00010000
00000000
00100000
00000000
01000000
,
00000000
00010000
10000000
00000000
10100000
00000000
00010000
00100000
,
00001000
00000000
00010000
00001000
00000000
00000100
00000000
00000001
,
00000000
00001000
00000100
00001000
00000000
00000000
00000000
00000001
,
00000100
00000000
00001000
00000100
00000000
00000001
00000000
00000100
,
00000000
00001000
00000000
00010000
00000000
00001000
00010000
00000000
,
00100000
00000000
00000000
00100000
10000000
00010000
00000000
00100000
,
10000000
00000000
00100000
00000000
00010000
00000000
00001000
01000000
,
00001000
00000000
00010000
00001000
00000000
00000010
00000000
00000100
,
00000000
00001000
00000001
00000000
00000011
00000000
00001000
00000010
,
00010000
00001000
00010000
01000000
,
10000000
01000000
00010000
01000000
,
00200000
00000000
00000000
00010000
00300000
00000000
00001000
00000200
,
00000000
00000000
00000000
00000000
00000300
00000000
00000010
00000100
,
00002002
00000000
00000000
00003003
,
00000110
00000000
00000000
00000000
,
00000001
00000010
00000000
00000000
00000000
00000000
00000010
00001000
,
00000000
00000000
00000000
00000000
,
00001000
00010000
00000000
00000000
00000000
00000000
00100000
01000000
,
00000000
00000000
00010000
00000000
,
00022000
00000000
00000000
00033000
,
00000000
00000000
00000000
00000000
,
00001000
00000000
00000000
00001000
00000000
00000000
00010000
00000000
,
00000000
00010000
00000000
00000000
00000010
00000000
00001001
00000000
,
00001000
00000100
00001000
00000100
00001000
00000000
00000001
00000000
,
00000010
00001000
00010000
00100000
,
10000000
00010000
10000000
00010000
00100000
00000000
00010000
00000000
,
00010000
00100000
01000000
00010000
,
00001000
00010000
00001000
00010000
00001000
00000000
00010000
00000000
,
00001000
00000100
00000001
00000100
,
00000001
00000100
00000001
00000000
00001000
00000000
00000010
00000000
,
00001000
00000010
00001000
00000010
00000000
00010000
00001000
00100000
,
00000000
01000000
10000000
01000000
,
00010000
01000000
10000000
00000000
00100000
00000000
00010000
00000000
,
00001000
00000010
00000001
00000010
,
00001000
00000010
00000001
00000000
00000100
00000000
00001000
00000000
,
00010000
00001000
00010000
00000000
00100000
00000000
01000000
00000000
,
00010000
00100000
00010000
00000000
10000000
00000000
01000000
00100000
,
00000000
00000000
00000000
00011000
00000000
00000000
00000000
00000110
,
00000000
00000000
00000000
00000000
,
00000001
00000000
00000000
00000000
00000100
00000000
00000000
00001000
,
00000000
00000000
00010000
00001000
01000000
00000000
00000000
00000000
,
00001000
00000000
00100000
00000000
00001000
00000000
00010000
00001000
,
00000000
00000010
00001000
00010000
00001000
00000000
00000000
00000000
,
00000000
00000000
00000000
00000000
,
00001000
00010000
00100000
10000000
,
11000000
00000000
00000000
00100000
10000000
00010000
00000000
00100000
,
10000000
00000000
00100000
00000000
00010000
00000000
00001000
01000000
,
00001000
00000000
00010000
00001000
00000000
00000010
00000000
00000100
,
00000000
00001000
00000001
00000000
00000011
00000000
00001000
00000010
,
00010000
00000000
00001000
00010000
00000000
01000000
00000000
10000000
,
00000000
00010000
01000000
00010000
00000000
00000000
00000000
10000000
,
01000000
00000000
00010000
01000000
00000000
10000000
00000000
10000000
,
00000000
01000000
00000000
00010000
00000000
00001000
00000010
00000100
,
00000010
00000000
00001001
00001000
00000001
00001000
00000000
00000001
,
00000001
00000000
00000010
00000000
00001000
00000000
00010000
00000100
,
00010000
00000000
00001000
00010000
00000000
00100000
00000000
01000000
,
00000000
00010000
10000000
00000000
10100000
00000000
00010000
00100000
,
00001000
00010000
00001000
00000100
,
00000001
00000100
00001000
00000100
,
00000020
00000000
00000000
00001000
00000030
00000000
00010000
00200000
,
00000000
00000000
00000000
00000000
00300000
00000000
01000000
00100000
,
20020000
00000000
00000000
30030000
,
01100000
00000000
00000000
00000000
,
00000000
00000000
00000000
00000000
,
00010000
00000000
10000000
00000000
00100000
10000000
00100000
00000000
,
10000000
00000000
01000000
00000000
00010000
00001000
00000010
00000000
,
00000100
00000000
00001000
00000000
00000010
00001000
00000001
00000000
,
00000001
00000100
00001000
00010000
,
00200000
10000000
01000000
00310000
,
00001000
00000100
00000010
00000001
,
00000010
00001000
00000001
00000000
00000100
00000000
00001000
00000000
,
00010000
00000000
00100000
00000000
10000000
01000000
20000000
00020000
,
00000000
00000000
00000000
00000000
,
00000000
00000000
00000000
00000000
,
00000000
00000000
00000000
00000000
,
00000000
00000000
00000000
30030000
,
00000000
00000000
00000000
00000000
;
#NOTES:
     dance-double:
     :
     Hard:
     13:
     :
00000000
00000000
00000000
00000000
,
00000000
00000000
00000000
00000000
,
00000000
00000000
00000000
00000000
,
00000000
00000000
00000000
00000000
,
00000000
00000000
00000000
00000000
,
00000000
00000000
00000000
00000000
,
00001000
00000000
00000000
00000000
00000001
00000000
00000000
00000000
00001000
00000000
00000010
00001000
00000010
00000000
00000100
00000000
,
00000010
00001000
00000001
00000100
00001000
00010000
00001000
00100000
,
00010000
01000000
00000000
00000000
00000000
00000000
00000000
00000000
,
00000000
00000000
00000000
00000000
00000000
10000000
01000000
00000000
,
00000000
10000000
00010000
01000000
00010000
00000000
10000000
01000000
,
10000000
00100000
01000000
00100000
00010000
00000000
00001000
00000100
,
00000010
00000000
00000100
00000010
00000100
00000000
00000001
00000000
00001000
00000000
00000000
00000000
00000001
00000000
00000010
00000000
,
00000100
00000010
00000001
00001000
00000010
00000100
00000001
00000100
,
00000000
00000010
00001000
00000100
00010000
00000000
00001000
00010000
,
01000000
00100000
00001000
00010000
01000000
00000000
10000000
00010000
,
01000000
00100000
01000000
10000000
01000000
00100000
00010000
00001000
,
00000000
00001000
00010000
00001000
00000100
00000000
00000110
00000000
,
00001000
00000001
00001000
00000100
00001000
00000000
00000001
00000010
,
00001000
00010000
00001000
00010000
00011000
00000000
01100000
00000000
,
10000000
00000000
00000000
00100000
01000000
00000000
00010000
00000000
10000000
00000000
00000000
01000000
00100000
00000000
00010000
00000000
,
00100000
00001000
00010000
00001000
00000000
00010000
00000000
00000100
,
00001000
00000100
00000010
00000001
00001000
00000000
00000001
00001000
,
00000010
00000100
00000010
00000100
00000001
00000000
00001000
00000100
,
00010000
00001000
00100000
00010000
01000000
00000000
00100000
00010000
,
00000000
00001000
00010000
00001000
00000100
00001000
00010000
00000000
,
00000000
00001000
00000000
00010000
00100000
00000000
01000000
01000000
,
00010000
00000000
01000000
00010000
00000000
01000000
00000000
10000000
,
00000000
01000000
00100000
00010000
00001000
00000000
00000100
00000010
,
00000100
00000000
00000110
00000000
00001000
00000100
00010000
00001000
,
00100000
00010000
00000000
01000000
00100000
00000000
10000000
00000000
,
01000000
00000000
00010000
00001000
00000000
00010000
00000000
00000010
,
00000000
00000100
00000001
00000100
00000010
00000100
00000001
00000100
,
00000000
00001000
00010000
00001000
01000000
00000000
00100000
00000000
,
10010000
00000000
00000000
00000000
00010000
00000000
00000000
10000000
,
00000000
00010000
00100000
00001000
00010000
00000000
00000000
00001000
,
00000000
00000010
00000001
00000100
00000010
00000100
00001000
00000100
,
00000001
00000100
00000001
00000100
00001000
00010000
00001000
00000000
,
00011000
00000000
00010000
01000000
10000000
00100000
00000000
10000000
,
00100000
01000000
00100000
00010000
00001000
00000000
00010000
00001000
,
00010000
00000000
00001000
00000010
00000000
00000001
00000000
00001000
,
00000000
00000001
00000100
00000001
00001000
00000000
00000010
00010000
,
00001000
00000000
00010000
00100000
00000000
01000000
00000000
10000000
,
01000000
00010000
10000000
01000000
00000000
00000000
00000000
00010000
,
00001000
00010000
00001000
00010000
00000100
00001000
00000010
00000100
,
00000010
00010000
00001000
00010000
00000000
00000100
00001000
00000010
,
00001000
00000000
00000000
00000100
00001000
00000010
00000000
00001000
,
00000010
00001000
00000010
00001000
00000001
00000000
00000100
00001000
,
00010000
00000000
01000000
00100000
00000000
10000000
00000000
00100000
,
00000000
00010000
01000000
10000000
01000000
00000000
00100000
00010000
,
00001000
00000000
00010000
00000000
00001000
00010000
00001000
00000000
00010000
00000000
00001000
00000000
00000010
00000000
00000100
00000000
,
00001000
00000000
00000100
00000000
00000010
00000100
00000010
00000000
00000001
00000000
00000100
00000000
00000001
00000000
00000100
00000000
,
00002010
00000000
00000000
00000001
00003000
00000000
00020000
00200000
,
00000000
00000000
00030000
00000000
00000000
00300000
00001000
01000000
,
00020000
00000000
00000000
00030000
,
00100000
00010000
01000000
00000000
00010000
00000000
10000000
00000000
01000000
00000000
10000000
00000000
00010000
00000000
00000000
00000000
,
00001000
00010000
00000000
00000000
00000000
00000000
00010000
00000100
,
00000000
00000000
00000000
00000000
,
00001000
00000001
00000000
00000000
00000000
00000000
00001000
00000100
,
00000000
00000000
00001000
00000000
,
00002002
00000000
00000000
00003003
,
00000000
00000000
00000000
00000000
,
00000001
00000000
00001000
00000001
00000000
00000010
00000001
00000000
,
00000100
00001000
00000000
00010000
00001000
00100000
00010000
01000000
,
00010000
00100000
01000000
10000000
00100000
00000000
10000000
00000000
,
01000000
00010000
00001000
00010000
,
00001000
00000100
00000010
00000001
00000010
00000000
00001000
00000000
,
00000001
00000010
00001000
00010000
,
00100000
01000000
00100000
10000000
00100000
10000000
00010000
01000000
,
00100000
10000000
01000000
00010000
00001000
00100000
00010000
00100000
,
00001000
00010000
00000000
00001000
00000010
00000000
00000100
00000010
,
00000001
00001000
00000010
00000100
00000000
00000110
00000000
00000101
,
00000000
00000010
00000100
00000001
,
00000010
00001000
00010000
00001000
00010000
00000000
00100000
00000000
,
10000000
01000000
00010000
01000000
,
10000000
00100000
01000000
00010000
00100000
00010000
01000000
00001000
,
00000000
00010000
00001000
00010000
00000100
00010000
00001000
00020000
,
00000000
00000000
00030100
00001000
00000100
00000000
00001000
00000000
00000100
00000000
00000010
00000000
00000001
00000000
00000010
00000000
,
00000000
00000100
00001000
00000100
00000000
00000010
00000001
00000022
,
00000000
00000000
00000000
00000000
00000000
00000000
00000000
00000000
00000000
00000000
00000000
00000000
00000000
00000000
00000000
00000000
00000000
00000000
00000000
00000000
00000000
00000000
00000000
00000000
00000000
00000000
00000000
00000000
00000000
00000000
00000000
00000000
00000000
00000000
00000000
00000000
00000000
00000000
00000000
00000000
00000000
00000000
00000000
00000000
00000000
00000000
00000000
00000000
00000000
00000000
00000000
00000000
00000000
00000000
00000000
00000000
00000000
00000000
00000000
00000000
00000000
00000000
00000000
00000000
00000000
00000000
00000000
00000000
00000000
00000000
00000000
00000000
00000000
00000000
00000000
00000000
00000000
00000000
00000000
00000000
00000000
00000000
00000000
00000000
00000000
00000000
00000000
00000000
00000000
00000000
00000000
00000000
00000000
00000000
00000000
00000000
00000000
00000000
00000000
00000000
00000000
00000000
00000000
00000000
00000000
00000000
00000000
00000000
00000000
00000000
00000000
00000000
00000000
00000000
00000000
00000000
00000000
00000000
00000000
00000000
00000000
00000000
00000000
00000000
00000000
00000000
00000000
00000000
00000000
00000000
00000000
00000000
00000000
00000000
00000000
00000000
00000000
00000000
00000000
00000000
00000000
00000000
00000000
00000003
00000030
00000000
00000000
00000000
00000000
00000000
00000000
00000000
00000000
00000000
00000000
00000000
00000000
00000000
00000000
00000000
00000000
00000000
00000000
00000000
00000000
00000000
00000000
00000000
00000000
00000000
00000000
00000000
00000000
00000000
00000000
00000000
00000000
00000000
00000000
00000000
00000000
00000000
00000000
00000000
00000000
00000000
00000000
00000000
00000000
00000000
00000000
00000000
,
00001001
00000000
00000000
00000000
00001000
00000000
00000010
00000100
,
00000000
00001000
00010000
00000100
00001000
00000000
00000000
01000000
,
00000000
00000000
10000000
00000000
00010000
00000000
00100000
00000000
00010000
00000000
00000000
00100000
00010000
00000000
00100000
00000000
,
00000000
01000000
10000000
00100000
01000000
00000000
00000000
00000000
,
00000000
00000000
00000000
00000000
,
00100000
00000000
01000000
00000000
00010000
10000000
01000000
00000000
,
00011000
00000000
00000010
00000100
00000001
00000010
00000000
00000001
,
00000010
00000100
00000010
00001000
00010000
00000000
00001000
00010000
,
00001000
00000000
00010000
00100000
00000000
10000000
00000000
00010000
,
00000000
10000000
01000000
10000000
00010000
00000000
00100000
00001000
,
00010000
00000000
00001000
00000010
00000000
00000100
00000000
00000001
,
00000100
00001000
00000001
00000100
00000000
00000000
00000000
00001000
,
00010000
00001000
00010000
00001000
01000000
00010000
00100000
01000000
,
00100000
00001000
00010000
00001000
00000000
01000000
00010000
01000000
,
00100000
00000000
10010000
00000000
00010000
00100000
00000000
00010000
,
01000000
00010000
00100000
00010000
10000000
00000000
01000000
00010000
,
00001000
00000000
00000100
00000010
00000000
00000001
00000000
00000010
,
00000000
00001000
00000100
00000001
00000100
00000000
00000010
00001000
,
00010000
00000000
00001000
00000000
00010000
00001000
00010000
00000000
00001000
00000000
00010000
00000000
00100000
00000000
01000000
00000000
,
00010000
00000000
01000000
00000000
00100000
01000000
00100000
00000000
10000000
00000000
01000000
00000000
10000000
00000000
01000000
00000000
,
00120000
00000000
00000000
10000000
00030000
00000000
00002000
00000020
,
00000000
00000000
00003000
00000000
00000000
00000030
00010000
00000100
,
00002000
00000000
00000000
00003000
,
00000010
00001000
00000100
00000000
00001000
00000000
00000001
00000000
00000100
00000000
00000001
00000000
00001000
00000000
00000200
00000000
,
00000000
00000000
00000000
00000000
00000300
00000000
00001000
00000010
00001000
00000000
00000001
00000100
00000001
00000000
00000000
00000000
,
00001001
00000000
00001000
00000000
00000010
00001000
00000010
00000100
,
00000010
00000000
00001000
00000000
00000001
00000000
00000100
00000000
00001000
00000000
00010000
00000000
00001000
00000000
00100000
00010000
,
00100000
00000000
00001000
00000000
00010000
00001000
00100000
00010000
,
01000000
00010000
10000000
00100000
01000000
00010000
01000000
00000000
,
01020000
10000000
00100000
00032000
,
00000100
00000001
00003010
00010000
,
01000000
00100000
10000000
00100000
01000000
00010000
01000000
00001000
,
00010000
00000000
00000100
00000000
00010000
00000000
00000100
00000000
00001000
00000100
00001000
00000000
00000010
00000000
00000200
00000000
,
00000000
00000000
00000000
00000000
,
00000000
00000000
00000000
00000000
,
00000000
00000000
00000000
00000000
,
00000000
00000000
00000000
00000300
,
00000000
00000000
00000000
00000000
;
#NOTES:
     dance-double:
     :
     Challenge:
     16:
     :
00000000
00000000
00000000
00000000
,
00000000
00000000
00000000
00000000
,
00000000
00000000
00000000
00000000
,
00000000
00000000
00000000
00000000
,
00000000
00000000
00000000
00000000
,
00000000
00000000
00000000
00000000
,
00000010
00000000
00000001
00000000
00001000
00000000
00000001
00000000
00000010
00000100
00001000
00000100
00000010
00000000
00000001
00000000
,
00000100
00001000
00000001
00000010
00001000
00010000
01000000
00100000
,
10000000
20000000
00000000
00000000
00000000
00000000
00000000
00000000
,
00000000
00000000
00000000
00000000
00000000
00000000
00000000
00000000
30000000
00000000
00010000
10000000
01000000
00000000
00000000
00000000
,
00100000
00100000
00010000
00010000
,
00000010
00000010
00000001
00000001
,
00001000
00000000
00000001
00000100
00000001
00000000
00001000
00000000
00000100
00000000
00001000
00000100
00001000
00000000
00000001
00000000
,
00000100
00000010
00001000
00000100
00010000
00001000
00100000
00010000
,
01000000
01000000
00100000
00100000
,
10000000
10000000
01000000
01000000
,
00010000
00001000
00000010
00000001
00001000
00000000
00000010
00001000
,
00000000
00000001
00000100
00000010
00001000
00000000
00001010
00000000
,
00000001
00000000
00000010
00000000
00000100
00000000
00010000
00000000
00001000
00010000
00001000
00010000
00001000
00000000
01000000
00000000
,
00010000
00100000
01000000
10000000
00010000
00000000
00010000
00000000
,
00100000
00000000
00001000
00010000
00001000
00000000
00010000
00000000
00001000
00000000
00100000
00010000
00100000
00000000
00010000
00000000
,
01000000
00100000
10000000
00010000
10000000
00100000
00100000
00100000
,
10000000
00000000
01000000
00000000
00100000
00000000
00001000
00000000
00010000
00001000
00010000
00001000
00010000
00000000
00000010
00000000
,
00001000
00000010
00000100
00000010
00001000
00000000
00000001
00000010
,
00000100
00001000
00000001
00000100
00001000
00000000
00010000
00100000
,
00000000
10000000
00010000
01000000
00010000
00100000
00010000
00000000
,
10000000
00000000
00100000
10000000
00100000
00000000
10000000
00000000
00010000
10000000
00010000
10000000
00010000
00000000
10000000
00000000
,
01000000
00010000
00001000
00000010
00000001
00000010
00001000
00000010
,
00000001
00000000
00000100
00000001
00000100
00000000
00000010
00000000
00001000
00000010
00001000
00000010
00001000
00000000
00000001
00000000
,
00001000
00000100
00010000
00000010
00001000
00000100
00010000
00001000
,
00100000
00000000
00010000
00100000
00010000
00000000
10000000
00000000
00100000
01000000
00100000
01000000
00100000
00000000
10000000
00000000
,
00010000
01000000
00100000
10000000
01000000
00010000
00001000
00000010
,
00000001
00000000
00001000
00000000
00000100
00000000
00001000
00000000
00000001
00000100
00000001
00000100
00000010
00000000
00001000
00000000
,
00000000
00000000
00000001
00000010
00000001
00000000
00001000
00000010
00001000
00000010
00001000
00000000
00000001
00000000
00001000
00000000
,
00000020
00000000
00000000
00000000
00020000
00000000
00030030
00011000
,
00000000
00001000
00010000
01000000
20000000
00000000
00100000
00000000
,
30020000
00000000
01000000
01000000
01000000
01000000
01030000
01100000
,
00000000
10100000
00000000
00010000
10010000
00000000
00000000
00000000
,
00100000
00000000
10000000
01000000
10000000
00000000
01000000
00000000
00100000
00000000
00010000
00100000
00010000
00000000
00100000
00000000
,
00001000
00000000
00010000
00001000
00010000
00000000
00000010
00001000
00000010
00000000
00000000
00000000
00001000
00000000
00000001
00000000
,
00000100
00000000
00000010
00000100
00000010
00000000
00001000
00000000
00000001
00001000
00000100
00001000
00000001
00000000
00000010
00000000
,
00000100
00010000
00000010
00001000
00000100
00000000
00000010
00000001
,
00000100
00000000
00000001
00000100
00000001
00000000
00000100
00000000
00001000
00000000
00000100
00001000
00000100
00000000
00001000
00000000
,
00010000
00000000
00001000
00010000
00001000
00000000
00010000
00000000
01000000
00000000
00010000
01000000
00010000
00000000
01000000
00000000
,
00100000
00000000
00000000
00000000
00010000
00000000
10000000
00000000
00100000
10000000
00010000
10000000
00100000
00000000
10000000
00000000
,
00000000
01000000
00100000
00010000
00000000
01000000
00100000
00010000
,
00001000
00000000
00100000
00010000
00100000
00000000
00001000
00000000
00010000
00000000
00000100
00001000
00000100
00000000
00010000
00000000
,
00001000
00000000
00010000
00001000
00010000
00000000
00000010
00001000
00000010
00000000
00000000
00000000
00000100
00000000
00000010
00000000
,
00001000
00000000
00000010
00000100
00000010
00000000
00001000
00000000
00000001
00001000
00000010
00001000
00000001
00000000
00001000
00000000
,
00000010
00000001
00000010
00001000
00000010
00000000
00001000
00000001
,
00000010
00000001
00000010
00000000
00000001
00000000
00000010
00000000
00001000
00000010
00001000
00000000
00000010
00000000
00001000
00000000
,
00010000
00001000
00010000
00000000
00001000
00000000
00010000
00000000
00100000
00010000
00100000
00000000
00010000
00000000
00100000
00000000
,
10000000
00100000
10000000
00100000
10000000
00000000
00010000
00100000
00010000
00100000
00010000
00000000
10000000
01000000
10000000
01000000
,
10000000
00000000
00010000
01000000
00010000
01000000
00010000
00000000
10000000
00000000
00000000
00000000
01000000
00000000
00100000
00000000
,
00220000
00000000
00000000
00330000
,
00011000
00011000
00000000
00000000
00000000
00000000
00000000
00000000
,
00010000
00010000
00001000
00000010
00000001
00000010
00001000
00001000
,
00010000
00100000
10000000
00100000
10000000
01000000
00100000
00001000
,
00010000
00010000
00001000
00000100
00000001
00000100
00001000
00001000
,
00010000
01000000
10000000
01000000
00100000
00000000
00000000
00000000
,
20020000
00000000
00000000
00000000
,
00000000
00000000
00000000
30030000
,
01010000
00000000
00001000
00011000
00000000
00000010
00001010
00000000
,
00000001
00000101
00000000
00001000
00001001
00000000
00001001
00000000
,
00000001
00000000
00000010
00000001
00000010
00000000
00000001
00000000
00001000
00000001
00001000
00000001
00001000
00000000
00000001
00000000
,
00000100
00001000
00010000
00100000
10000000
00100000
00010000
00100000
,
10000000
00000000
01000000
10000000
01000000
00000000
00100000
00000000
00010000
00100000
00010000
00100000
00010000
00000000
10000000
00000000
,
00010000
01000000
00001000
00100000
00010000
01000000
00001000
00010000
,
00000010
00000000
00001000
00000010
00001000
00000000
00000001
00000000
00000010
00000100
00000010
00000100
00000010
00000000
00000001
00000000
,
00001000
00000100
00000010
00000001
00000100
00001000
00010000
00100000
,
01000000
00000000
00000000
00000000
00000000
00000000
00100000
10000000
01000000
00000000
00000000
00000000
00000000
00000000
00100000
00000000
,
01000000
01100000
00000000
00110000
00000000
00011000
00000000
00001100
,
00000000
00000000
00000010
00000000
00000001
00000000
00000000
00000000
00001000
00000001
00000100
00000001
00001000
00000000
00000010
00000000
,
00000000
00000000
00000100
00000000
00000010
00000000
00000000
00000000
00001000
00000001
00000010
00000001
00001000
00000000
00000100
00000000
,
00000000
00000000
00000010
00000000
00000001
00000000
00000000
00000000
00000100
00000010
00001000
00000010
00000100
00000000
00000010
00000000
,
00000000
00001000
00010000
01000000
00000000
00100000
10000000
01000000
,
00000000
00000000
00100000
00010000
00100000
00000000
00010000
00100000
00010000
00100000
00010000
00100000
00010000
00000000
10000000
00000000
,
00000000
00000000
00010000
01000000
00010000
00000000
01000000
00010000
01000000
00010000
01000000
00010000
01000000
00000000
00011000
00000000
,
00000000
00100000
00000000
00011000
00000000
00000010
00000000
00011000
,
00000000
00100000
00010000
00100000
10000000
00100000
00010000
00000000
,
00200000
00000000
00000000
00000000
00002000
00000000
00303000
00011000
,
00000000
00010000
00001000
00000100
00000002
00000000
00000010
00000000
,
00002003
00000000
00000100
00000100
00000100
00000100
00003100
00000110
,
00000000
00000011
00000000
00001000
00001001
00000000
00000000
00000000
,
00000000
00000000
00000000
00000000
,
00000000
00000000
00000000
00000000
,
00000010
00000000
00000001
00000100
00000001
00000000
00000100
00000000
00000010
00000000
00001000
00000010
00001000
00000000
00000010
00000000
,
00010000
00000000
00001000
00010000
00001000
00000000
00100000
00010000
00100000
00000000
00000000
00000000
00010000
00000000
10000000
00000000
,
01000000
00000000
00100000
01000000
00100000
00000000
00010000
00000000
10000000
00010000
01000000
00010000
10000000
00000000
00100000
00000000
,
01000000
00001000
00100000
00010000
01000000
00000000
00100000
10000000
,
01000000
00000000
10000000
01000000
10000000
00000000
01000000
00000000
00010000
00000000
01000000
00010000
01000000
00000000
00010000
00000000
,
00001000
00000000
00010000
00001000
00010000
00000000
00001000
00000000
00000100
00000000
00001000
00000100
00001000
00000000
00000100
00000000
,
00000010
00000000
00000000
00000000
00001000
00000000
00000001
00000000
00000010
00000001
00001000
00000001
00000010
00000000
00000001
00000000
,
00000000
00000100
00000010
00001000
00000000
00000100
00000010
00001000
,
00010000
00000000
00000000
00000000
00011000
00000000
00010000
00000000
00001000
00000000
01000000
00010000
01000000
00000000
00001000
00000000
,
00010000
00000000
00001000
00010000
00001000
00000000
00100000
00010000
00100000
00000000
00000000
00000000
01000000
00000000
00100000
00000000
,
00010000
00000000
00100000
01000000
00100000
00000000
00010000
00000000
10000000
00010000
00100000
00010000
10000000
00000000
00010000
00000000
,
00100000
10000000
00100000
00010000
00100000
00000000
00010000
10000000
,
00100000
10000000
00100000
00000000
10000000
00000000
00100000
00000000
00010000
00100000
00010000
00000000
00100000
00000000
00010000
00000000
,
00001000
00010000
00001000
00000000
00010000
00000000
00001000
00000000
00000010
00001000
00000010
00000000
00001000
00000000
00000010
00000000
,
00000001
00000010
00000001
00000010
00000001
00000000
00001000
00000010
00001000
00000010
00001000
00000000
00000001
00000100
00000001
00000100
,
00000001
00000000
00001000
00000100
00001000
00000100
00001000
00000000
00000001
00000000
00000000
00000000
00000100
00000000
00000010
00000000
,
00002020
00000000
00000000
00003030
,
00011000
00011000
00000000
00000000
00000000
00000000
00000000
00000000
,
00000000
00000000
00000000
00000000
,
00100000
00000000
10000000
00000000
00010000
00000000
10000000
00000000
00100000
01000000
00010000
01000000
00100000
00000000
10000000
00000000
,
01000000
00010000
10000000
00100000
00010000
00001000
00000100
00000010
,
00000001
00000000
00001000
00000000
00000100
00000000
00001000
00000000
00000001
00000010
00000100
00000010
00000001
00000000
00001000
00000000
,
00000010
00001000
00000100
00001000
00000020
00000000
00000030
00000000
,
00000201
00001300
00021000
00130000
,
20100000
00010000
01000000
30010000
,
00100000
00000000
10000000
00100000
10000000
00000000
00010000
01000000
00010000
00000000
10000000
00100000
10000000
00000000
00010000
01000000
,
00010000
00000000
10000000
00100000
10000000
00000000
00010000
01000000
00100000
10000000
00010000
10000000
01000000
00000000
02200000
00000000
,
00000000
00000000
00000000
00000000
,
00000000
00000000
00000000
00000000
,
00000000
00000000
00000000
00000000
,
00000000
00000000
00000000
03300000
,
00000000
00000000
00000000
00000000
;
