
//----- song ID: rena -----//
#TITLE:恋愛観測;
#ARTIST:NU-KO;
#TITLETRANSLIT:Renaikansoku;
#BANNER:Renaikansoku.png;
#BACKGROUND:Renaikansoku-bg.png;
#CDTITLE:./CDTitles/pnm 20 fantasia.png;
#MUSIC:Renaikansoku.ogg;
#SAMPLESTART:32.776;
#SAMPLELENGTH:15;
#DISPLAYBPM:188;
#BPMS:0=187.5,4=188;
#BGSTAGE:5;
#NOTES:
     dance-single:
     :
     Beginner:
     3:
     :
0000
0000
0000
0000
,
0000
0000
0000
0000
,
0000
0000
0000
0000
,
0000
0000
0000
0000
,
0000
0000
0000
0000
,
0001
0000
0001
0000
,
0010
0000
0000
0000
,
1000
0000
1000
0000
,
0010
0000
0000
0000
,
0010
0001
0010
0000
,
0010
0000
0000
0000
,
0010
1000
0010
0000
,
0010
0000
0000
0000
,
0001
0000
1000
0000
,
0010
0000
0000
0000
,
0010
0000
0000
0000
,
0100
0000
0000
0000
,
0000
0000
0000
0000
,
0001
0000
0000
0000
,
0010
0000
0000
0000
,
1000
0000
0000
0000
,
0100
0000
0000
0000
,
0001
0000
0000
0000
,
0010
0000
0000
0000
,
1000
0000
0001
0000
,
1000
0000
0001
0000
,
0001
0001
0000
0000
,
1000
1000
0000
0000
,
0000
1000
0000
0001
,
0000
1000
0000
0001
,
0000
1000
0000
0001
,
0000
1000
0000
0001
,
0010
0010
0000
0000
,
1000
1000
0000
0000
,
0001
0001
0000
0000
,
0000
0001
0000
1000
,
0000
0001
0000
1000
,
0000
0001
0000
1000
,
0000
0001
0000
1000
,
0000
0010
0010
0000
,
0002
0000
0000
0003
,
2000
0000
0000
3000
,
1000
0000
1000
0000
,
1000
0000
0000
0000
,
0001
0000
0001
0000
,
0001
0000
0000
0000
,
0010
0000
0010
0000
,
0010
0000
0000
0000
,
0100
0000
0100
0000
,
0100
0000
0000
0000
,
0000
0000
0000
0000
,
1000
1000
1000
1000
,
1000
0000
0000
0000
,
0001
0001
0001
0001
,
0001
0000
0000
0000
,
0000
0001
0000
0010
,
0000
0100
0000
1000
,
1000
0000
0000
0000
,
0001
0000
0000
0000
,
0010
0000
0000
0000
,
0020
0000
0000
0030
,
0001
0001
0000
0000
,
0000
0000
0000
0000
,
0000
1000
0000
0001
,
0000
1000
0000
0001
,
0000
1000
0000
0001
,
0000
1000
0000
0001
,
0010
0010
0000
0000
,
1000
1000
0000
0000
,
0001
0001
0000
0000
,
0000
0001
0000
1000
,
0000
0001
0000
1000
,
0000
0001
0000
1000
,
0000
0001
0000
1000
,
0000
0010
0010
0000
,
0002
0000
0000
0003
,
2000
0000
0000
3000
,
1000
0000
0000
0000
,
0001
0000
0000
0000
,
0001
0000
1000
0000
,
0001
0000
1000
0000
,
1000
0000
1000
0000
,
1000
0000
0000
0000
,
0001
0000
0001
0000
,
0001
0000
0000
0000
,
0010
0000
0010
0000
,
0010
0000
0000
0000
,
2002
0000
0000
0000
,
0000
0000
0000
3003
,
0000
0000
0000
0000
;
#NOTES:
     dance-single:
     :
     Easy:
     7:
     :
0000
0000
0000
0000
,
0000
0000
0000
0000
,
0000
0000
0000
0000
,
0000
0000
0000
0000
,
0000
0000
0000
0000
,
0001
0001
1000
1000
,
0001
0010
0001
0000
,
1000
1000
0001
0001
,
1000
0010
1000
0000
,
1000
0100
0001
0000
,
0100
1000
0100
0000
,
1000
0010
0001
0000
,
0010
1000
0010
0000
,
1000
0001
1000
0000
,
0001
1000
0100
0000
,
1000
1000
0001
0001
,
0110
0000
0000
0000
,
1000
0000
0001
0000
,
0001
0000
0100
0000
,
0001
0000
1001
0000
,
1000
0000
0100
0000
,
1000
0000
0110
0000
,
0010
0000
1000
0000
,
0010
0000
0001
0000
,
0001
0100
1000
0100
,
0001
0000
1000
0000
,
0010
0001
0010
1000
,
1000
1000
0001
0001
,
1000
0100
0001
0100
,
1000
1000
0001
0001
,
1000
1000
0010
0010
,
0100
0100
0001
0001
,
1000
0000
0001
1000
,
1001
0000
0001
0000
,
0010
1000
0010
0001
,
0001
0001
1000
1000
,
0001
0100
1000
0100
,
0001
0001
1000
1000
,
0001
0001
0010
0010
,
0100
0000
1000
1000
,
0001
0010
0100
1000
,
1000
0010
0100
0001
,
0001
0100
1000
0100
,
0001
0001
1000
1000
,
1000
0100
0001
0100
,
1000
1000
0001
0001
,
0020
0000
0001
0000
,
0100
0000
0001
0030
,
0200
0000
0010
0000
,
1000
0000
0010
0300
,
0110
0110
0110
0000
,
0001
1000
0001
1000
,
0100
0000
0000
0000
,
1000
0100
0001
0100
,
1000
0000
1000
0000
,
0010
0001
0010
1000
,
1000
0100
0010
0001
,
0001
0001
0010
0000
,
0100
1000
0010
0000
,
1001
0000
0010
0000
,
2002
0000
0000
3003
,
0010
0100
0000
0000
,
0001
0001
0000
0000
,
0001
0100
1000
0100
,
0001
0001
1000
1000
,
0001
0001
0010
0010
,
0100
0100
1000
1000
,
0001
1000
0001
1000
,
0001
0001
1000
0000
,
0010
0001
0010
1000
,
1000
1000
0001
0001
,
1000
0100
0001
0100
,
1000
1000
0001
0001
,
1000
1000
0010
0010
,
0100
0100
0001
0001
,
1000
0010
0100
0001
,
0001
0010
0100
1000
,
0100
0000
1001
0000
,
0010
0000
0110
0000
,
0001
0010
0100
1000
,
1000
0010
0100
0001
,
1000
0100
0001
0100
,
1000
1000
0001
0001
,
0001
0100
1000
0100
,
0001
0001
1000
1000
,
0110
0000
0110
0000
,
1001
0000
0110
0000
,
2002
0000
0000
0000
,
0000
0000
0000
3003
,
0000
0000
0000
0000
;
#NOTES:
     dance-single:
     :
     Medium:
     10:
     :
0000
0000
0000
0000
,
0000
0000
0000
0000
,
0000
0000
0000
0000
,
0000
0000
0000
0000
,
0000
0000
0000
0000
,
1000
0000
1000
0000
0001
0100
0010
1000
,
0010
1000
0001
0101
,
0001
0000
0001
0000
1000
0100
0010
0001
,
0010
0000
0001
0000
1000
0000
0001
0010
,
0000
0101
1100
0000
,
0001
0000
1000
0000
0010
0000
0100
0010
,
0000
0110
1001
0000
,
1000
0000
0100
0000
0001
0000
0100
1000
,
0000
0000
0110
0000
1001
0000
0000
1000
,
0001
0000
1000
0001
0000
0000
0000
0001
,
0000
0100
0010
0100
0000
0000
0001
0100
,
0000
0010
0100
0010
,
1000
0100
1000
0000
0001
0100
0001
0000
,
1000
0000
0000
0001
0000
0010
0000
0100
,
0000
1000
0000
0002
0000
0000
0003
0000
,
1000
0100
0000
0010
0000
0100
0000
1000
,
0000
0100
0000
0010
0000
0001
1000
0000
,
1001
0000
0000
1000
0000
0100
0000
0001
,
0000
0100
0000
1000
0000
0010
0000
0001
,
0000
0010
0000
0100
0000
0010
0000
0000
,
1000
0010
1000
0100
0000
0000
1000
0000
,
1010
0000
1010
0000
0001
1000
0001
0000
,
0100
0000
0010
0000
1000
0010
1000
0000
,
1000
0101
0001
0100
,
1000
0100
0001
0000
0010
0000
0100
0000
,
1000
0000
0001
1000
0000
0000
0100
2000
,
0000
0000
3001
0100
,
0010
0000
0100
0000
0001
0100
0000
1001
,
0000
0000
0001
1000
,
0011
0000
0011
0000
1000
0001
1000
0000
,
0100
0000
0010
0000
0001
0010
0001
0000
,
0001
1000
1000
0100
,
0011
1010
1100
0101
,
0010
0000
1000
0010
0000
0000
1000
0200
,
0000
0000
1300
0100
,
0010
0001
0010
1000
,
0020
0000
0032
0000
,
1003
0100
0001
0100
,
1000
0100
0001
0000
0100
0000
0010
0000
,
0001
0100
1000
0100
,
0001
0100
1000
0000
0100
0000
0110
0000
,
0020
0100
0100
0130
,
0200
0010
0010
0301
,
0100
0000
1000
0000
0100
0000
0001
0020
,
0000
0000
2030
0000
0000
3010
0000
0000
,
0001
0010
0001
0200
0000
0000
0300
0000
,
0001
0100
0010
0100
0001
0100
0010
0100
,
0000
0000
0000
0000
,
0001
0010
1000
0010
0001
0010
1000
0010
,
0000
0000
0001
0100
,
0001
0000
0001
0000
0010
0001
0100
0000
,
0001
1000
0001
0000
1000
0000
0100
0000
,
0010
0000
0000
0100
0000
0000
0010
0000
0100
0000
0000
1000
0000
0000
0100
0000
,
1000
0000
0000
0100
0000
0000
1000
0000
0100
0000
0000
0010
0000
0000
0001
0000
,
0100
0000
0000
0010
0000
0000
0100
0000
,
0220
0000
0000
0330
,
0011
0000
0011
0000
1000
0001
1000
0001
,
0000
0001
0000
0000
0001
0010
0001
0000
,
0001
1100
1000
0100
,
0001
0100
1000
0000
0010
0000
0100
0000
,
0001
0000
1000
0001
0000
0000
0100
0002
,
0000
0000
1003
0100
,
0110
0000
0000
1001
0000
0000
1100
0000
,
0000
0011
0000
0000
0010
0000
0001
0000
,
1010
0000
1010
0000
0001
1000
0001
0000
,
0100
0000
0010
0000
1000
0010
1000
0000
,
1000
0001
0001
0100
,
1010
0011
0101
1100
,
0010
0000
0001
0010
0000
0000
0001
0200
,
0000
0000
0301
0100
,
0010
1000
0010
0001
,
0020
0000
2030
0000
,
3001
0001
0000
1000
0000
1000
0000
0010
,
0000
0100
0000
0001
0000
0000
0000
0000
,
0001
0010
0001
0000
1000
0000
0100
0000
,
0110
0000
1001
0000
,
1000
0100
1000
0000
0100
0000
0001
0000
,
0100
1000
0100
0001
,
0100
1000
0010
0000
0001
0000
0010
0000
,
1000
0100
0001
0100
,
1100
0000
0000
1100
0000
0000
1100
0000
,
0011
0000
0000
0011
0000
0000
0011
0000
,
1002
0000
1000
0000
0103
0000
0000
0220
,
0000
0000
0000
0000
,
0000
0000
0000
0330
,
0000
0000
0000
0000
;
#NOTES:
     dance-single:
     :
     Hard:
     12:
     :
0000
0000
0000
0000
,
0000
0000
0000
0000
,
0000
0000
0000
0000
,
0000
0000
0000
0000
,
0000
0000
0000
0000
,
0001
1000
0100
1000
0010
0100
0010
1000
,
0010
0100
0001
0010
0000
0000
0101
0000
,
0001
0100
0001
0010
0100
0010
0100
0001
,
0100
1000
0100
0010
0000
0100
1000
0001
,
0000
0000
1100
0000
0101
0000
0100
0001
,
0010
0001
0100
1000
0000
0100
0001
0010
,
0000
0000
0011
0000
1100
0000
1000
0001
,
0100
0010
1000
0100
0000
1000
0100
0001
,
0000
0000
0110
0000
1001
0000
0001
1000
,
0001
0100
0010
1000
0000
0000
0000
1000
,
0000
0010
0001
1000
0000
0000
0100
0001
,
0000
0010
1000
0010
,
0001
0010
0001
0100
0010
1000
0100
1000
,
1100
0000
0000
0011
0000
0001
0000
0110
,
0000
1010
0000
0202
0000
0000
0303
0000
,
1000
0100
0000
1100
0000
0110
0000
0010
,
0000
0100
0000
1001
0000
0001
1000
0000
,
0101
0000
0000
1010
0000
1000
0000
0100
,
0000
0001
0000
0100
0000
1000
0000
0001
,
0100
1000
0100
0010
1000
0100
0010
0001
,
1000
0001
0010
0100
0000
1000
0001
0000
,
0011
0000
1010
0000
1000
0100
0010
0001
,
0000
0010
0000
0000
0100
1000
0010
0100
,
0010
0000
0001
0010
0000
0000
0001
0000
,
0110
1100
0110
1010
,
1000
0000
0010
0001
0000
0010
0100
0002
,
0000
0100
1000
0103
,
0001
0000
0110
0000
1000
0001
0000
0100
,
0001
0010
0100
0010
0001
0010
1000
0000
,
1010
0000
0011
0000
0001
0100
0010
1000
,
0000
0010
0000
0000
0100
0001
0010
0100
,
0010
0000
1000
0010
0000
0000
1000
0000
,
0110
1001
0110
1001
,
0001
0000
0010
1000
0000
0010
0100
2000
,
0000
0001
3001
0100
,
1000
0110
0101
1001
,
0001
0010
0100
1000
0100
0010
0001
0000
,
1000
0100
0000
0001
0000
0100
0000
1000
,
0000
0010
0000
0001
0000
0000
0110
0000
,
0001
0100
0000
1000
0000
0100
0000
0001
,
0000
0110
1001
1010
,
0020
0001
0100
1030
,
0200
1000
0010
0301
,
0100
0000
1000
0000
0100
0010
0100
0020
,
0000
0000
1000
0000
0000
2000
0030
0000
,
3001
0100
1000
0200
0000
0000
0300
0000
,
1000
0100
0001
0010
1000
0001
0100
1000
,
0000
1000
0010
0000
0100
0010
0001
0010
,
1000
0100
0001
1000
0010
0001
0100
1000
,
0000
0100
0001
0000
1000
0010
0100
0001
,
1000
0100
0010
0001
0010
0001
0100
0000
,
1000
0100
0010
0001
0010
0100
0001
0100
,
0101
0000
0000
0100
0000
0000
0010
0000
0100
0000
0000
0001
0000
0000
0100
0000
,
1000
0000
0000
1000
0000
0000
0100
0000
0001
0000
0000
0010
0000
0000
1000
0000
,
0110
0000
0000
1001
0000
0000
0110
0000
,
0200
0000
0010
0310
,
1010
0000
0011
0000
0001
0100
0010
0001
,
0000
0010
0000
0000
0100
0001
0100
0010
,
0100
0000
0100
0000
0010
1000
0100
0010
,
0110
0101
0110
0011
,
0001
0000
0010
1000
0000
0010
0100
2000
,
0000
0100
0001
3100
,
1100
0000
0000
0011
0000
0000
0110
0000
,
0000
1001
0000
0010
1000
0000
0010
0000
,
0011
0000
1010
0000
1000
0100
0010
0001
,
0000
0010
0000
0000
0100
1000
0010
0100
,
0010
0000
0001
0010
0000
0000
0001
0000
,
0110
1001
0110
1010
,
1000
0000
0010
0001
0000
0010
0100
0002
,
0000
1000
1000
0000
1003
0000
0100
0000
,
0001
0110
1100
1001
,
1000
0010
0100
0001
0100
0010
1000
0000
,
0001
0100
0000
1000
0000
0100
0000
0001
,
0000
0010
0000
1000
0000
0010
0001
0000
,
1000
0100
1000
0000
0100
1000
0100
0010
,
0001
0110
1001
0110
,
1000
0100
1000
0010
0100
0001
0010
1000
,
0000
0010
0000
0001
0000
0000
0110
0000
,
0001
0010
0001
1000
0100
0010
0000
0001
,
0000
0100
1000
0100
0001
1000
0100
0010
,
0001
0010
0100
1000
0100
1000
0100
0001
,
0100
1000
0100
0010
0001
0100
1000
0100
,
1000
0100
0010
0001
0010
0100
0010
0220
,
0000
0000
0000
0000
,
0000
0000
0000
0330
,
0000
0000
0000
0000
;
#NOTES:
     dance-single:
     :
     Challenge:
     15:
     :
0000
0000
0000
0000
,
0000
0000
0000
0000
,
0000
0000
0000
0000
,
0000
0000
0000
0000
,
0000
0000
0000
0000
,
2020
3030
0022
0033
1010
1000
0100
0002
,
0000
0103
1000
0002
0100
0000
1003
0000
,
1100
0100
0010
0001
0100
0010
0100
2000
,
0000
3100
0001
1000
0000
0001
0010
0220
,
0000
0330
1100
0000
0202
0000
0303
0011
,
0000
0001
0100
0010
0000
1000
0010
0220
,
0000
0330
0101
0000
2200
0000
3300
1010
,
0000
1000
0100
0010
0000
0010
0001
2002
,
0000
3003
1010
0000
0220
0000
0330
0110
,
0010
0100
0010
2000
0000
3000
0000
2100
,
0000
3001
0010
0021
0000
0000
0130
1000
,
0000
0001
0010
0100
,
1100
1000
0100
0010
0001
1000
0010
0100
,
0220
0000
0330
0101
0000
1010
0000
0022
,
0033
1100
0000
1200
0000
0010
0310
0000
,
0020
0200
0330
2200
3300
0011
0000
1010
,
0000
0101
0000
0201
0000
0010
0310
0000
,
2002
0000
0000
0000
3003
0000
0101
0000
0000
0000
1010
0000
0000
2000
0200
0000
,
3300
1001
0000
0022
0033
0110
0000
0021
,
0000
0000
0100
0000
0100
0000
0000
0000
1000
0000
0000
0000
0100
0000
0000
0030
,
0001
0010
0001
0010
0001
0010
0002
0000
0000
0003
1000
0000
0001
0000
0100
0000
,
0110
0000
1001
0000
0001
1000
0100
0110
,
0000
1001
0000
0000
0001
0100
0202
0303
,
2020
3030
0001
0001
1000
0100
0010
0001
,
0022
0033
0220
0330
2200
3300
1000
0002
,
0100
0000
1003
0002
0103
0001
0010
0200
,
1000
0000
0310
0100
2000
0000
3001
0000
,
0021
0000
0031
1000
0010
0110
0000
0101
,
0000
0000
1000
0100
1000
0100
1000
0100
1000
0000
0001
0000
1000
0000
0100
0000
,
0110
0000
1001
0000
1000
0001
0100
0110
,
0000
1001
0000
0000
1000
0100
2200
3300
,
0022
0030
1000
1003
0001
0100
0010
1000
,
2020
3030
0220
0330
0202
0303
0001
2000
,
0000
0100
3100
2000
0000
3001
0100
0020
,
0000
1000
1030
0000
2001
0000
3200
0000
,
0320
2030
3020
0032
,
0203
1000
0302
0010
,
1003
0010
1000
0010
1000
0000
0002
0000
0000
0003
0100
0001
0100
0000
0020
0000
,
0000
0030
0100
0010
0100
0000
0002
0000
0000
0003
1000
0001
1000
0001
1000
0000
,
0001
0010
0001
0010
0001
0000
2000
0000
0000
3000
0100
1000
0100
0000
0020
0000
,
0000
0030
0100
0010
0200
0000
0000
0000
0001
0000
0000
0000
0320
0000
0000
0000
,
0032
0000
0010
0000
1000
0000
0103
0200
,
0001
0010
1000
0310
,
1000
0001
1000
0001
1000
0000
0002
0000
0000
0003
0100
0001
0100
0000
0020
0000
,
0000
1030
0002
0000
0013
0200
0000
0301
,
0100
0000
1000
0000
0001
0000
2000
0000
0000
3000
0010
1000
0010
1000
0010
0000
,
1001
0001
0100
1000
0100
0001
0010
0021
,
0000
0000
0130
0000
1000
0100
0000
0000
0010
0000
0001
0000
1000
0000
0001
0000
,
1001
1000
0100
0001
0100
1000
0010
0120
,
0000
0000
1030
0000
0001
0100
0000
0000
0010
0000
0100
0000
0001
0000
1000
0000
,
0001
0000
1000
0100
0000
1000
0100
0010
0001
0000
0010
0001
0000
0010
0001
0010
,
0001
1000
0001
1000
0001
0100
0001
0100
0010
1000
0010
1000
0001
1000
0001
0000
,
0101
0000
0000
1000
0000
0000
0010
0000
1010
0000
0000
1000
0000
0000
0100
0000
,
1100
0000
0000
0100
0000
0000
0010
0000
0011
0000
0000
0001
0000
0000
1000
0000
,
0010
1000
0010
1000
0010
1000
0001
0100
0001
0100
0001
0100
,
0001
0010
0100
0010
0100
1000
0010
0100
0010
0100
0000
0000
,
0110
0000
1001
0000
1000
0001
0010
0110
,
0000
1001
0000
0000
0001
0010
0001
1000
,
2200
3300
0001
0001
1000
0010
0100
0001
,
0011
0010
0100
0000
2200
3300
0001
2000
,
0001
0000
3010
0200
1000
0000
0301
0020
,
0001
0000
0130
0100
1000
0100
0010
0001
,
2000
3000
0010
1000
0010
0000
0200
0300
0001
0100
0001
0000
2000
3000
0100
1000
,
0100
0000
0020
0030
0001
0010
0001
0000
1000
0000
0001
0000
1000
0000
0010
0000
,
0110
0000
1001
0000
1000
0001
0010
0110
,
0000
1001
0000
0000
1000
0010
2020
3030
,
0202
0303
1000
1000
0001
0010
0100
1000
,
2200
3300
0220
0330
0022
0033
1000
0002
,
0000
0010
0013
0002
0003
1000
0100
0020
,
0000
0001
0031
0000
1002
0000
0023
0000
,
0230
0302
0203
2300
,
3020
0001
2030
3100
,
0011
0011
0000
0101
0000
1010
0000
1100
,
0000
0000
0101
0000
0000
0000
2002
0000
3003
0000
0001
0010
0001
0010
0001
0000
,
0010
0100
0220
0330
2200
3300
2002
3003
,
0201
1000
0320
0001
,
0230
0010
0001
0010
,
1000
0000
0000
0000
0010
0000
0000
0000
0301
0000
1000
0001
1000
0001
1000
0000
,
0001
0010
0001
0010
0001
0010
0002
0000
0000
0003
1000
0100
1000
0100
1000
0100
,
0010
0100
0010
0100
0010
0100
0020
0000
0000
0030
0001
0010
0001
0000
1000
0000
,
1100
0100
0010
0001
0100
1000
0100
0001
,
0101
0100
0010
1000
0100
0001
0100
1000
,
0001
0100
1000
0001
0010
1000
0001
2002
,
0000
0000
0000
0000
,
0000
0000
0000
0000
,
3003
0000
0000
0000
,
0000
0000
0000
0000
;
#NOTES:
     dance-double:
     :
     Easy:
     7:
     :
00000000
00000000
00000000
00000000
,
00000000
00000000
00000000
00000000
,
00000000
00000000
00000000
00000000
,
00000000
00000000
00000000
00000000
,
00000000
00000000
00000000
00000000
,
00000001
00000100
00001000
00000100
,
00001000
00010000
00100000
00000000
,
10000000
10000000
00010000
00010000
,
10000000
00100000
10000000
00000000
,
10000000
01000000
00010000
00000000
,
00001000
00010000
00001000
00000000
,
00010000
00001000
00000100
00000000
,
00000001
00000010
00001000
00000000
,
00001000
00010000
01000000
00000000
,
10000000
00100000
01000000
00000000
,
10000000
01000000
00100000
00010000
,
00011000
00000000
00000000
00000000
,
00000010
00000000
00000001
00000000
,
00000100
00000000
00001000
00000000
,
00010000
00000000
01100000
00000000
,
10000000
00000000
01000000
00000000
,
00010000
00000000
00011000
00000000
,
00000110
00000000
00000100
00000000
,
00001000
00000000
00000001
00000000
,
00000001
00000100
00001000
00010000
,
00001000
00000000
00010000
00000000
,
00100000
01000000
00100000
10000000
,
10000000
10000000
00010000
00010000
,
10000000
01000000
00010000
00001000
,
00000100
00000110
00000010
00001001
,
00001000
00000100
00000001
00000100
,
00000010
00001000
00010000
00000000
,
00001000
00000000
01000000
00000000
,
00001000
00000000
00010000
00000000
,
00000010
00000100
00000010
00001000
,
00000001
00000001
00001000
00001000
,
00000001
00000100
00001000
00010000
,
01000000
01100000
00100000
10010000
,
00010000
00010000
10000000
10000000
,
00100000
00000000
00010000
00000000
,
00001000
00000000
00010000
00000000
,
00001000
00000000
00000100
00000000
,
00000001
00000100
00001000
00000100
,
00000001
00000001
00000100
00001000
,
00010000
01000000
10000000
01000000
,
10000000
10000000
00010000
00010000
,
00200000
00000000
00010000
00000000
,
00001000
00000000
00010000
00300000
,
00010000
00000000
00000010
00000000
,
00000001
00000000
00000010
00000000
,
00000110
00000110
00000110
00000000
,
00000001
00000100
00001000
00010000
,
01100000
00000000
00000000
00000000
,
10000000
01000000
00010000
00001000
,
00010000
00000000
00011000
00000000
,
00000010
00001000
00000010
00001000
,
00001000
00000100
00000010
00000001
,
00000010
00001000
00010000
00000000
,
01000000
10000000
00100000
00000000
,
10010000
00000000
00100000
00000000
,
00022000
00000000
00000000
00033000
,
00000010
00000100
00000000
00000000
,
00000001
00001000
00000000
00000000
,
00000001
00000100
00001000
00010000
,
01000000
01100000
00100000
10010000
,
00010000
01000000
10000000
01000000
,
00100000
00010000
00001000
00000000
,
00010000
00000000
00000100
00000000
,
00010000
00000000
00001000
00000000
,
00100000
01000000
00100000
00010000
,
10000000
10000000
00010000
00010000
,
10000000
01000000
00010000
00001000
,
00000100
00000110
00000010
00001001
,
00001000
00001000
00000001
00000001
,
00000010
00000000
00001000
00000000
,
00010000
00000000
00001000
00000000
,
00010000
00000000
01000000
00000000
,
10000000
00000000
01000000
00000000
,
00010000
00000000
00001000
00000000
,
00001000
00000100
00000001
00000100
,
00000001
00000000
00000110
00000000
,
00001000
01000000
00010000
01000000
,
00100000
10000000
01000000
00010000
,
00010000
01000000
10000000
01000000
,
00010000
00001000
00000100
00000100
,
00000101
00000000
00000110
00000000
,
00011000
00000000
01100000
00000000
,
20020000
00000000
00000000
00000000
,
00000000
00000000
00000000
30030000
,
00000000
00000000
00000000
00000000
;
#NOTES:
     dance-double:
     :
     Medium:
     10:
     :
00000000
00000000
00000000
00000000
,
00000000
00000000
00000000
00000000
,
00000000
00000000
00000000
00000000
,
00000000
00000000
00000000
00000000
,
00000000
00000000
00000000
00000000
,
00000001
00000000
00001000
00000000
00000001
00000100
00000010
00000000
,
00010000
00010000
00001000
00011000
,
00010000
00000000
00100000
00000000
10000000
01000000
00100000
00000000
,
00100000
00000000
00010000
00000000
10000000
00000000
00100000
00010000
,
00000000
00011000
00000110
00000000
,
00000001
00000000
00001000
00000000
00000010
00000000
00000100
00001000
,
00000000
00011000
01100000
00000000
,
10000000
00000000
01000000
00000000
00010000
00000000
00001000
00010000
,
00000000
00000000
00011000
00000000
00000110
00000000
00000000
00000001
,
00000010
00000000
00001000
00010000
00000000
00000000
00000000
00100000
,
00000000
01000000
10000000
01000000
00000000
00000000
00010000
01000000
,
00000000
00100000
00010000
00001000
,
00001000
00000100
00001000
00000000
00000100
00000001
00000100
00000000
,
00000001
00000000
00000000
00001000
00000000
00000010
00000000
00000100
,
00000000
00001000
00000000
00020000
00000000
00000000
00030000
00000000
,
00100000
01000000
00000000
00100000
00000000
10000000
00000000
01000000
,
00000000
00010000
00000000
00001000
00000000
00000100
00000010
00000000
,
00000110
00000000
00000000
00001000
00000000
00000100
00000000
00000001
,
00000000
00000100
00000000
00001000
00000000
00000010
00000000
00000001
,
00000000
00000100
00000000
00001000
00000000
00010000
00000000
01000000
,
00100000
00010000
01000000
00010000
00000000
00000000
10010000
00000000
,
10100000
00000000
00110000
00000000
00001000
00010000
00001000
00000000
,
00000100
00000000
00000001
00000000
00001000
00000010
00001000
00000000
,
00001000
00000101
00000001
00000100
,
00001000
00010000
00001000
00000000
00100000
00000000
01000000
00000000
,
10000000
00000000
00010000
10000000
00000000
00000000
01000000
20000000
,
00000000
00000000
31000000
00010000
,
00001000
00000000
00000100
00000000
00000001
00000100
00000000
00000110
,
00000000
00000001
00001000
00000001
,
00000011
00000000
00001010
00000000
00010000
00001000
00010000
00000000
,
01000000
00000000
10000000
00000000
00010000
00100000
00010000
00000000
,
00010000
11000000
10000000
01000000
,
00010000
00001000
00010000
00000000
00000010
00000000
00000100
00000000
,
00000001
00000000
00000100
00000110
00000000
00000000
00000001
00000200
,
00000000
00000000
00001300
00010000
,
00001000
00100000
00001000
00010000
,
00200000
00000000
02300000
00000000
,
13000000
01000000
00010000
01000000
,
10000000
01000000
00100000
00000000
00010000
00000000
00001000
00000000
,
00000100
00000001
00000100
00000100
,
00000001
00000100
00001000
00000000
00010000
00000000
00011000
00000000
,
00002000
01000000
01000000
01003000
,
02000000
10000000
10000000
13000000
,
01000000
00000000
00100000
00000000
00010000
00000000
00010000
00002000
,
00000000
00020000
00033000
00001000
,
00010000
00001000
00000100
00000020
00000000
00000000
00000030
00000000
,
00001000
00000100
00001000
00000100
00001000
00000100
00010000
00001000
,
00000000
00000000
00000000
00000000
,
00001000
00010000
00100000
01000000
00100000
01000000
00100000
10000000
,
00000000
00000000
01000000
00010000
,
00001000
00000000
00000100
00000000
00000010
00001000
00000010
00000000
,
00001000
00000001
00001000
00000000
00000001
00000000
00000100
00000000
,
00001000
00000000
00000000
00010000
00000000
00000000
00001000
00000000
00010000
00000000
00000000
01000000
00000000
00000000
10000000
00000000
,
01000000
00000000
00000000
10000000
00000000
00000000
01000000
00000000
00100000
00000000
00000000
01000000
00000000
00000000
00100000
00000000
,
00001000
00000000
00000000
00010000
00000000
00000000
00001000
00000000
,
00022000
00000000
00000000
00033000
,
00010100
00000000
00011000
00000000
00001000
00010000
00001000
00000100
,
00000000
00000001
00000000
00000000
00001000
00000010
00001000
00000000
,
00001000
00000101
00000001
00000100
,
00001000
00010000
00001000
00000000
00100000
00000000
01000000
00000000
,
10000000
00000000
00010000
10000000
00000000
00000000
01000000
20000000
,
00000000
00000000
31000000
00010000
,
00011000
00000000
00000000
00001100
00000000
00000000
00000110
00000000
,
00000000
00000011
00000000
00000000
00001000
00000000
00000001
00000000
,
00000011
00000000
00001010
00000000
00010000
00001000
00010000
00000000
,
01000000
00000000
10000000
00000000
00010000
00100000
00010000
00000000
,
00010000
11000000
10000000
01000000
,
00010000
00001000
00010000
00000000
00000010
00000000
00000100
00000000
,
00000001
00000000
00000100
00000110
00000000
00000000
00000001
00000200
,
00000000
00000000
00001300
00010000
,
00001000
00100000
00001000
00010000
,
00200000
00000000
20300000
00000000
,
30010000
00010000
00000000
10000000
00000000
01000000
00000000
00010000
,
00000000
00001000
00000000
00000100
00000000
00000000
00000000
00000000
,
00000001
00000010
00000001
00000000
00000100
00000000
00001000
00000000
,
00000100
00000000
00000001
00000000
,
00000001
00000100
00001000
00000100
,
00000001
00000100
00000010
00000000
00000100
00000000
00001000
00000000
,
00010000
00100000
10000000
01000000
,
10000000
01000000
00010000
00000000
00001000
00000000
00000110
00000000
,
00000011
00000000
00000000
00000110
00000000
00000000
00001100
00000000
,
00011000
00000000
00000000
00110000
00000000
00000000
10010000
00000000
,
00020000
00000000
01000000
00000000
01030000
00000000
00000000
00022000
,
00000000
00000000
00000000
00000000
,
00000000
00000000
00000000
00033000
,
00000000
00000000
00000000
00000000
;
#NOTES:
     dance-double:
     :
     Hard:
     12:
     :
00000000
00000000
00000000
00000000
,
00000000
00000000
00000000
00000000
,
00000000
00000000
00000000
00000000
,
00000000
00000000
00000000
00000000
,
00000000
00000000
00000000
00000000
,
00001000
00000000
01000000
00000000
00100000
01000000
00100000
10000000
,
00100000
01000000
00010000
00100000
00000000
00000000
00011000
00000000
,
00010000
00000000
00001000
00000000
00000100
00000010
00000100
00000001
,
00000100
00001000
00000100
00000010
00000000
00000100
00001000
00010000
,
00000000
00000000
01010000
00000000
01100000
00000000
01000000
00010000
,
00100000
00010000
01000000
10000000
00000000
01000000
00010000
00100000
,
00000000
00000000
00011000
00000000
00000110
00000000
00001000
00000001
,
00000100
00000010
00001000
00000100
00000000
00001000
00000100
00000001
,
00000000
00000000
00000110
00000000
00011000
00000000
00010000
00001000
,
00010000
01000000
00100000
00001000
00000000
00000000
00000000
00010000
,
00000000
00100000
01000000
10000000
00000000
00000000
01000000
00010000
,
00000000
00100000
00001000
00010000
,
00001000
00010000
00001000
00000100
00000010
00000001
00000010
00001000
,
00000100
00000000
00000000
00000110
00000000
00011000
00000000
01100000
,
00000000
11000000
00000000
02020000
00000000
00000000
03030000
00000000
,
10000000
01000000
00000000
01010000
00000000
00011000
00000000
00001000
,
00000000
00000100
00000000
00001001
00000000
00000001
00001000
00000000
,
00000101
00000000
00000000
00001010
00000000
00001000
00000000
00000100
,
00000000
00000001
00000000
00000100
00000000
00000010
00000000
00001000
,
00010000
00100000
01000000
00100000
10000000
01000000
00100000
00010000
,
01000000
00010000
00100000
00001000
00010000
00001000
00000100
00000000
,
00000101
00000000
00001010
00000000
00001000
00000100
00000010
00000001
,
00000000
00000010
00000000
00000000
00000001
00000000
00001000
00000000
,
00010000
00000000
10000000
00100000
00000000
00000000
00010000
00000000
,
01100000
11000000
01000000
00010000
,
00001000
00000000
00000100
00000001
00000000
00000010
00000100
00000002
,
00000000
00000100
00000100
00000103
,
00000001
00000000
00000100
00000000
00000010
00001000
00000000
00010000
,
00001000
00010000
00100000
00010000
00100000
01000000
10000000
00000000
,
11000000
00000000
01100000
00000000
00010000
01000000
00100000
10000000
,
00000000
00100000
00000000
00000000
10000000
01000000
00010000
00000000
,
00001000
00000000
00000100
00000010
00000000
00000000
00001000
00000000
,
00000110
00000000
00000101
00000000
00000100
00000000
00001000
00010000
,
00000000
00000000
01000000
10000000
00000000
00100000
01000000
20000000
,
00000000
01000000
31000000
00100000
,
00010000
00011000
00000110
00001001
,
00000001
00001000
00000010
00000100
00000001
00000100
00000010
00000100
,
00000210
00000001
00000010
00001000
,
00020300
01000000
10000000
00100000
,
00032000
00000100
00000001
00000010
,
00023000
01000000
10000000
00130000
,
00001000
00010000
00001000
00000000
00020000
00000000
00100000
00000000
,
00032000
00000010
00023000
00000010
,
00032000
00000000
00100000
00000000
00003000
00000000
00000000
00011000
,
00000000
00000000
00011000
00000000
00000000
00002000
00000000
00000000
,
00003010
00000100
00001000
00000200
00000000
00000000
00000300
00000000
,
00010000
00001000
00010000
00100000
00010000
00001000
00010000
01000000
,
00000000
10000000
00100000
00000000
01000000
00100000
00010000
00000000
,
00001000
00000100
00000001
00001000
00000010
00000001
00000010
00001000
,
00000000
00000100
00000001
00000000
00000100
00000010
00001000
00010000
,
00100000
01000000
00100000
00010000
00100000
00010000
00001000
00000000
,
00010000
00001000
00000010
00000001
00000010
00000100
00001000
00000000
,
00001001
00000000
00000000
00000010
00000000
00000000
00001000
00000000
00010000
00000000
00000000
01000000
00000000
00000000
10000000
00000000
,
11000000
00000000
00000000
10000000
00000000
00000000
01000000
00000000
00010000
00000000
00000000
01000000
00000000
00000000
10000000
00000000
,
01100000
00000000
00000000
00011000
00000000
00000000
00000110
00000000
,
00000200
00000000
00000010
00000310
,
00010100
00000000
00011000
00000000
00010000
00000100
00000010
00000001
,
00000000
00000010
00000000
00000000
00000001
00000010
00001000
00000000
,
00010000
00100000
01000000
00100000
10000000
00000000
00010000
00000000
,
01100000
11000000
01000000
00010000
,
00001000
00000000
00000100
00000001
00000000
00000010
00000100
00002000
,
00000000
00000100
00000100
00003100
,
00000110
00000000
00000000
00011000
00000000
00000000
01100000
00000000
,
00000000
10010000
00000000
00100000
00001000
00000000
00100000
00000000
,
00011000
00000000
00001010
00000000
00001000
00000100
00000010
00000001
,
00000000
00000010
00000000
00000000
00000001
00000100
00001000
00000000
,
00010000
00000000
01000000
00100000
00000000
00000000
00010000
00000000
,
01100000
11000000
01000000
00010000
,
00001000
00000000
00000100
00000001
00000000
00000010
00000100
00002000
,
00000000
00000001
00003001
00000100
,
00010000
01100000
11000000
10010000
,
10000000
01000000
00010000
00001000
00000100
00000010
00001000
00000000
,
00000001
00000100
00000000
00001000
00000000
00000100
00000000
00000001
,
00000000
00000010
00000000
00001000
00000000
00010000
00001000
00000000
,
00000010
00001000
00010000
00000000
01000000
00100000
01000000
00100000
,
00001000
00011000
00100000
10000000
,
02100000
10000000
00100000
00010000
,
03002000
00000100
00000001
00000010
,
00023000
01000000
10000000
00100000
,
00032000
00000000
00000000
00000000
00000000
00000000
00000000
00000000
00000000
00000000
00000000
00000000
00000000
00000000
00000000
00000000
00000000
00000000
00000000
00000000
00000000
00000000
00000000
00000000
00000000
00000000
00000000
00000000
00000000
00000000
00000000
00000000
00000000
00000000
00000000
00000000
00000000
00000000
00000000
00000000
00000000
00000000
00000000
00000000
00000000
00000000
00000000
00000000
00000100
00000000
00000000
00000000
00000000
00000000
00000000
00000000
00000000
00000000
00000000
00000000
00000000
00000000
00000000
00000000
00000000
00000000
00000000
00000000
00000000
00000000
00000000
00000000
00000000
00000000
00000000
00000000
00000000
00000000
00000000
00000000
00000000
00000000
00000000
00000000
00000000
00000000
00000000
00000000
00000000
00000000
00000000
00000000
00000000
00000000
00000000
00000000
00000001
00000000
00000000
00000000
00000000
00000000
00000000
00000000
00000000
00000000
00000000
00000000
00000000
00000000
00000000
00000000
00000000
00000000
00000000
00000000
00000000
00000000
00000000
00000000
00000000
00000000
00000000
00000000
00000000
00000000
00000000
00000000
00000000
00000000
00000000
00000000
00000000
00000000
00000000
00000000
00000000
00000000
00000000
00000000
00000000
00000000
00000000
00000000
00000010
00000000
00000000
00000000
00000000
00000000
00000000
00000000
00000000
00000000
00000000
00000000
00000000
00000000
00000000
00000000
00000000
00000000
00000000
00000000
00000000
00000000
00000000
00000000
00000000
00000000
00000000
00000000
00000000
00000000
00000000
00000000
00000000
00000000
00000000
00000000
00000000
00000000
00000000
00000000
00000000
00000000
00000000
00000000
00000000
00000000
00000000
00003000
,
00000001
00000010
00000100
00001000
00000100
00001000
00000100
00000010
,
00000100
00010000
00001000
00010000
00100000
01000000
10000000
01000000
,
10000000
01000000
00100000
00010000
00001000
00000100
00000010
00000002
,
00000000
00000000
00000000
00000000
,
00000000
00000000
00000000
00000003
,
00000000
00000000
00000000
00000000
;
#NOTES:
     dance-double:
     :
     Challenge:
     16:
     :
00000000
00000000
00000000
00000000
,
00000000
00000000
00000000
00000000
,
00000000
00000000
00000000
00000000
,
00000000
00000000
00000000
00000000
,
00000000
00000000
00000000
00000000
,
00002002
00003003
00002020
00003030
00010010
00010000
00001000
00200000
,
00000000
01300000
10000000
00020000
01000000
00000000
10030000
00000000
,
11000000
10000000
01000000
00010000
00001000
00010000
00000010
00002000
,
00000000
00003001
00000010
00000100
00000000
00010000
00001000
00022000
,
00000000
00033000
01010000
00000000
22000000
00000000
33000000
00120000
,
00000000
10030000
01000000
00010000
00000000
00001000
00010000
00022000
,
00000000
00033000
00001100
00000000
00000202
00000000
00000303
00002010
,
00000000
00003001
00000100
00001000
00000000
00010000
00001000
00022000
,
00000000
00033000
00110000
00000000
20200000
00000000
30300000
11000000
,
10000000
01000000
00010000
00002000
00000000
00003000
00000000
00021000
,
00000000
00030100
00000010
00000012
00000000
00000000
00000103
00000001
,
00000000
00000010
00000100
00001000
,
00001001
00000001
00000100
00001000
00010000
00100000
10000000
01000000
,
22000000
00000000
33000000
01010000
00000000
00011000
00000000
00002200
,
00003300
00000101
00000000
00000210
00000000
00000001
00000301
00000000
,
00000002
00000200
00000303
00002200
00003300
00011000
00000000
01010000
,
00000000
11000000
00000000
02100000
00000000
10000000
13000000
00000000
,
20200000
00000000
00000000
00000000
30300000
00000000
00110000
00000000
00000000
00000000
00011000
00000000
00000000
00020000
00000020
00000000
,
00030030
00001010
00000000
00000022
00000033
00001010
00000000
00021000
,
00000000
00001000
00001000
00000000
00100000
00000000
00100000
00030000
,
00100000
01000000
00100000
01000000
00100000
01000000
00200000
00000000
00000000
00300000
10000000
00000000
01000000
00000000
00100000
00000000
,
01100000
00000000
00011000
00000000
00010000
00000010
00000100
00000110
,
00000000
00011000
00000000
00000000
00001000
01000000
02020000
03030000
,
20200000
30300000
00100000
02000000
00010000
00000000
03100000
00000000
,
01020000
00000000
01000000
00000000
00001000
00000000
01030000
00002000
,
01000000
00000000
00013000
00000200
00001300
00000001
00000010
00000200
,
00001000
00000000
00010300
00001000
00200000
00000000
00310000
00000000
,
20010000
00000000
31000000
00100000
00001000
00010000
00000000
00001100
,
00000000
00000000
00000001
00000010
00000001
00000010
00000001
00000010
00000001
00000000
00001000
00000000
00000010
00000000
00000100
00000000
,
00000110
00000000
00011000
00000000
00001000
00100000
01000000
01100000
,
00000000
00011000
00000000
00000000
00010000
00000100
00002200
00003300
,
00000022
00000033
00000010
00000200
00001000
00000000
00000310
00000000
,
00002100
00000000
00000100
00000000
00010000
00000000
00003100
00020000
,
00000000
00001000
00031000
00200000
00000000
00310000
10000000
00200000
,
00000000
01000000
01300000
00000000
10020000
00000000
01000000
00000000
,
10030000
00010000
00001000
00000001
,
00002002
00000003
00000100
00010000
,
00023000
00100000
10000000
01000000
,
00032000
00000010
00000001
00000100
,
00023000
00100000
10000000
01000000
,
00032000
00000010
00003020
00010000
,
00002030
00000000
00000001
00000000
00000100
00000000
00010000
00023000
,
00000000
00100000
10000000
01000000
,
10030000
01000000
10000000
01000000
10000000
00000000
00020000
00000000
00000000
00030000
00100000
00010000
00100000
00000000
00002000
00000000
,
00000000
00013000
00000020
00000000
00000130
00000002
00000000
00000013
,
00000100
00000000
00001000
00000000
00000100
00000000
00020000
00000000
00000000
00030000
00001000
00010000
00001000
00010000
00001000
00000000
,
00101000
00100000
00010000
01000000
00100000
10000000
01000000
12000000
,
00000000
00000000
03100000
00000000
00010000
10000000
00000000
00000000
01000000
00000000
00010000
00000000
00001000
00000000
00010000
00000000
,
00010010
00000010
00001000
00000100
00000010
00000001
00000010
00000012
,
00000000
00000000
00000103
00000000
00000001
00001000
00000000
00000000
00000010
00000000
00010000
00000000
00001000
00000000
00100000
00000000
,
00010000
00000000
10000000
01000000
00000000
10000000
01000000
00100000
00010000
00000000
00100000
00010000
00000000
00100000
00001000
00100000
,
00001000
00010000
00001000
00010000
00000010
00010000
00000010
00010000
00000010
00001000
00000010
00001000
00000001
00001000
00000001
00000000
,
00000101
00000000
00000000
00000100
00000000
00000000
00001000
00000000
00011000
00000000
00000000
00010000
00000000
00000000
00001000
00000000
,
00101000
00000000
00000000
00100000
00000000
00000000
01000000
00000000
11000000
00000000
00000000
10000000
00000000
00000000
00010000
00000000
,
00100000
00001000
00100000
00001000
00100000
00001000
00010000
00000100
00010000
00000100
00010000
00000100
,
00001000
00000100
00000010
00000100
00000010
00000001
00000100
00000010
00000100
00000010
00000000
00000000
,
00000110
00000000
00011000
00000000
00001000
00100000
01000000
01100000
,
00000000
00011000
00000000
00000000
00010000
00000010
00001000
00000001
,
00000022
00000033
00000010
00000200
00000010
00000000
00001300
00000000
,
00002100
00000000
00000100
00000000
00010000
00000000
00003100
00000200
,
00001000
00000000
00010300
00020000
00000100
00000000
00031000
00002000
,
01000000
00000000
00103000
00100000
00010000
10000000
01000000
00010000
,
00002000
00000000
00013000
00001000
00010000
00000000
00000020
00000000
00001030
00000010
00001000
00000000
00000002
00000000
00000103
00000001
,
00000100
00000000
00000020
00000000
00010030
00000010
00010000
00000000
00001000
00000000
00100000
00000000
01000000
00000000
00100000
00000000
,
01100000
00000000
00011000
00000000
00010000
00000010
00000100
00000110
,
00000000
00011000
00000000
00000000
00001000
01000000
02020000
03030000
,
20200000
30300000
00100000
02000000
00010000
00000000
03100000
00000000
,
01020000
00000000
01000000
00000000
00001000
00000000
01030000
00002000
,
00000000
00010000
00013000
00000020
00000000
00001030
00000001
00000020
,
00000000
00000100
00000130
00000000
00001002
00000000
00000203
00000000
,
00002300
00003200
00002300
00023000
,
00032000
00100000
02003000
03010000
,
10100000
10100000
00000000
11000000
00000000
00110000
00000000
00011000
,
00000000
00000000
00001100
00000000
00000000
00000000
00000022
00000000
00000033
00000000
00001000
00000010
00001000
00000010
00001000
00000000
,
00000001
00000001
00001000
00000000
00010000
00000000
10000000
00000000
,
20020000
30000000
01000000
00001000
,
00032000
00000010
00000001
00000100
,
00023000
00100000
10000000
01000000
,
00032000
00000010
00000001
00000100
,
00023000
00000000
00000000
00000000
00100000
00000000
00000000
00000000
10030000
00000000
00010000
01000000
00010000
00000000
10000000
00000000
,
11000000
01000000
00100000
00001000
00010000
00000010
00000100
00000001
,
00000101
00000100
00000010
00010000
00001000
00100000
01000000
10000000
,
01000000
00010000
00001000
00000010
00000001
00000100
00001000
00022000
,
00000000
00000000
00000000
00000000
,
00000000
00000000
00000000
00000000
,
00033000
00000000
00000000
00000000
,
00000000
00000000
00000000
00000000
;
