
//----- song ID: rejo -----//
#TITLE:Rejoin;
#ARTIST:BEMANI Sound Team "HuΣeR feat.PON";
#BANNER:Rejoin.png;
#BACKGROUND:Rejoin-bg.png;
#CDTITLE:./CDTitles/DDR A.png;
#MUSIC:Rejoin.ogg;
#SAMPLESTART:60.447;
#SAMPLELENGTH:15;
#BPMS:0=135;
#NOTES:
     dance-single:
     :
     Beginner:
     2:
     :
0000
0000
0000
0000
,
0000
0000
0000
0000
,
0000
0000
0000
0000
,
0000
0000
0000
0000
,
0000
0000
0000
0000
,
0001
0000
0000
0000
,
0001
0000
0000
0000
,
1000
0000
0000
0000
,
1000
0000
0000
0000
,
0010
0000
0000
0000
,
1000
0000
0000
0000
,
0001
0000
0000
0000
,
0100
0000
0000
0000
,
0001
0000
0000
0000
,
1000
0000
0000
0000
,
0010
0000
0000
0000
,
0100
0000
0000
0000
,
1001
0000
0000
0000
,
0010
0000
0010
0000
,
1000
0000
1000
0000
,
0001
0000
0001
0000
,
0100
0000
0100
0000
,
0010
0000
1000
0000
,
0001
0000
0100
0000
,
0001
0000
1000
0000
,
0100
0000
0010
0000
,
0001
0000
0000
0000
,
1000
0000
0000
0000
,
0001
0000
0000
0000
,
1001
0000
0000
0000
,
1000
0000
0000
0000
,
0001
0000
0000
0000
,
1000
0000
0000
0000
,
1001
0000
0000
0000
,
0010
0000
0010
0000
,
0100
0000
0000
0000
,
0001
0000
0001
0000
,
1000
0000
0000
0000
,
1000
0000
1000
0000
,
0001
0000
0000
0000
,
0100
0000
0100
0000
,
0010
0000
0000
0000
,
0100
0000
0100
0000
,
0010
0000
0000
0000
,
1000
0000
1000
0000
,
0001
0000
0000
0000
,
0001
0000
0001
0000
,
1000
0000
0000
0000
,
0010
0000
0010
0000
,
0100
0000
0000
0000
,
0001
0000
0000
0000
,
1000
0000
0000
0000
,
1001
0000
0000
0000
,
1001
0000
0000
0000
,
0010
0000
0010
0000
,
0010
0000
0000
0000
,
0100
0000
0100
0000
,
0100
0000
0100
0000
,
0001
0000
0001
0000
,
1000
0000
1000
0000
,
0001
0000
0001
0000
,
1000
0000
1000
0000
,
0010
0000
0000
0000
,
0010
0000
0000
0000
,
0100
0000
0000
0000
,
0100
0000
0000
0000
,
0000
0000
0000
0000
;
#NOTES:
     dance-single:
     :
     Easy:
     6:
     :
0000
0000
0000
0000
,
0000
0000
0000
0000
,
0000
0000
0000
0000
,
0000
0000
0000
0000
,
0000
0000
0000
0000
,
0010
0000
0010
0000
,
1000
0000
1000
0000
,
0001
0000
0001
0000
,
0100
0100
1001
0000
,
0010
0001
0100
0100
,
0010
1000
0100
0100
,
1000
0001
0010
0010
,
0001
1000
0010
0010
,
0100
1001
0010
0100
,
0010
1001
0010
0100
,
1000
0001
0110
0100
,
0001
1000
0110
0010
,
0200
0000
0010
0310
,
1000
1001
0010
0001
,
0100
1000
0010
0100
,
0010
1001
1000
0010
,
0001
0100
0010
0100
,
0001
0110
0010
1000
,
0100
0001
1000
0001
,
0100
0110
0001
0010
,
2000
3002
0203
0310
,
0100
0110
1000
1000
,
0010
0110
0001
0001
,
0100
1001
0100
0100
,
0020
2030
3002
0203
,
0310
0000
0110
0000
0001
1000
0001
0000
,
0100
0000
0110
0000
1000
0001
1000
0000
,
0001
0100
0001
0000
1000
0100
1000
0000
,
0020
2030
3002
1003
,
0110
1001
0010
0100
,
1000
0000
0100
0000
1000
0100
1000
0000
,
0110
1001
0010
0100
,
0002
2000
0000
0000
0000
0000
3003
0000
,
0110
1001
0001
0100
,
0010
0100
0010
0000
0100
0000
0000
0000
,
0110
0000
1001
0000
,
0020
0032
2003
3100
,
0110
1001
0001
0010
,
1000
0100
0001
0010
,
0110
1001
0010
1000
,
0100
0001
0220
0330
,
0100
1001
0010
1000
,
0100
0000
0001
0000
0010
0100
0010
0000
,
0200
0310
0020
0130
,
2002
0000
0000
3003
,
0110
0010
1001
0100
,
0020
2030
3002
0103
,
1001
0000
0110
0000
,
2002
0000
0000
3003
,
0010
0010
0100
0100
,
0010
0100
0010
0100
,
0001
1000
0001
0010
,
1000
0000
0100
0000
0001
0100
1000
0000
,
0010
0100
0010
0100
,
0010
0001
0100
1000
,
0010
0010
0010
0010
,
0100
0000
0100
0000
0100
0100
0100
0000
,
0001
0001
0010
0110
,
1000
1000
0010
0110
,
1000
0001
0100
0010
,
0200
0000
0310
0000
,
0000
0000
0000
0000
;
#NOTES:
     dance-single:
     :
     Medium:
     10:
     :
0000
0000
0000
0000
,
0000
0000
0000
0000
,
0000
0000
0000
0000
,
0000
0000
0000
0000
,
0000
0000
0000
0000
,
0010
0000
0100
0000
1000
1000
0100
0000
,
0010
0000
0100
0000
1000
1000
0001
0000
,
0010
0000
0100
0000
0010
0010
0001
0000
,
1000
1000
0001
0001
0010
0000
2002
3003
,
0100
0001
1000
0110
,
0010
1000
0100
1001
,
0001
0100
0010
0110
,
0001
0010
0100
1001
,
0001
0010
0100
1000
0100
0000
0010
0000
,
0001
0010
0001
0100
0010
0000
0100
0000
,
0001
1000
0100
0010
0001
0000
1000
0000
,
0001
1000
0100
0000
0010
0000
0001
0000
,
0200
0000
0000
0000
0310
0000
0220
0330
,
0001
0000
0011
0000
0001
0100
0001
1000
,
0001
0010
0100
0000
1010
0000
0101
0000
,
0100
0000
1010
0000
1000
0100
1000
0001
,
0010
0100
0200
0000
0320
0000
0032
0000
,
0013
0000
0110
0000
1000
0001
0010
0010
,
0001
1000
0100
0000
0011
0000
1100
0000
,
0100
0000
0110
0000
0001
0010
0100
0100
,
0020
0001
0032
1000
2003
0100
3200
0000
,
0310
0001
0010
0000
0010
0001
0100
0000
,
0001
0100
0001
1000
0100
0100
0010
0000
,
0001
1000
0100
0100
1000
0001
0010
0000
,
0002
2003
3020
0230
,
0310
0100
0010
0000
0010
1000
0100
0000
,
0100
0010
0100
0100
1000
0010
0100
0000
,
0001
0000
0001
0010
0000
0100
0000
0020
0000
0000
0130
0000
1000
0000
0010
0000
,
0200
0302
2003
3020
,
0130
0000
1001
0000
0001
1000
0100
0000
,
0010
0001
0100
0000
0010
1000
0100
0000
,
0010
0000
1001
0000
0010
1000
0100
0000
,
0010
0001
2000
0000
3002
0000
0203
0000
,
0310
0000
1001
0000
1000
0001
0100
0000
,
0001
1000
0100
1000
0010
0100
0001
0100
,
0020
0130
0200
0310
,
2000
3002
0203
0320
,
0130
0000
1001
0000
0010
0010
1000
1000
,
0100
0100
0100
1000
0010
1000
0001
0000
,
0110
0000
1001
0000
0001
0010
0100
0100
,
1000
0000
0010
0000
0100
0001
0000
2002
0000
0000
0000
0000
3003
0000
0000
0000
,
0100
0000
1001
0000
1000
0010
0001
0010
,
1000
0100
1000
0100
0010
0001
0001
1000
,
2000
3001
0002
1003
,
0010
0100
1000
0001
0010
0100
1000
0010
,
0200
0000
0310
1000
0100
0000
0100
0010
,
0002
2003
3020
0230
,
0310
0000
0110
0000
,
2002
0000
0000
3003
,
0001
0010
0001
0000
0001
0010
0001
0000
,
0001
0010
0100
1000
0100
0010
0001
0000
,
2000
0000
0000
3010
1000
0010
1000
0100
,
1000
0100
1000
0001
0010
0001
0100
0000
,
0010
1000
0010
1000
0100
1000
0010
0000
,
0100
0001
0010
0001
0100
0001
0100
0000
,
0001
0010
0001
0010
0001
0010
0100
0010
,
0001
0010
0100
1000
0010
0100
0020
0000
,
0130
0000
0100
0000
0010
1000
0100
0000
,
0010
0000
0010
0000
0100
1000
0001
0000
,
0010
0000
0100
0000
0010
0001
0100
0000
,
0010
1000
0001
0100
0010
0000
0000
0000
,
0000
0000
0000
0000
;
#NOTES:
     dance-single:
     :
     Hard:
     13:
     :
0000
0000
0000
0000
,
0000
0000
0000
0000
,
0000
0000
0000
0000
,
0000
0000
0000
0000
,
0000
0000
0000
0000
,
0010
0000
0000
0000
0001
0000
0000
0000
0010
0000
0000
0001
0000
0000
0100
0000
,
0010
0000
0000
0000
1000
0000
0000
0000
0010
0000
0000
1000
0000
0000
0100
0000
,
1000
0000
0000
0000
0001
0000
0000
0000
1000
0000
0000
0001
0000
0000
0100
0000
,
0010
1000
0001
0010
0100
1000
0220
0330
,
1000
0010
0002
0000
0013
1000
0001
0010
,
0001
0100
2000
0000
3100
0010
0001
0010
,
1000
0100
0002
0000
0103
0010
0001
0100
,
1000
0000
0100
0000
0020
0000
0000
0000
1030
0100
1000
0000
0001
0100
0001
0000
,
1000
0000
0100
0000
1000
0010
0001
0000
0010
0000
0100
0000
0010
0000
1000
0000
,
0001
0000
0100
0000
0001
0010
1000
0000
0010
0000
0100
0000
0010
0000
0001
0000
,
1000
0000
0001
0000
0010
0100
0010
0000
0001
0000
1000
0100
0000
0010
0001
0000
,
1000
0010
0001
1000
0100
0001
2000
0000
,
3002
0000
0023
0230
,
1300
0000
1001
0000
0001
0010
1000
0010
,
0100
1000
0001
0000
0010
0000
0001
0000
,
1000
0000
1001
0000
1000
0010
0100
1000
,
0100
0001
2000
0000
3002
0000
0023
0000
,
0130
0000
1001
0000
1000
0100
0001
0100
,
1000
0010
0001
0000
0010
0000
0100
0000
,
0001
0000
1001
0000
0100
0010
1000
0001
,
0002
0013
0020
0130
0200
0310
0220
0330
,
1000
0000
0100
0000
1000
0100
0000
0000
1000
0000
0100
1000
0000
0000
0100
0000
,
0010
0000
0100
0010
0001
0010
0000
0001
1000
0100
0010
0001
0000
0000
0010
0000
,
0001
0000
1000
0100
0010
0100
0000
0010
0001
0010
0100
1000
0000
0000
0100
0000
,
0011
1100
1010
0101
,
0001
0000
0100
0000
0001
0100
0000
0010
1000
0000
0100
0010
0000
0000
0001
0000
,
0001
0000
1000
0000
0100
0010
0000
0001
0100
0000
0010
1000
0000
0000
0100
0000
,
0100
0000
1000
0010
0000
0100
0000
0002
0000
0000
1003
0000
0001
0000
0100
0000
,
0110
1100
0011
1001
,
0110
0000
0000
0000
1001
0000
0000
0000
0100
0010
0000
1000
0000
0000
0100
0000
,
0010
0001
0000
0100
0000
0000
0010
0000
1000
0001
0000
1001
0000
0000
0000
0000
,
0110
0000
0000
0000
1001
0000
0000
0000
0100
0010
0000
0001
0000
0000
0100
0000
,
1000
0000
0100
0020
0100
0000
0000
0000
1000
0000
0000
0000
0031
0000
0000
0000
,
0110
0000
0000
0000
1001
0000
0000
0000
0001
0010
0000
1000
0000
0000
0010
0000
,
0001
0100
0000
1000
0000
0000
0100
0000
0001
0000
0010
0000
0100
0000
1000
0000
,
0020
0000
0000
0000
0130
0000
0001
0010
0200
0000
0000
0000
0310
0000
0001
0100
,
0020
1000
0001
0130
,
1000
0000
1010
0000
0001
0000
0011
0000
1000
0010
0000
0100
0000
0000
0001
0000
,
0010
0100
0000
1000
0000
0000
0100
0000
0010
0100
0000
0110
0000
0000
0000
0000
,
0001
0000
0101
0000
1000
0000
1100
0000
0001
0010
0000
0100
0000
0000
1000
0000
,
0001
0000
0100
0000
0010
0100
0000
0020
0000
0000
1000
0000
0100
0000
0031
0000
,
0010
0000
1010
0000
0100
0000
0101
0000
0001
0010
0000
0100
0000
0000
1000
0000
,
0010
0100
0000
0001
0000
0000
0100
0010
1000
0000
0100
0000
0010
0000
0001
0000
,
2000
0000
0000
0000
3100
0000
1000
0100
0020
0000
0000
0000
0130
0000
0010
0001
,
0100
0010
1000
0200
0010
0000
0000
0000
1000
0000
0000
0000
0301
0000
0000
0000
,
2000
0000
0000
0000
3100
0000
1000
0100
0020
0000
0000
0000
0130
1000
0010
0100
,
0001
0000
0100
0020
1000
0000
0000
0000
0001
0000
0000
0000
0130
0000
0000
0000
,
1001
0000
0110
0000
,
0001
0010
1000
0010
0001
0100
0110
0000
,
1000
0100
0010
0000
0001
0010
0001
0000
,
0100
1000
0100
0001
0010
0100
1000
0001
,
0010
0000
1000
0000
0010
0000
0001
0010
0001
0010
0001
0100
0001
0100
0001
0000
,
1000
0100
1000
0100
1000
0010
1000
0010
1000
0000
0101
0000
2200
0000
3300
0000
,
1000
1000
0010
0010
0100
0100
0001
0001
,
0010
0010
0001
0001
1000
0010
0100
0001
,
0010
0100
0010
0100
1000
0001
1000
0001
,
0010
0001
0100
1000
0010
0001
0200
0000
,
0310
0000
0010
0000
1000
0010
0000
0000
0100
0000
0000
0010
0000
0000
0100
0000
,
0100
0000
0010
0000
0100
0001
0000
0000
0100
0000
0000
0010
0000
0000
0100
0000
,
0001
0000
1000
0000
0001
1000
0000
0000
1100
0000
0000
0101
0000
0000
1100
0000
,
0001
0000
0100
0000
0001
1000
0010
0100
0001
0000
0000
0000
0000
0000
0000
0000
,
0000
0000
0000
0000
;
#NOTES:
     dance-double:
     :
     Easy:
     7:
     :
00000000
00000000
00000000
00000000
,
00000000
00000000
00000000
00000000
,
00000000
00000000
00000000
00000000
,
00000000
00000000
00000000
00000000
,
00000000
00000000
00000000
00000000
,
10000000
00000000
10000000
00000000
,
00010000
00000000
00010000
00000000
,
00001000
00000000
00001000
00000000
,
00000010
00001000
00000100
00001001
,
00000001
00000010
00000100
00000010
,
00000001
00000100
00000010
00001000
,
00000100
00010000
00001000
00100000
,
00010000
01000000
00100000
10000000
,
01000000
10010000
00100000
00001000
,
00010000
00011000
00001000
00000100
,
00000010
00001001
00000100
00000010
,
00001000
00000100
00010000
00001000
,
00020000
00000000
00001000
00030100
,
00000010
00000110
00000001
00000100
,
00000010
00001000
00001000
00000100
,
00010000
00011000
00100000
10000000
,
01000000
01000000
00100000
00001000
,
00010000
00011000
00001000
00000100
,
00000001
00000010
00000010
00000100
,
00011000
00001000
00100000
01000000
,
20000000
30020000
00230000
00301000
,
00010000
00110000
01000000
01000000
,
00001000
00011000
00010000
00000100
,
00000010
00000011
00001000
00001000
,
00000200
00020300
00032000
02003000
,
03100000
00000000
01100000
00000000
10000000
01000000
10000000
00000000
,
00100000
00000000
00110000
00000000
00001000
00010000
00001000
00000000
,
00010000
00000000
00000100
00000000
00001000
00000100
00001000
00000000
,
00000020
00002030
00003002
00000103
,
00000110
00011000
00001000
00010000
,
01000000
10000000
00100000
01000000
,
01100000
00011000
00001000
00000100
,
00000002
00000020
00000000
00000000
00000000
00000000
00000033
00000000
,
00000110
00001001
00000100
00001000
,
00010000
01000000
10000000
00000000
01000000
00000000
00100000
00000000
,
01100000
00000000
00011000
00000000
,
00002000
00023000
00030200
00010300
,
00000110
00001001
00000001
00000100
,
00000010
00010000
00001000
00100000
,
01100000
10010000
10000000
00100000
,
01000000
00010000
00022000
00033000
,
00001000
00011000
00010000
01000000
,
00010000
00000000
00001000
00000000
00000100
00000010
00000100
00000000
,
00000020
00000130
00000002
00001003
,
00022000
00000000
00000000
00000000
00000000
00033000
00000000
00000000
,
01100000
00100000
00011000
00000010
,
00000020
00002030
00023000
01030000
,
10010000
00000000
00011000
00000000
,
00002002
00000000
00000000
00003003
,
00000001
00000001
00001000
00001000
,
00010000
00010000
10000000
10000000
,
00100000
01000000
00010000
00100000
,
00001000
00000000
00010000
00000000
00000100
00000100
00000100
00000000
,
00000010
00000100
00000001
00000100
,
00000010
00001000
00000100
00010000
,
00001000
00001000
00100000
00100000
,
01000000
00000000
01000000
00000000
00100000
00001000
01000000
00000000
,
00010000
00010000
00100000
00011000
,
00001000
00001000
00000010
00011000
,
00001000
00100000
00010000
00001000
,
00000200
00000000
00000310
00000000
,
00000000
00000000
00000000
00000000
;
#NOTES:
     dance-double:
     :
     Medium:
     11:
     :
00000000
00000000
00000000
00000000
,
00000000
00000000
00000000
00000000
,
00000000
00000000
00000000
00000000
,
00000000
00000000
00000000
00000000
,
00000000
00000000
00000000
00000000
,
10000000
00000000
00100000
00000000
00010000
00010000
00001000
00000000
,
00000010
00000000
00000001
00000000
00000100
00000100
00000010
00000000
,
00001000
00000000
00000100
00000000
00010000
00010000
01000000
00000000
,
10000000
00100000
01000000
00010000
00100000
00000000
00022000
00033000
,
00001000
00010000
01000000
11000000
,
00100000
00001000
00010000
00011000
,
00001000
00000010
00000100
00000011
,
00000001
00001000
00000100
00011000
,
00001000
00100000
00010000
01000000
00001000
00000000
00010000
00000000
,
00010000
00000010
00001000
00000100
00010000
00000000
00000100
00000000
,
00000010
00000001
00001000
00000100
00001000
00000000
00000100
00000000
,
00010000
01000000
00010000
00000000
00001000
00000000
00000100
00000000
,
00000020
00000000
00000000
00000000
00000130
00000000
00000220
00000330
,
00000001
00000000
00000110
00000000
00001000
00010000
01000000
00100000
,
01000000
10000000
00100000
00000000
10100000
00000000
01010000
00000000
,
10000000
00000000
01100000
00000000
00100000
00010000
00001000
00000100
,
00000010
00000100
00000020
00000000
00000032
00000000
00002003
00000000
,
00003100
00000000
00011000
00000000
00010000
01000000
10000000
00100000
,
01000000
00010000
00100000
00000000
11000000
00000000
00110000
00000000
,
10000000
00000000
01100000
00000000
00010000
00001000
00000100
00000001
,
00000020
00000001
00000032
00000100
00000203
00000010
00000320
00000000
,
00001030
00000100
00010000
00000000
00001000
00100000
01000000
00000000
,
00010000
00001000
00000100
00000001
00000010
00000010
00000100
00000000
,
00000001
00000100
00000010
00000010
00001000
00000100
00010000
00000000
,
00011000
00110000
00011000
00001010
,
00000001
00000100
00001000
00000000
00000100
00001000
00010000
00000000
,
00001000
00010000
00100000
00100000
00010000
00001000
00000100
00000000
,
00001000
00000000
00010000
00100000
00000000
01000000
00000000
00020000
00000000
00000000
00130000
00000000
00001000
00000000
00010000
00000000
,
00110000
00011000
00001010
00012000
,
00013000
00000000
10010000
00000000
00100000
00001000
00010000
00000000
,
00010000
00001000
00000100
00000001
00000010
00000100
00001000
00000000
,
00000010
00000000
00001001
00000000
00000010
00010000
00001000
00000000
,
00001000
00010000
02000000
00000000
23000000
00000000
30200000
00000000
,
01300000
00000000
10010000
00000000
01000000
00001000
00100000
00000000
,
00001000
00010000
00001000
00000100
00000001
00000010
00001000
00000010
,
00000200
00000310
00000002
00000103
,
00000020
00020030
00032000
00203000
,
00310000
00000000
00011000
00000000
00000010
00000010
00001000
00001000
,
00000100
00000100
00000100
00010000
00001000
00100000
00010000
00000000
,
00011000
00000000
00001001
00000000
00000001
00000010
00000100
00000100
,
00010000
00000000
00000010
00000000
00001000
00000100
00000000
00002200
00000000
00000000
00000000
00000000
00003300
00000000
00000000
00000000
,
00000010
00000000
00001001
00000000
00000001
00000010
00001000
00010000
,
00001000
00000100
00001000
00010000
00100000
10000000
10000000
01000000
,
02000000
00000000
03100000
00000000
00020000
00000000
10030000
00100000
,
00010000
00001000
00000100
00001000
00010000
00100000
10000000
00100000
,
02000000
00000000
03010000
10000000
00100000
00000000
00100000
00010000
,
00002000
00023000
00230000
02300000
,
03100000
00000000
00011000
00000000
,
00000220
00000000
00000000
00000330
,
00000010
00000001
00000010
00000000
00000010
00000001
00000010
00000000
,
00000010
00000001
00000010
00000100
00001000
00000100
00010000
00001000
,
02000000
00000000
00000000
03100000
10000000
00100000
10000000
00100000
,
00010000
00001000
00000100
00001000
00000100
00000010
00000100
00000000
,
00000001
00000010
00000001
00000010
00000100
00001000
00000100
00001000
,
00010000
00100000
00010000
00100000
01000000
10000000
01000000
10000000
,
00010000
00100000
00010000
00100000
00010000
00001000
00000100
00001000
,
00010000
00100000
01000000
10000000
00100000
10000000
02000000
00000000
,
03100000
00000000
01000000
00000000
00100000
00001000
01000000
00000000
,
00010000
00000000
00100000
00000000
00001000
00010000
00000100
00000000
,
00001001
00000000
00000110
00000000
00000001
00000100
00001000
00000000
,
00010000
01000000
10000000
00100000
01000000
00000000
00000000
00000000
,
00000000
00000000
00000000
00000000
;
#NOTES:
     dance-double:
     :
     Hard:
     13:
     :
00000000
00000000
00000000
00000000
,
00000000
00000000
00000000
00000000
,
00000000
00000000
00000000
00000000
,
00000000
00000000
00000000
00000000
,
00000000
00000000
00000000
00000000
,
00000001
00000000
00000100
00000000
00000010
00000100
00000000
00000000
00000001
00000000
00000100
00000000
00001000
00000000
00000100
00000000
,
00000010
00000000
00010000
00000000
00001000
00100000
00000000
00000000
00001000
00000000
00100000
00000000
10000000
00000000
00010000
00000000
,
01000000
00000000
00100000
00000000
00010000
01000000
00000000
00000000
00010000
00000000
01000000
00000000
00001000
00000000
01000000
00000000
,
00001000
00010000
00001000
00000100
00000001
00000010
00000220
00000330
,
00000001
00000100
00001200
00000000
00001300
00000001
00000010
00001000
,
00000010
00000100
00000120
00000000
00000130
00000001
00000100
00001000
,
01000000
00001000
00021000
00000000
00130000
10000000
00100000
00010000
,
10000000
00000000
01000000
00000000
01200000
00000000
00000000
00000000
01300000
00010000
01000000
00000000
00010000
00100000
00001000
00000000
,
00010000
00000000
00001000
00000000
00010000
00001000
00000100
00000000
00000010
00000000
00010000
00000000
00000100
00000000
00001000
00000000
,
00000100
00000000
00010000
00000000
00001000
00010000
01000000
00000000
00100000
00000000
01000000
00000000
00100000
00000000
00001000
00000000
,
00010000
00000000
01000000
00000000
00100000
00010000
00001000
00000000
00000100
00000000
00000010
00000001
00000000
00000100
00000010
00000000
,
00001000
00000100
00010000
00001000
00100000
01000000
10000000
00100000
,
00020000
00000000
00030200
00002300
,
00003100
00000000
00011000
00000000
00001000
00000100
00000001
00000010
,
00001000
00100000
00010000
01000000
00100000
00000000
11000000
00000000
,
00100000
00000000
10010000
00000000
10000000
01000000
00010000
00001000
,
00000010
00000001
00002000
00000000
00003200
00000000
00020300
00000000
,
00031000
00000000
00011000
00000000
00010000
00100000
10000000
01000000
,
00010000
00001000
00000100
00000001
00000010
00000000
00000100
00000000
,
00001001
00000000
00000010
00000100
00000010
00001000
00000100
00010000
,
00020000
00031000
00002000
00103000
00200000
01300000
02200000
03300000
,
10000000
00000000
01000000
00000000
10000000
01000000
00000000
00000000
00100000
00000000
00010000
00100000
00000000
00000000
00001000
00000000
,
00010000
00000000
00001000
00000100
00000010
00000100
00000000
00000001
00000100
00000010
00001000
00000100
00000000
00000000
00000010
00000000
,
00000100
00000000
00000001
00000100
00000010
00001000
00000000
00000100
00010000
00001000
00000100
00000010
00000000
00000000
00000001
00000000
,
00000011
00001100
00011000
01010000
,
00100000
00000000
10000000
00000000
00100000
10000000
00000000
01000000
00100000
00000000
00010000
01000000
00000000
00000000
00001000
00000000
,
00010000
00000000
00001000
00000000
00000100
00000010
00000000
00001000
00000100
00000000
00000010
00000001
00000000
00000000
00001000
00000000
,
00001000
00000000
00000100
00000010
00000000
00000001
00000000
00000100
00000000
00000000
00001000
00000000
00010000
00000000
01000000
00000000
,
01100000
11000000
00110000
00011000
,
00000110
00000000
00000000
00000000
00001001
00000000
00000000
00000000
00000001
00000100
00000000
00001000
00000000
00000000
00010000
00000000
,
01000000
10000000
00000000
00100000
00000000
00000000
01000000
00000000
00010000
10000000
00000000
10010000
00000000
00000000
00000000
00000000
,
01100000
00000000
00000000
00000000
00011000
00000000
00000000
00000000
00010000
01000000
00000000
10000000
00000000
00000000
00100000
00000000
,
00010000
00000000
00001000
00020000
00001000
00000000
00000000
00000000
00000010
00000000
00000000
00000000
00030100
00000000
00000000
00000000
,
00001000
00000000
00000000
00000000
00011000
00000000
00000000
00000000
00001000
00000100
00000000
00000001
00000000
00000000
00000010
00000000
,
00000100
00001000
00000000
00000100
00000000
00000000
00010000
00000000
00001000
00000000
00100000
00000000
01000000
00000000
10000000
00000000
,
00200000
00000000
00000000
00000000
01300000
00000000
00001000
00010000
00000020
00000000
00000000
00000000
00000130
00000000
00000010
00001000
,
00000200
00000010
00000001
00001300
,
00001000
00000000
00001010
00000000
00000001
00000000
00000101
00000000
00000100
00000010
00000000
00001000
00000000
00000000
00000100
00000000
,
00010000
00001000
00000000
00100000
00000000
00000000
01000000
00000000
10000000
00100000
00000000
01100000
00000000
00000000
00000000
00000000
,
10000000
00000000
11000000
00000000
00010000
00000000
01010000
00000000
00001000
00010000
00000000
00001000
00000000
00000000
00010000
00000000
,
00000100
00000000
00001000
00000000
00000010
00000100
00000000
00000001
00000000
00000000
00000110
00000000
00001001
00000000
00000000
00000000
,
00000001
00000000
00001100
00000000
00000010
00000000
00000101
00000000
00000010
00000100
00000000
00001000
00000000
00000000
00010000
00000000
,
01000000
10000000
00000000
00100000
00000000
00000000
10000000
01000000
00100000
00000000
00010000
00000000
00100000
00000000
00001000
00000000
,
00020000
00000000
00000000
00000000
00031000
00000000
00010000
00000100
00000020
00000000
00000000
00000000
00000130
00000000
00000010
00000001
,
00000100
00000010
00001000
00000200
00000010
00000000
00000000
00000000
00000001
00000000
00000000
00000000
00010300
00000000
00000000
00000000
,
00020000
00000000
00000000
00000000
00031000
00000000
00001000
01000000
00020000
00000000
00000000
00000000
01030000
00010000
00100000
01000000
,
10000000
00000000
01000000
00200000
00010000
00000000
00000000
00000000
00001000
00000000
00000000
00000000
01300000
00000000
00000000
00000000
,
01100000
00000000
00011000
00000000
,
00000001
00000010
00001000
00010000
00100000
10000000
01100000
00000000
,
10000000
01000000
00100000
00000000
00010000
00100000
00001000
00000000
,
00000100
00000001
00000010
00001000
00000010
00000100
00010000
00001000
,
00100000
00000000
00010000
00000000
01000000
00000000
00100000
01000000
00100000
01000000
00010000
01000000
00010000
01000000
00001000
00000000
,
00010000
00001000
00010000
00001000
00000100
00000010
00000100
00000010
00001000
00000000
00000110
00000000
00002002
00000000
00003003
00000000
,
00000010
00000010
00000001
00000001
00000100
00000100
00000010
00000010
,
00010000
00010000
00001000
00001000
00010000
00100000
10000000
01000000
,
00010000
00001000
00000010
00000001
00000100
00001000
00010000
01000000
,
10000000
00100000
00010000
00001000
00000100
00000001
00000020
00000000
,
00000130
00000000
00000100
00000000
00001000
00000100
00000000
00000000
00010000
00000000
00000000
00001000
00000000
00000000
00010000
00000000
,
01000000
00000000
00100000
00000000
01000000
10000000
00000000
00000000
01000000
00000000
00000000
00100000
00000000
00000000
01000000
00000000
,
00010000
00000000
00001000
00000000
00010000
00001000
00000000
00000000
00011000
00000000
00000000
00001100
00000000
00000000
00000101
00000000
,
00000010
00000000
00001000
00000000
00000100
00010000
00001000
00100000
00010000
00000000
00000000
00000000
00000000
00000000
00000000
00000000
,
00000000
00000000
00000000
00000000
;
