
//----- song ID: risi -----//
#TITLE:RISING FIRE HAWK;
#ARTIST:L.E.D.-G;
#BANNER:RISING FIRE HAWK.png;
#BACKGROUND:RISING FIRE HAWK-bg.png;
#CDTITLE:./CDTitles/DDR A.png;
#MUSIC:RISING FIRE HAWK.ogg;
#SAMPLESTART:15.186;
#SAMPLELENGTH:15;
#BPMS:0=157;
#NOTES:
     dance-single:
     :
     Beginner:
     3:
     :
0000
0000
0000
0000
,
0000
0000
0000
0000
,
0000
0000
0000
0000
,
0000
0000
0000
0000
,
0000
0000
0000
0000
,
0000
0000
0000
0000
,
0001
0000
0001
0000
,
1000
0000
1000
0000
,
0010
0000
0010
0000
,
0100
0000
0000
0000
,
0001
0000
0000
0000
,
1000
0000
1000
0000
,
0001
0000
0000
0000
,
0010
0000
0010
0000
,
0001
0000
0000
0000
,
1000
0000
1000
0000
,
0001
0000
0000
0000
,
1001
0000
0000
0000
,
1000
0000
1000
0000
,
0001
0000
0001
0000
,
1000
0000
1000
0000
,
0010
0000
0010
0000
,
1000
0000
1000
0000
,
0001
0000
0001
0000
,
1000
0000
0001
0000
,
1001
0000
0000
0000
,
0001
0001
0001
0000
,
0100
0000
0100
0000
,
0010
0010
0010
0000
,
0100
0000
0100
0000
,
0010
0010
0010
0000
,
0100
0000
0100
0000
,
0010
0000
0010
0000
,
1001
0000
0000
0000
,
1000
1000
1000
0000
,
0100
0000
0100
0000
,
1000
1000
1000
0000
,
0001
0000
0001
0000
,
0001
0001
0001
0000
,
0100
0000
0100
0000
,
0001
0001
0001
0000
,
1000
0000
1000
0000
,
1000
1000
1000
0000
,
0100
0000
0100
0000
,
1000
1000
1000
0000
,
0001
0000
0001
0000
,
0001
0001
0001
0000
,
0100
0000
0100
0000
,
0001
0001
0001
0000
,
1000
0000
0001
0000
,
1001
0000
0000
0000
,
0000
0000
0000
0000
,
0000
0000
0000
0000
,
0000
0000
0000
0000
,
0001
0000
0000
0000
,
0010
0000
0000
0000
,
0100
0000
0000
0000
,
1000
0000
0000
0000
,
0001
0000
0000
0010
,
0010
0000
0000
0100
,
0100
0000
0000
1000
,
1000
0000
0000
0001
,
0001
0000
0001
0000
,
0010
0000
0100
0000
,
1000
0000
1000
0000
,
0001
0000
1000
0000
,
1001
0000
0000
0000
,
1000
0000
1000
1000
,
1000
0000
0001
0000
,
1001
0000
0001
0000
,
0001
0001
0001
0000
,
0010
0010
0010
0000
,
0100
0100
0100
0000
,
1000
1000
1000
0000
,
2002
0000
0000
0000
0000
0000
0000
3003
,
0000
0000
0000
0000
;
#NOTES:
     dance-single:
     :
     Easy:
     6:
     :
0000
0000
0000
0000
,
0000
0000
0000
0000
,
0000
0000
0000
0000
,
0000
0000
0000
0000
,
0000
0000
0000
0000
,
0000
0000
0000
0000
,
0001
0010
0100
1000
,
0010
0100
0001
0001
,
1000
0010
0100
0001
,
1000
0000
0000
0000
,
0001
0010
0001
0100
,
0010
1000
1000
0000
,
1000
0010
1000
0100
,
0010
0010
0001
0000
,
1000
0010
1000
0100
,
0010
0001
1000
0000
,
1000
0001
0010
0100
,
2000
0002
3003
1001
,
0001
0010
1000
0010
,
0001
0100
1000
0100
,
0001
0010
1000
0100
,
0010
0010
0001
0100
,
0001
0010
0100
1000
,
0001
0001
1000
1000
,
0010
0010
0100
0100
,
1001
0000
0110
0000
,
0001
0001
0010
0010
,
0100
0100
1000
0000
,
1000
1000
0010
0010
,
0100
0100
0001
0000
,
0001
0010
1000
0010
,
0001
0100
0001
0000
,
0010
0100
1000
0010
,
1000
0000
0000
0000
,
0001
0001
0010
0000
,
0001
0001
1000
0000
,
0010
1000
0100
0010
,
0001
1001
0110
0000
,
1000
1000
0010
0010
,
1000
1000
0001
0000
,
0010
0001
0100
0010
,
1001
0000
0110
0000
,
0001
0001
0010
0010
,
0001
0001
0010
0100
,
1000
0000
0010
0100
,
0001
1000
1001
0000
,
1000
1000
0010
0010
,
1000
1000
0010
0100
,
0001
0010
0100
1000
,
0010
0001
0010
1000
,
1001
0000
0000
0000
,
1000
0000
0000
0000
,
0001
0000
0000
0000
,
0010
0000
0000
0000
,
0100
0100
1000
0010
,
1000
1000
0001
0010
,
0001
0001
0010
0000
,
0100
0100
1001
0000
,
0001
0000
0010
0100
,
1000
0000
0010
0100
,
0001
0000
0010
0100
,
1000
0000
0010
0100
,
0001
1000
0001
1000
,
0001
0100
1000
0010
,
0002
0000
0010
0010
,
2003
0000
0000
0000
0010
0000
0010
3000
,
0001
0010
0100
1000
,
0010
1000
0010
0001
,
0010
1000
0100
1000
,
0010
1000
0100
0001
,
0100
1000
0001
0010
,
0100
1000
0010
0001
,
1000
1001
0110
0000
,
0110
1001
0110
0000
,
0001
0000
2002
0000
0000
0000
0000
3003
,
0000
0000
0000
0000
;
#NOTES:
     dance-single:
     :
     Medium:
     11:
     :
0000
0000
0000
0000
,
0000
0000
0000
0000
,
0000
0000
0000
0000
,
0000
0000
0000
0000
,
0000
0000
0000
0000
,
0000
0000
0000
0000
,
0001
0010
0100
1000
0010
0000
0100
0000
,
0001
0010
0001
0001
,
0001
0010
0100
1000
0010
0100
0001
1000
,
0001
0000
0000
1001
,
1000
0010
1000
0000
0100
0000
0010
0000
,
0001
0100
0001
0000
0010
0100
1000
0000
,
0001
0010
0001
0000
0100
0000
0010
0000
,
1000
0100
1000
0100
0000
1000
0001
0100
,
0001
0010
0001
0000
0100
0000
0010
0000
,
1000
0100
1000
0000
0010
0100
0001
0000
,
1000
0000
0010
0000
1000
0000
0100
0000
0010
0000
0000
0001
0000
0000
0001
0000
,
0100
0001
0100
0001
0010
0000
0000
0000
,
0001
0010
0001
0000
0101
0000
0010
0000
,
1000
0100
1000
0000
0010
0100
0001
0000
,
1000
0010
1000
0000
1100
0000
0010
0000
,
0001
0100
0001
0100
0000
0001
1000
0100
,
1000
0010
1000
0000
1100
0000
0010
0000
,
0001
0100
0001
0000
0010
0100
1000
0000
,
0001
0000
0010
0000
0001
0000
0010
0000
0001
0000
0000
1000
0000
0000
1000
0000
,
0001
0000
0000
0001
0000
0000
0001
0000
1000
0000
0000
1000
0000
0000
1000
0000
,
0001
0010
0001
0001
1000
0100
0001
0000
,
0100
1000
0010
0100
0001
1000
0010
0000
,
1000
0001
1000
1000
0001
0100
1000
0000
,
0100
0001
1000
0010
1000
0001
0010
0000
,
0001
0010
0100
1000
0010
1000
0010
0000
,
1000
0010
0001
0010
0100
1000
0100
0000
,
0001
0010
0100
1000
0010
0100
0001
0010
,
0001
0000
0000
0000
0000
0000
0001
0100
,
0001
0010
0000
0010
0100
1000
0000
1000
,
0010
0100
0000
0100
0001
0010
0100
1000
,
0001
0010
0100
0010
0001
0010
0001
0000
,
0010
0000
0000
0001
0000
0000
0100
0000
0101
0000
0000
0000
0000
0000
0000
0000
,
1000
0010
0000
0010
0100
1000
0000
0100
,
0010
1000
0000
0100
1000
0010
0100
1000
,
0100
0000
0000
0100
0000
0000
0010
0000
0100
0000
0000
0100
0000
0000
0100
0000
,
0001
0000
0000
0001
0000
0000
0001
0000
0100
0000
0000
0000
1001
0000
0000
0000
,
0001
0010
0000
0010
0100
1000
0000
1000
,
0010
0100
0000
0100
0001
0010
0100
1000
,
0001
0010
0000
0010
0100
1000
0000
1000
,
0010
0000
0000
0100
0000
0000
0001
0000
0011
0000
0000
0000
0000
0000
0000
0000
,
1000
0010
0010
0100
0001
0010
0010
0100
,
1000
0010
0010
0100
0001
0010
0001
0100
,
0001
0000
1000
0000
0010
0000
0100
0000
0100
0000
0000
0001
0000
0000
0100
0000
,
0001
0000
0000
0100
0000
0000
1000
0000
0100
0000
0000
0001
0000
0000
1000
0000
,
0001
0000
0000
0000
,
1000
0000
0000
0101
0000
0000
0000
0000
,
0001
0000
0000
1100
0000
0000
0000
0000
,
1000
0000
0000
0101
0000
0000
0000
0000
,
0001
0000
1000
0000
0010
1000
0001
0000
,
1000
0000
1000
0001
0010
0001
1000
0000
,
0010
0000
0000
0010
0000
0000
0010
0000
0100
0000
0000
0100
0000
0000
0010
0000
,
1000
0000
0000
1010
0000
0000
1000
0000
0001
0000
0000
0101
0000
0000
0001
0000
,
1000
0000
1000
0001
0100
0001
0010
0100
,
1000
0000
0001
1000
0100
1000
0010
0100
,
0001
0000
1000
0001
0100
0001
0010
0100
,
1000
0000
0001
1000
0100
1000
0010
0100
,
0001
0001
0010
0001
0100
0001
0010
0100
,
1000
1000
0010
1000
0100
1000
0010
0100
,
0002
0000
0000
0010
0000
0000
0003
0000
2000
0000
0000
0001
0000
0000
3000
0000
,
0020
0000
0000
1000
0000
0000
0030
0000
0200
0000
0000
0001
0300
0000
0001
0000
,
1001
0000
1000
0001
1000
0010
0100
0001
,
1001
0000
0001
0010
0100
1000
0100
0000
,
1100
0000
0010
0001
0010
0001
0010
0000
,
0101
0000
0010
1000
0010
1000
0010
0000
,
0101
1000
0010
0100
0001
0010
0001
0000
,
1100
0001
0010
0100
1000
0010
1000
0000
,
1000
0000
0000
0100
0000
0000
0001
0000
0100
0000
0000
1000
0000
0000
0010
0000
,
1000
0000
0000
0010
0000
0000
0001
0000
0010
0000
0000
1000
0000
0000
0001
0000
,
1000
0000
2002
0000
0000
0000
0000
3003
,
0000
0000
0000
0000
;
#NOTES:
     dance-single:
     :
     Hard:
     15:
     :
0000
0000
0000
0000
,
0000
0000
0000
0000
,
0000
0000
0000
0000
,
0000
0000
0000
0000
,
0000
0000
0000
0000
,
0000
0000
0000
0000
,
0001
0010
0100
1000
0010
1000
0100
1000
,
0010
1000
0100
0010
0001
0100
0001
0010
,
0001
0100
0001
0000
1000
0100
1000
0000
0001
0010
0001
0010
0100
1000
0100
1000
,
0100
0000
0000
0000
0000
0000
1000
0100
,
1000
0000
0010
0000
1000
0000
0000
0000
0100
0000
0000
1000
0010
0000
0100
0000
,
0001
0000
0010
0000
0001
0000
0100
0001
0100
0000
0010
0000
1000
0000
0100
1000
,
0001
0000
0100
0000
0001
0000
0000
0000
0010
0000
0000
0001
0100
0000
0010
0000
,
1000
0000
0010
0000
1000
0100
1000
0100
0000
0000
1000
0000
0001
0100
0001
0100
,
0001
0000
0010
0000
0001
0000
0000
0000
0100
0000
0000
0001
0010
0000
0100
0000
,
1000
0000
0010
0000
1000
0000
0100
1000
0100
0000
0010
0000
0001
0000
0100
0001
,
0100
0000
0010
0000
1000
0000
0100
0000
1000
0000
0000
0001
0000
0000
0010
0001
,
0010
0100
1000
0100
1000
0100
1000
0000
0010
1000
0010
0100
0001
0000
0100
0000
,
0001
0000
0010
0000
0001
0000
0000
0000
0100
0000
0000
0001
0010
0000
0100
1000
,
0001
0000
0010
0000
0001
0000
0100
0001
0100
0000
0010
0000
1000
0000
0100
1000
,
0001
0000
0100
0000
0001
0000
0000
0000
0010
0000
0000
0001
0100
0000
0010
1000
,
0001
0000
0010
0000
0001
0100
0001
0100
0000
0000
0001
0000
1000
0100
1000
0100
,
1000
0000
0100
0000
1000
0000
0000
0000
0100
0000
0000
1000
0010
0000
0100
0001
,
1000
0000
0010
0000
1000
0000
0100
1000
0100
0000
0010
0000
0001
0000
0100
0001
,
0100
0000
0010
0000
1000
0000
0100
0000
1100
0000
0000
0101
0000
0000
0010
0001
,
0010
0000
0000
0011
0000
0000
1000
0010
1000
0000
0000
0011
0000
0000
0100
0000
,
0001
0000
0010
0000
1000
0000
0010
0000
0001
0000
0010
0000
0100
0000
1000
0001
,
0010
0000
0100
0000
0010
0000
0001
0100
0001
0000
0010
0000
0100
0000
1000
0001
,
1000
0000
0010
0000
0001
0000
0010
0000
1000
0000
0010
0000
0100
0000
0001
1000
,
0010
0000
0100
0000
0010
0000
1000
0100
1000
0000
0010
0000
0100
0001
0100
0001
,
1000
0010
1000
0100
0001
0100
1000
0010
,
0100
0000
0001
0000
0010
0000
0100
0000
1000
0100
1000
0000
0010
0000
0100
0001
,
0100
0000
0010
0100
0001
0000
0100
0010
1000
0000
0001
0000
1000
0001
1000
0001
,
1000
0000
0000
0000
0000
0000
0000
0000
0000
0000
0000
0000
0001
0010
0001
0010
,
0001
0000
0010
0000
0100
0000
1000
0100
1000
0000
0010
0000
0010
0000
0001
0100
,
0001
0000
0010
0000
0010
0000
1000
0100
1000
0000
0010
0000
0100
0000
0001
0100
,
0001
0000
0010
0000
0100
0000
1000
0000
0110
0000
0000
1100
0000
0000
0011
0000
,
0010
0000
0000
0100
0000
0000
1100
0000
0202
0000
0000
0000
0303
0000
1000
0100
,
1000
0000
0100
0000
0010
0000
0001
0010
0001
0000
0100
0000
0100
0000
1000
0010
,
1000
0000
0100
0000
0100
0000
0001
0010
0001
0000
0100
0000
0010
0000
1000
0010
,
1000
0000
0100
0000
0010
0000
0001
0000
0101
0000
0000
0110
0000
0000
1010
0000
,
0010
0000
0000
0110
0000
0000
0001
0000
1000
0000
0000
0001
0000
0000
0010
0000
,
0001
0000
1000
0000
0010
0000
1000
0100
1000
0000
0010
0000
0010
0000
0001
0100
,
0001
0000
0100
0000
0100
0000
1000
0100
1000
0000
0010
0000
0100
0000
0001
0100
,
0001
0000
0010
0000
0100
0000
1000
0100
1000
0000
0001
0000
1000
0010
0100
0010
,
0100
0000
0000
0001
0000
0000
0011
0000
2020
0000
0000
0000
3030
0000
1000
0100
,
1000
0000
0010
0000
0100
0000
0001
0100
0001
0000
0010
0000
0010
0000
1000
0100
,
1000
0100
0100
0001
0010
0100
1000
0100
,
1000
0000
0010
0000
0100
0010
1000
0100
1000
0000
0000
1100
0000
0000
0100
0010
,
0001
0000
0000
0011
0000
0000
0100
1000
0010
0000
0000
1010
0000
0000
0100
0001
,
0100
0000
0000
0000
,
0001
0000
0000
0010
0000
0000
1100
0000
0000
0000
0000
0000
0000
0000
0000
0000
,
1000
0000
0000
0010
0000
0000
0101
0000
0000
0000
0000
0000
0000
0000
0000
0000
,
0001
0000
0000
0010
0000
0000
1100
0000
0000
0000
0000
0000
0000
0000
0000
0000
,
1000
0000
0000
0010
0000
0000
0100
0000
0001
0000
0010
0000
0001
0010
0100
1000
,
0001
0000
0000
0010
0000
0000
0100
0000
1000
0000
0010
0000
1000
0010
0100
0001
,
1000
0000
0000
0010
0000
0000
0100
0000
0001
0000
0000
0010
0000
0000
0100
0000
,
1100
0000
0000
0110
0000
0000
0010
0000
0011
0000
0000
0110
0000
0000
1000
0000
,
0001
0000
0000
0110
0000
0000
1001
0000
0100
0000
0001
0000
1000
0010
1000
0001
,
0100
0000
0000
0110
0000
0000
1001
0000
0100
0000
1000
0000
0001
0010
0001
1000
,
0100
0000
0000
0110
0000
0000
1001
0000
0100
0000
0001
0000
0010
0001
0010
0100
,
0010
0000
0000
0110
0000
0000
1001
0000
0100
0000
1000
0000
0010
1000
0010
0100
,
0010
0000
1000
0000
0100
0000
0010
0000
0100
0000
1000
0000
0010
0100
0001
1000
,
0010
0000
0100
0000
0001
0000
0010
0000
0100
0000
0010
0000
0001
1000
0010
1000
,
0002
0000
0000
1000
0000
0000
0013
0000
2000
0000
0000
0010
0000
0000
3001
0000
,
0020
0000
0000
0100
0000
0000
1030
0000
0200
0000
0000
0010
0000
0000
0301
0010
,
0001
0000
0000
0000
1000
0010
1000
0010
1000
0000
0010
0000
0100
0000
0101
0000
,
0000
0000
0011
0000
0010
0001
0010
0001
0100
0000
0001
0000
0010
0000
0100
1000
,
0001
0000
0000
0110
0000
0000
1001
0000
0001
0000
0010
0000
0001
1000
0100
0010
,
0001
0000
0000
0110
0000
0000
1001
0000
1000
0000
0010
0000
1000
0001
0100
0010
,
1000
0000
0010
0000
0100
0000
0010
0100
0001
1000
0010
0100
0001
0000
0100
0001
,
1000
0000
0010
0000
1000
0000
0100
0010
0001
1000
0100
0010
0001
0010
0100
0000
,
1100
0000
0000
0110
0000
0000
0100
1000
0001
0000
0000
1010
0000
0000
0100
0001
,
0100
0000
0000
1100
0000
0000
0010
0100
1000
0000
0000
0110
0000
0000
0100
0001
,
2000
0000
0002
0000
0000
0000
0000
3003
,
0000
0000
0000
0000
;
#NOTES:
     dance-single:
     :
     Challenge:
     17:
     :
0000
0000
0000
0000
,
0000
0000
0000
0000
,
0000
0000
0000
0000
,
0000
0000
0000
0000
,
0000
0000
0000
0000
,
0000
0000
0000
0000
0000
0000
0000
0000
0000
0000
0000
0000
0000
0000
0001
0100
,
0001
0000
0100
0000
0100
0000
1000
0000
0100
0000
0010
0000
0001
0000
1000
0100
,
1000
0000
0100
0000
0100
0000
0001
0000
0100
0000
0010
0000
1000
0001
1000
0001
,
0100
0000
0100
0000
0110
0000
0110
0000
0010
1000
0001
0010
0100
1000
0010
0100
,
0220
0000
0000
0000
0330
0000
0000
0000
0000
0000
0000
0000
0100
0000
0100
0010
,
0100
0000
0000
0000
0101
0000
0000
0000
0100
0000
0001
0010
0100
0000
0000
0000
,
1100
0000
0010
0000
1100
0000
0010
1000
0001
0000
0010
0000
0100
0010
0100
0010
,
0100
0000
0010
0000
0101
0000
0000
0000
0101
0000
0000
0001
0100
0000
0010
0100
,
0001
0000
0010
0000
0100
1000
0100
1000
0000
0000
0110
0000
0100
0001
0100
0001
,
0100
0000
0010
0000
1100
0000
0000
0000
1100
0000
0000
0001
0100
0000
0010
0000
,
0101
0000
1000
0001
0100
0010
0100
0001
1000
0000
0010
0000
0100
0010
0100
0010
,
0100
0000
0100
0000
0010
0000
0010
0000
0101
0000
0000
1100
0000
0000
0010
0001
,
0100
0010
0100
0010
0100
0010
0100
0000
0010
0100
0110
0000
0010
0100
0010
0100
,
0110
0000
0000
0000
0101
0000
0000
0000
1100
0000
0000
0010
0100
0000
0000
0000
,
0101
0000
0010
0000
1100
0000
0010
0001
0100
0000
0010
0000
0100
0010
0100
0010
,
0100
0000
0010
0000
0101
0000
0000
0000
1100
0000
0000
0001
0100
0000
0010
1000
,
0100
0000
0010
0000
0001
0010
0100
1000
0100
0000
0010
0000
0001
1000
0010
0200
,
0000
0000
0310
0000
1100
0000
0000
0000
0101
0000
0000
1000
0100
0000
0010
0000
,
1100
0000
0010
0000
0101
0000
0010
0000
1100
0000
0010
0000
0100
0010
0100
0010
,
0100
0000
0100
0000
0110
0000
0110
0000
0101
0000
0000
1100
0000
0000
0010
0100
,
0110
0000
0000
0110
0000
0000
0001
1000
1001
0000
0000
0110
0000
0000
1001
0000
,
0100
0000
0001
0000
0100
0000
0010
1000
0100
0000
0010
0000
0100
0000
1000
0010
,
0100
0000
0001
0000
0100
0000
0010
1000
0100
0000
0010
0000
0100
0010
0100
0010
,
0100
0000
1000
0000
0100
0000
0010
0001
0100
0000
0010
0000
0100
0000
0010
1000
,
0100
0000
0010
0000
0100
0000
1000
0010
0100
0000
0010
0000
0100
0010
0100
0010
,
0100
0000
0100
0000
0010
0000
0010
0000
1000
0010
0100
0001
1000
0100
0010
0001
,
0100
0000
0100
0000
0110
0000
0110
0000
0100
0001
1000
0100
1000
0001
0100
0010
,
0100
0001
0100
0001
0100
1000
0100
1000
0100
0010
0100
0010
1000
0001
0010
0100
,
0220
0000
0000
0000
0000
0000
0000
0000
0330
0000
0000
0000
0100
0010
0100
0010
,
0100
0000
0010
0000
0001
0000
0100
0010
0001
0000
0010
0000
0100
0000
0001
0010
,
0100
0000
1000
0000
0001
0000
0100
1000
0001
0000
0010
0000
0100
0000
0001
0010
,
0100
0000
0100
0000
0100
0000
0100
0010
0100
0000
0010
0001
0000
0010
1000
0010
,
0100
0000
0000
1001
0000
0000
1100
0000
0201
0000
0010
0000
1300
0000
0100
0010
,
0100
0000
0010
0000
1000
0000
0100
0010
1000
0000
0010
0000
0100
0000
1000
0010
,
0100
0000
0001
0000
1000
0000
0100
0001
1000
0000
0010
0000
0100
0000
1000
0010
,
0100
0000
0010
0000
0100
0000
0010
0100
0010
0000
1000
0010
0000
0100
0001
0000
,
0011
0000
0000
1100
0000
0000
0100
0010
0100
0000
0001
0100
0000
1000
0100
0010
,
0001
0000
0010
0000
1100
0000
0010
0001
0100
0000
0010
0000
0101
0000
0010
1000
,
0100
0000
0010
0000
1100
0000
0010
0001
0100
0000
0010
0000
0101
0000
0010
1000
,
0100
0000
0010
0000
1100
0000
0010
0001
0100
0000
0010
0000
0101
0000
0100
0010
,
0100
0000
0000
0110
0000
0000
0110
0000
1002
0000
0010
0000
1003
0000
0100
0010
,
0100
0000
0100
0000
0010
0000
0010
0000
0001
0100
0001
1000
0100
1000
0001
0010
,
0100
0000
0100
0000
0110
0000
0110
0000
0001
0010
0100
1000
0010
0100
0001
1000
,
0100
0001
0100
0001
0100
1000
0100
1000
0100
0000
1000
0010
0000
0001
0010
0000
,
0010
0100
0010
0100
0001
0010
0100
1000
0010
0100
0001
1000
0001
1000
0010
0100
,
0110
0000
0000
0000
,
0020
0000
0000
1000
0000
0000
0031
0000
0000
0000
0000
0000
0000
0000
0000
0000
,
2000
0000
0000
0010
0000
0000
3001
0000
0000
0000
0000
0000
0000
0000
0000
0000
,
0002
0000
0000
0010
0000
0000
1003
0000
0000
0000
0000
0000
0000
0000
0000
0000
,
0110
0000
0000
0001
0100
0000
0010
0000
0100
0001
1000
0100
0010
0001
0100
0010
,
0100
0000
0000
1000
0100
0000
0010
0000
0100
0001
1000
0010
0100
0001
0010
0100
,
0010
0000
0000
0001
0010
0000
0100
0000
0110
0000
0000
1000
0010
0000
0100
0010
,
0100
0000
0000
0011
0000
0000
0100
0010
0110
0000
0000
1010
0000
0000
0100
0010
,
0110
0000
0000
0100
0001
0000
0011
0000
0100
0000
1000
0010
0100
0001
0100
0010
,
1000
0000
0000
0100
1000
0000
1010
0000
0100
0000
0001
0010
0100
1000
0100
0010
,
0001
0000
0000
0100
0001
0000
0101
0000
0100
0000
0010
1000
0001
0100
0001
1000
,
0010
0000
0000
1000
0100
0000
0011
0000
0100
0000
1000
0001
0010
0100
0010
0001
,
0100
0000
0100
0000
0010
0000
0010
0000
0100
0010
1000
0100
0010
0001
1000
0010
,
0100
0000
0100
0000
0110
0000
0110
0000
0100
0010
1000
0100
0010
0001
0100
0010
,
0100
0000
0000
1100
0000
0000
1010
0000
0101
0000
0000
0011
0000
0000
0100
0010
,
0110
0000
0000
0110
0000
0000
0001
1000
1001
0000
0000
1001
0000
0000
0100
0010
,
1000
0100
0001
0100
1000
0000
0010
1000
0100
0000
1100
0000
0000
0000
0102
0000
,
0000
0000
0013
0000
0001
0100
1000
0100
0001
0000
0100
0000
0101
0000
0010
1000
,
0100
0000
0100
1000
0100
0000
0010
0000
0101
0000
0010
0001
1000
0001
0010
0001
,
1000
0000
0010
1000
0100
0000
0010
0000
0101
0000
0010
0000
1000
0100
0010
0001
,
0100
0000
0100
0000
0010
0000
0010
0000
0100
0010
1000
0001
0010
0100
1000
0010
,
0100
0000
0100
0000
0110
0000
0110
0000
0100
0010
0100
0001
1000
0010
0100
0010
,
0110
0000
0000
0101
0000
0000
1100
0000
0011
0000
0000
1010
0000
0000
0100
0010
,
0100
0001
0010
1000
0010
0001
1000
0001
0100
1000
0100
0001
1000
0001
0010
0200
,
0000
0300
2002
0000
0000
0000
0000
3003
,
0000
0000
0000
0000
;
#NOTES:
     dance-double:
     :
     Easy:
     6:
     :
00000000
00000000
00000000
00000000
,
00000000
00000000
00000000
00000000
,
00000000
00000000
00000000
00000000
,
00000000
00000000
00000000
00000000
,
00000000
00000000
00000000
00000000
,
00000000
00000000
00000000
00000000
,
00010000
00100000
10000000
01000000
,
10000000
00100000
00010000
00000000
,
00001000
00000010
00000001
00000100
,
00001000
00000000
00000000
00000000
,
00010000
00100000
10000000
01000000
,
10000000
10000000
00100000
00010000
,
00001000
00000010
00000001
00000100
,
00000001
00000001
00000010
00001000
,
00010000
00100000
10000000
01000000
,
10000000
10000000
00100000
01000000
,
00001000
00011000
00010000
00011000
,
00002000
00020000
00033000
00011000
,
00010000
00100000
10000000
01000000
,
10000000
01000000
00010000
00001000
,
00001000
00000010
00000001
00000100
,
00000001
00000001
00000010
00000000
,
00000100
00010000
00001000
00010000
,
01000000
10000000
00100000
00100000
,
00010000
00010000
00001000
00001000
,
00022000
00000000
00033000
00011000
,
00010000
00010000
00100000
00100000
,
10000000
01000000
00010000
00010000
,
00001000
00001000
00000010
00000010
,
00000001
00000100
00001000
00010000
,
01100000
00100000
10000000
01000000
,
10000000
00100000
00010000
00011000
,
00001000
00000010
00000001
00000100
,
00001000
00000000
00000000
00000000
,
00010000
00000000
00100000
00000000
,
10000000
00000000
01000000
00000000
,
00010000
00001000
00000100
00000001
,
00000010
00000000
00000010
00000000
,
00001000
00001000
00000010
00000010
,
00000001
00000001
00000100
00000100
,
00001000
00010000
01000000
10000000
,
00100000
00000000
00100000
00000000
,
10000000
10000000
00100000
00100000
,
10000000
10000000
01000000
00010000
,
00001000
00010000
00000100
00001000
,
00000100
00010000
00001000
00000000
,
00001000
00001000
00000010
00000010
,
00000001
00000001
00000100
00001000
,
00010000
00001000
00010000
00100000
,
00010000
00001000
00011000
00000000
,
00011000
00000000
00000000
00000000
,
00000010
00000000
00000000
00000000
,
00000001
00000000
00000000
00000000
,
00000100
00000000
00000000
00000000
,
00001000
00000000
00010000
01000000
,
10000000
00000000
01000000
00010000
,
00001000
00000000
00000010
00000001
,
00000100
00000100
00001000
00000000
,
00010000
00000000
00100000
10000000
,
00100000
00000000
10000000
01000000
,
00010000
00000000
00000010
00000100
,
00000001
00000000
00000010
00000100
,
00010000
00010000
01000000
00010000
,
00001000
00001000
00000010
00001000
,
00020000
00000000
00030200
00000000
,
00000320
00000000
00002030
00000000
,
00013000
00100000
10000000
01000000
,
10000000
00100000
00010000
00010000
,
00001000
00000010
00000001
00000100
,
00000001
00000010
00001000
00001000
,
00010000
00100000
10000000
10000000
,
01000000
00010000
00001000
00010000
,
00011000
00000000
00000110
00000000
,
00000011
00000000
00000110
00000000
,
00001000
00000000
00022000
00000000
00000000
00000000
00000000
00033000
,
00000000
00000000
00000000
00000000
;
#NOTES:
     dance-double:
     :
     Medium:
     11:
     :
00000000
00000000
00000000
00000000
,
00000000
00000000
00000000
00000000
,
00000000
00000000
00000000
00000000
,
00000000
00000000
00000000
00000000
,
00000000
00000000
00000000
00000000
,
00000000
00000000
00000000
00000000
,
00010000
00100000
10000000
01000000
10000000
00000000
00100000
00000000
,
00010000
00000000
00001000
00000000
00010000
00001000
00010000
00000000
,
00001000
00000010
00000001
00000100
00000001
00000010
00001000
00000000
,
00010000
00000000
00000000
00001000
,
00010000
00100000
00010000
00000000
00100000
00000000
10000000
00000000
,
01000000
10000000
01000000
00000000
10000000
00100000
00010000
00000000
,
00001000
00000010
00001000
00000000
00000010
00000000
00000001
00000000
,
00000100
00000001
00000100
00000001
00000000
00000001
00000010
00001000
,
00010000
00100000
00010000
00000000
00100000
00000000
10000000
00000000
,
01000000
10000000
01000000
00000000
10000000
00100000
00010000
00000000
,
00001000
00000000
00000010
00000000
00000001
00000000
00000100
00000000
00000010
00000000
00000000
00001000
00000000
00000000
00000001
00000000
,
00000100
00000001
00000100
00000001
00000010
00000000
00000010
00001000
,
00010000
00100000
00010000
00000000
01100000
00000000
10000000
00000000
,
01000000
10000000
01000000
00000000
10000000
00100000
00010000
00000000
,
00001000
00000010
00001000
00000000
00000110
00000000
00000001
00000000
,
00000100
00000001
00000100
00000001
00000000
00000001
00000010
00001000
,
00010000
00100000
01100000
00000000
00100000
00000000
11000000
00000000
,
01000000
10000000
01000000
00000000
10000000
00100000
00010000
00000000
,
00001000
00000000
00000010
00000000
00000100
00000000
00001000
00000000
00000001
00000000
00000000
00001000
00000000
00000000
00001000
00000000
,
00000001
00000000
00000000
00000001
00000000
00000000
00000001
00000000
00000100
00000000
00000000
00001000
00000000
00000000
00001000
00000000
,
00010000
00100000
00010000
00000000
00100000
10000000
00100000
00000000
,
10000000
01000000
10000000
00000000
01000000
00010000
00001000
00000000
,
00010000
00001000
00000010
00000000
00000001
00000100
00000001
00000000
,
00000100
00001000
00010000
00000000
00001000
00010000
00100000
00000000
,
10000000
01000000
10000000
00100000
10000000
01000000
00100000
00000000
,
00001000
00100000
00010000
01000000
00100000
00010000
00001000
00000000
,
00010000
00000010
00001000
00000100
00000010
00000001
00000100
00001000
,
00010000
00000000
00000000
00000000
00000000
00000000
00001000
00010000
,
00001000
00100000
00000000
00010000
01000000
00100000
00000000
10000000
,
01000000
00100000
00000000
00010000
01000000
00100000
10000000
01000000
,
00010000
00000000
00001000
00000000
00010000
00000000
00001000
00000000
00010000
00000000
00000000
00000100
00000000
00000000
00010000
00000000
,
00000100
00000000
00000000
00001000
00000000
00000000
00000001
00000000
00001000
00000000
00000100
00000000
00010000
00000000
00001000
00000000
,
00000000
00100000
00000000
00010000
01000000
00100000
00000000
10000000
,
01000000
00100000
00000000
00010000
01000000
00100000
10000000
01000000
,
00010000
00000000
00000000
00010000
00000000
00000000
00010000
00000000
00001000
00000000
00000000
00000100
00000000
00000000
00000010
00000000
,
00001000
00000000
00000000
00001000
00000000
00000000
00000100
00000000
00010000
00000000
00000000
00000010
00000000
00000000
00010000
00000000
,
00001000
00100000
00000000
00010000
01000000
00100000
00000000
10000000
,
01000000
00100000
00000000
00001000
01000000
00100000
10000000
01000000
,
00010000
00001000
00000000
00000010
00000001
00000100
00000000
00000100
,
00000010
00000000
00000000
00001000
00000000
00000000
00000010
00000000
00000110
00000000
00000000
00000000
00000000
00000000
00000000
00000000
,
00001000
00010000
00000000
00100000
10000000
00100000
00000000
01000000
,
00010000
00100000
00000000
01000000
10000000
00100000
10000000
01000000
,
00010000
00000000
00001000
00000000
00000000
00000000
00000010
00000000
00000001
00000000
00000000
00000100
00000000
00000000
00000001
00000000
,
00001000
00000000
00000000
00000001
00000000
00000000
00001000
00000000
00000100
00000000
00000000
00010000
00000000
00000000
00001000
00000000
,
00011000
00000000
00000000
00000000
,
00010000
00000000
00000000
01010000
00000000
00000000
00000000
00000000
,
10000000
00000000
00000000
11000000
00000000
00000000
00000000
00000000
,
00010000
00000000
00000000
00011000
00000000
00000000
00000000
00000000
,
00010000
00000000
00000010
00000000
00001000
00000100
00000010
00000000
,
00001000
00000000
00100000
00000000
00010000
01000000
00100000
00000000
,
00010000
00000000
00000000
00010000
00000000
00000000
00001000
00000000
00010000
00000000
00000000
00010000
00000000
00000000
00010000
00000000
,
00000100
00000000
00000000
00000100
00000000
00000000
00000100
00000000
00000010
00000000
00000000
00001000
00000000
00000000
00001000
00000000
,
00010000
00000000
00100000
10000000
00010000
01000000
00100000
10000000
,
00010000
00000000
10000000
00010000
00100000
00001000
00010000
00001000
,
00000010
00000000
00000001
00000010
00000001
00000100
00000010
00001000
,
00000001
00000000
00001000
00000001
00000100
00000001
00000010
00001000
,
00010000
00001000
00010000
00100000
01000000
00010000
00100000
01000000
,
10000000
00010000
00100000
01000000
10000000
01000000
10000000
00100000
,
00020000
00000000
00000000
00001000
00000000
00000000
00030000
00000000
00002000
00000000
00000000
00000010
00000000
00000000
00003000
00000000
,
00000020
00000000
00000000
00001000
00000000
00000000
00000030
00000000
00002000
00000000
00000000
00010000
00000000
00000000
00003000
00000000
,
00010000
00000000
00100000
10000000
01000000
10000000
00100000
10000000
,
10010000
00000000
10000000
00100000
01000000
00010000
01000000
00000000
,
00011000
00000000
00010000
00000010
00001000
00000100
00010000
00001000
,
00011000
00000000
00001000
00100000
00010000
01000000
00001000
00000000
,
00010000
00001000
00010000
00100000
10000000
01000000
00100000
00010000
,
10000000
01000000
00010000
00001000
00000100
00000010
00001000
00001000
,
00000001
00000000
00000000
00000010
00000000
00000000
00001000
00000000
00010000
00000000
00000000
00100000
00000000
00000000
10000000
00000000
,
01000000
00000000
00000000
00010000
00000000
00000000
00001000
00000000
00010000
00000000
00000000
00000010
00000000
00000000
00010000
00000000
,
00001000
00000000
00022000
00000000
00000000
00000000
00000000
00033000
,
00000000
00000000
00000000
00000000
;
#NOTES:
     dance-double:
     :
     Hard:
     15:
     :
00000000
00000000
00000000
00000000
,
00000000
00000000
00000000
00000000
,
00000000
00000000
00000000
00000000
,
00000000
00000000
00000000
00000000
,
00000000
00000000
00000000
00000000
,
00000000
00000000
00000000
00000000
,
00010000
00100000
10000000
01000000
10000000
00100000
00010000
00001000
,
00000010
00000001
00000100
00000001
00000010
00001000
00010000
00100000
,
10000000
00000000
01000000
00000000
00010000
00000000
00001000
00000000
00000010
00000000
00000001
00000000
00001000
00000001
00001000
00000001
,
00001000
00000000
00000000
00000000
00000000
00000000
00001000
00001000
,
00010000
00000000
00100000
00000000
00010000
00000000
00000000
00000000
00100000
00000000
00000000
10000000
00100000
00000000
01000000
00000000
,
00010000
00000000
00100000
00000000
01000000
00000000
10000000
00100000
10000000
00000000
01000000
00000000
00010000
00000000
00001000
00010000
,
00001000
00000000
00000010
00000000
00001000
00000000
00000000
00000000
00000010
00000000
00000000
00000001
00000010
00000000
00000100
00000000
,
00001000
00000000
00000010
00000000
00000100
00000001
00000100
00000001
00000000
00000000
00001000
00000000
00000010
00001000
00000010
00001000
,
00000010
00000000
00010000
00000000
00001000
00000000
00000000
00000000
00100000
00000000
00000000
00010000
00100000
00000000
01000000
00000000
,
00010000
00000000
00001000
00000000
00100000
00000000
00001000
00010000
00001000
00000000
00000010
00000000
00001000
00000000
00010000
00001000
,
00010000
00000000
00001000
00000000
00001000
00000000
00000010
00000000
00000100
00000000
00000000
00001001
00000000
00000000
00000010
00001000
,
00000010
00000100
00000001
00000100
00000001
00000100
00000001
00000000
00001000
00000100
00001000
00000100
00001000
00000000
00000100
00000000
,
00010000
00000000
00001000
00000000
00010000
00000000
00000000
00000000
00100000
00000000
00000000
10000000
01000000
00000000
10000000
00010000
,
00100000
00000000
01000000
00000000
10000000
00000000
01000000
00100000
00010000
00000000
00001000
00000000
00000100
00000000
00001000
00000000
,
00001000
00000000
00010000
00000000
00001000
00000000
00000000
00000000
00000010
00000000
00000000
00000001
00000100
00000000
00000001
00001000
,
00000010
00000000
00000100
00000000
00000001
00000100
00000001
00000100
00000000
00000000
00001000
00000000
00010000
00001000
00010000
00001000
,
00010000
00000000
00001000
00000000
00010000
00000000
00000000
00000000
00100000
00000000
00000000
10000000
01000000
00000000
10000000
00010000
,
00100000
00000000
01000000
00000000
10000000
00000000
01000000
00100000
00010000
00000000
00001000
00000000
00000100
00000000
00001000
00000000
,
00001000
00000000
00010000
00000000
00100000
00000000
00010000
00000000
00011000
00000000
00000000
00101000
00000000
00000000
00100000
00010000
,
00100000
00000000
00000000
00110000
00000000
00000000
01000000
00100000
01000000
00000000
00000000
11000000
00000000
00000000
00010000
00000000
,
10000000
00000000
00100000
00000000
00010000
00000000
00001000
00000000
00000100
00000000
00000001
00000000
00000100
00000000
00001000
00010000
,
00001000
00000100
00000001
00000100
00010000
00001000
00000010
00000100
,
00000001
00000000
00000010
00000000
00001000
00000000
00010000
00000000
01000000
00000000
10000000
00000000
01000000
00000000
00010000
00001000
,
00010000
01000000
10000000
01000000
00001000
00010000
00100000
01000000
,
10000000
01000000
00010000
00001000
00000010
00000001
00000100
00001000
,
00010000
00100000
01000000
00001000
00010000
00000100
00000010
00001000
,
00010000
00001000
00010000
00000000
00000100
00001000
00000100
00000000
00010000
00001000
00010000
00000000
01000000
00100000
01000000
00100000
,
01000000
00000000
00000000
00000000
00000000
00000000
00100000
00001000
,
00010000
00000000
01000000
00000000
10000000
00000000
01000000
10000000
01000000
00000000
10000000
00000000
00100000
00000000
01000000
00010000
,
01000000
00000000
00010000
00000000
00100000
00000000
01000000
10000000
01000000
00000000
00100000
00000000
00010000
00000000
00001000
00000000
,
00000100
00000000
00000010
00000000
00000001
00000000
00000100
00000000
00000001
00000000
00000000
00000010
00000000
00000000
00000100
00000000
,
00010000
00000000
00000000
00000010
00000000
00000000
00000100
00000000
00000201
00000000
00000000
00000000
00000310
00000000
00010000
00000000
,
00001000
00000000
00000100
00000000
00000001
00000000
00000100
00000001
00000100
00000000
00000001
00000000
00000010
00000000
00000100
00001000
,
00000100
00000000
00001000
00000000
00000010
00000000
00000100
00000001
00000100
00000000
00000010
00000000
00000100
00000000
00001000
00000000
,
00010000
00000000
00100000
00000000
10000000
00000000
01000000
00000000
10000000
00000000
00000000
00100000
00000000
00000000
01000000
00000000
,
00001000
00000000
00000000
00100000
00000000
00000000
01000000
00000000
10000000
00000000
00000000
00100000
00000000
00000000
00110000
00000000
,
00010000
00000000
00100000
00000000
10000000
00000000
01000000
10000000
01000000
00000000
10000000
00000000
00100000
00000000
00010000
00001000
,
00010000
00000000
00100000
00000000
10000000
00000000
01000000
10000000
01000000
00000000
00100000
00000000
00010000
00000000
00001000
00000000
,
00000100
00000000
00000010
00000000
00000001
00000000
00000100
00000001
00000100
00000000
00000001
00001000
00000000
00001000
00000100
00001000
,
00000100
00000000
00000000
00010000
00000000
00000000
00000100
00000000
00000002
00000000
00000000
00000000
00000003
00000000
00000100
00000000
,
00010000
00000000
01000000
00000000
10000000
00000000
01000000
10000000
01000000
00000000
00100000
00000000
00001000
00000000
00010000
00001000
,
00010000
00000000
00100000
00000000
01000000
00000000
00010000
01000000
00010000
00000000
10000000
00000000
00100000
00000000
01000000
00000000
,
00010000
00000000
00001000
00000000
00010000
00000000
00001000
00000010
00001000
00000000
00000000
00000100
00000000
00000000
00000010
00000000
,
00010000
00000000
00000000
00001000
00000000
00000000
00000100
00000000
00000010
00000000
00000000
00001000
00000000
00000000
00010000
00000000
,
00011000
00000000
00000000
00000000
,
00001000
00000000
00000000
00100000
00000000
00000000
00110000
00000000
00000000
00000000
00000000
00000000
00000000
00000000
00000000
00000000
,
00100000
00000000
00000000
00001000
00000000
00000000
00011000
00000000
00000000
00000000
00000000
00000000
00000000
00000000
00000000
00000000
,
00010000
00000000
00000000
00000010
00000000
00000000
00001010
00000000
00000000
00000000
00000000
00000000
00000000
00000000
00000000
00000000
,
00000001
00000000
00000000
00000010
00000000
00000000
00000100
00000000
00010000
00000000
00000010
00000000
00001000
00000100
00001000
00000100
,
00000010
00000000
00000000
00001000
00000000
00000000
00010000
00000000
00100000
00000000
10000000
00000000
00010000
01000000
00010000
01000000
,
00100000
00000000
00000000
00010000
00000000
00000000
00001000
00000000
00010000
00000000
00000000
00000010
00000000
00000000
00000100
00000000
,
00001000
00000000
00000000
00010000
00000000
00000000
00001000
00000000
00100000
00000000
00000000
01000000
00000000
00000000
10010000
00000000
,
00100000
00000000
00000000
00001000
00000000
00000000
00010000
00000000
00000100
00000000
00001000
00000000
00000010
00000100
00000010
00000100
,
00000001
00000000
00000000
00000100
00000000
00000000
00000001
00000000
00001000
00000000
00000100
00000000
00001000
00000100
00001000
00000100
,
00001000
00000000
00000000
00010000
00000000
00000000
00100000
00000000
10000000
00000000
00100000
00000000
00010000
01000000
00010000
01000000
,
00010000
00000000
00000000
00001000
00000000
00000000
00000010
00000000
00000001
00000000
00000010
00000000
00000100
00000010
00000100
00000010
,
00001000
00000000
00000001
00000000
00000100
00000000
00001000
00000000
00010000
00000000
00100000
00000000
10000000
01000000
00100000
00010000
,
10000000
00000000
01000000
00000000
00010000
00000000
00001000
00000000
00000010
00000000
00000001
00000000
00001000
00000010
00000100
00000001
,
00000020
00000000
00000000
00000100
00000000
00000000
00000031
00000000
00002000
00000000
00000000
00010000
00000000
00000000
00003010
00000000
,
00020000
00000000
00000000
01000000
00000000
00000000
00031000
00000000
02000000
00000000
00000000
00100000
00000000
00000000
03100000
00010000
,
10000000
00000000
00000000
00000000
01000000
10000000
01000000
10000000
01000000
00000000
10000000
00000000
00100000
00000000
01100000
00000000
,
00000000
00000000
01010000
00000000
00010000
00100000
00010000
00100000
01000000
00000000
10000000
00000000
00100000
00000000
00010000
00000000
,
00001000
00000000
00000000
00000110
00000000
00000000
00000001
00000000
00000100
00000000
00000001
00000000
00000010
00000001
00000100
00001000
,
00000100
00000000
00000000
00001001
00000000
00000000
00000010
00000000
00000001
00000000
00001000
00000000
00000100
00000010
00000001
00001000
,
00000010
00000000
00001000
00000000
00001000
00000000
00010000
00000000
00100000
00000000
10000000
00000000
01000000
10000000
01000000
10000000
,
01000000
00000000
00010000
00000000
00010000
00000000
00001000
00000000
00000100
00000000
00000010
00000000
00000001
00000010
00000001
00000010
,
00000001
00000000
00000000
00000011
00000000
00000000
00000020
00000000
00001030
00000000
00000000
00011000
00000000
00000000
00020000
00000000
,
00130000
00000000
00000000
10100000
00000000
00000000
00200000
00000000
00310000
00000000
00000000
00011000
00000000
00000000
00000010
00001000
,
00020000
00000000
00002000
00000000
00000000
00000000
00000000
00033000
,
00000000
00000000
00000000
00000000
;
#NOTES:
     dance-double:
     :
     Challenge:
     17:
     :
00000000
00000000
00000000
00000000
,
00000000
00000000
00000000
00000000
,
00000000
00000000
00000000
00000000
,
00000000
00000000
00000000
00000000
,
00000000
00000000
00000000
00000000
,
00000000
00000000
00000000
00000000
00000000
00000000
00000000
00000000
00000000
00000000
00000000
00000000
00000000
00000000
00001000
00010000
,
00001000
00000000
00000100
00000000
00000100
00000000
00000001
00000000
00000100
00000000
00000100
00000000
00001000
00000000
00010000
00001000
,
00010000
00000000
01000000
00000000
01000000
00000000
10000000
00000000
01000000
00000000
01000000
00000000
00010000
00001000
00010000
00001000
,
00010000
01000000
10000000
00010000
10000000
01000000
00010000
00001000
00010000
00001000
00000100
00000001
00001000
00000001
00000100
00001000
,
00020000
00000000
00000000
00000000
00030000
00000000
00000000
00000000
00000000
00000000
00000000
00000000
10010000
00000000
01000000
00100000
,
01000000
00000000
10000000
00000000
11000000
00000000
00000000
00000000
01010000
00000000
00100000
00001000
00010000
00000000
00000000
00000000
,
00001000
00000000
00010000
00000000
00000100
00000000
00000010
00000001
00001000
00000000
00000010
00000000
00000100
00000010
00000100
00000010
,
00000100
00000000
00000001
00000000
00000101
00000000
00000000
00000000
00001100
00000000
00000000
00010000
00001000
00000000
01000000
00100000
,
01000000
00000000
00010000
00000000
10000000
01000000
00100000
00010000
00000000
00000000
00011000
00000000
00001000
00000100
00000010
00000001
,
00000000
00000000
00000100
00000000
00000110
00000000
00000000
00000000
00010010
00000000
00000000
00001000
00000100
00000000
00010000
00000000
,
00101000
00000000
00010000
00000000
10000000
01000000
00010000
00001000
00010000
00000000
00001000
00000000
00010000
00001000
00000010
00000001
,
00000100
00000000
00000100
00000000
00001000
00000000
00001000
00000000
00010000
00000000
00000000
01010000
00000000
00000000
01000000
10000000
,
00010000
01000000
00001000
00010000
00000010
00001000
00000001
00000000
00000100
00000010
00010000
00001000
01000000
00100000
10000000
00000000
,
10100000
00000000
00000000
00000000
11000000
00000000
00000000
00000000
01010000
00000000
00000000
00010000
00001000
00000000
00000100
00000000
,
00000001
00000000
00000010
00000000
00000001
00000000
00000100
00001000
00010000
00000000
00001000
00000000
00010000
01000000
10000000
00100000
,
01000000
00000000
00100000
00000000
01010000
00000000
00000000
00000000
00011000
00000000
00000000
00001000
00000010
00000000
00000100
00000000
,
00000100
00000000
00000010
00000000
00000001
00001000
00000010
00010000
00001000
00000000
00100000
00000000
00001000
01000000
00010000
20000000
,
00000000
00000000
30100000
00000000
01010000
00000000
00000000
00000000
00101000
00000000
00000000
00010000
00000100
00000000
00000010
00000000
,
00000101
00000000
00000010
00000000
00001000
00000000
00000100
00010000
00000010
00000000
00000100
00000000
00001000
00010000
00100000
01000000
,
10000000
00000000
10000000
00000000
01000000
00000000
01000000
00000000
00011000
00000000
00000000
00011000
00000000
00000000
00010000
00000100
,
00000010
00000000
00000000
00000110
00000000
00000000
00000010
00000001
00000100
00000000
00000000
00001010
00000000
00000000
00001001
00000000
,
00000100
00000000
00001000
00000000
00010000
00000000
00100000
10000000
00100000
00000000
10000000
00000000
01000000
00000000
00010000
00001000
,
00010000
00000000
00001000
00000000
00000010
00000000
00000001
00000100
00000001
00000000
00000100
00000000
00001000
00010000
00100000
01000000
,
00010000
00000000
00100000
00000000
10000000
00000000
00100000
00001000
00010000
00000000
01000000
00000000
10000000
00000000
00100000
00010000
,
00100000
00000000
00010000
00000000
00001000
00000000
00000100
00000001
00000100
00000000
00000001
00000000
00000010
00001000
00000010
00000100
,
00000001
00000000
00000001
00000000
00000100
00000000
00000100
00000000
00000010
00000001
00000100
00000010
00001000
00000100
00010000
00000000
,
00001000
00000000
00001000
00000000
01000000
00000000
01000000
00000000
00100000
10000000
01000000
00100000
00010000
01000000
00010000
00100000
,
00001000
00010000
00000100
00000010
00000001
00000100
00000010
00001000
00000100
00010000
00001000
00100000
01000000
10000000
00100000
01000000
,
02200000
00000000
00000000
00000000
00000000
00000000
00000000
00000000
03300000
00000000
00000000
00000000
10000000
00010000
10000000
00010000
,
10000000
00000000
01000000
00000000
00100000
00000000
01000000
00100000
00010000
00000000
00100000
00000000
00001000
00000000
00100000
00001000
,
00010000
00000000
00000010
00000000
00001000
00000000
00000010
00000100
00000001
00000000
00000010
00000000
00000100
00000000
00000010
00000000
,
00001000
00000000
00010000
00000000
01000000
00000000
10000000
00010000
10000000
00000000
00100000
00010000
00000000
00001000
00000010
00000000
,
00000011
00000000
00000000
00000101
00000000
00000000
00001100
00000000
00010000
00000000
00100000
00000000
10000000
00000000
01000000
00100000
,
01000000
00000000
00100000
00000000
00010000
00000000
00100000
01000000
00010000
00000000
00000010
00000000
00001000
00000000
00000010
00000100
,
00000001
00000000
00000010
00000000
00000100
00000000
00000010
00001000
00010000
00000000
00100000
00000000
01000000
00000000
00100000
10000000
,
01000000
00000000
00010000
00000000
00001000
00000000
00000100
00000000
00000101
00000000
00000000
00000011
00000000
00000000
00001010
00000000
,
00010100
00000000
00000000
00101000
00000000
00000000
00010000
01000000
00100000
00000000
10000000
01000000
00000000
00010000
01000000
00100000
,
01000000
00000000
00100000
00000000
11000000
00000000
00100000
00000000
01010000
00000000
00100000
00000000
01001000
00000000
00010000
00001000
,
00000100
00000000
00000010
00000000
00000101
00000000
00000010
00000000
00001100
00000000
00000010
00000000
00010100
00000000
00001000
00010000
,
01000000
00000000
00100000
00000000
11000000
00000000
00100000
00001000
00010000
00000000
00000010
00000000
00000101
00000000
00000010
00000100
,
00001000
00000000
00001000
00010000
00000000
00010000
01000000
00000000
10000000
00000000
00100000
00000000
00010000
00000000
00001000
00010000
,
00001000
00000000
00001000
00000000
00010000
00000000
00010000
00000000
00000100
00001000
00000001
00000100
00000010
00001000
00000100
00000000
,
00010000
00000000
00010000
00000000
00001000
00000000
00001000
00000000
00100000
00010000
10000000
00100000
01000000
00010000
00100000
00000000
,
00001000
00010000
00000100
00001000
00000010
00000100
00001000
00010000
01000000
00000000
00000000
11000000
00000000
00000000
01010000
00000000
,
00001000
00100000
00010000
01000000
00001000
00010000
00000010
00001000
00000100
00000010
00000001
00000100
00000010
00001000
00000100
00010000
,
00011000
00000000
00000000
00000000
,
01010000
00000000
00000000
00101000
00000000
00000000
00010100
00000000
00000000
00000000
00000000
00000000
00000000
00000000
00000000
00000000
,
00000101
00000000
00000000
00001010
00000000
00000000
00010100
00000000
00000000
00000000
00000000
00000000
00000000
00000000
00000000
00000000
,
00110000
00000000
00000000
00011000
00000000
00000000
00001100
00000000
00000000
00000000
00000000
00000000
00000000
00000000
00000000
00000000
,
00011000
00000000
00000000
00001000
00000010
00000000
00000001
00000000
00001000
00000100
00000010
00000001
00000100
00000010
00001000
00000100
,
00010000
00000000
00000000
00010000
00100000
00000000
10000000
00000000
00010000
00100000
01000000
10000000
00100000
01000000
00010000
00100000
,
00001000
00000000
00000000
00001000
00000100
00000000
00001000
00000000
00010000
00000000
00000000
00010000
00100000
00000000
00010000
00001000
,
00011000
00000000
00000000
00001100
00000000
00000000
00000100
00000010
00000100
00000000
00000000
00000011
00000000
00000000
00000001
00001000
,
00000001
00000000
00000000
00000001
00000100
00000000
00000110
00000000
00001000
00000000
01000000
00001000
00010000
00001000
00100000
00001000
,
00010000
00000000
00000000
00010000
01000000
00000000
01100000
00000000
00010000
00000000
00100000
00001000
01000000
00010000
00100000
01000000
,
10000000
00000000
00000000
10000000
01000000
00000000
01100000
00000000
00010000
00000000
00000100
00010000
00001000
00010000
00000010
00010000
,
00001000
00000000
00000000
00001000
00000100
00000000
00000110
00000000
00001000
00000000
00000100
00010000
00000010
00001000
00000100
00000010
,
00000001
00000000
00000001
00000000
00000100
00000000
00000010
00000000
00001000
00000100
00010000
00001000
00100000
00010000
01000000
00100000
,
10000000
00000000
10000000
00000000
01000000
00000000
00100000
00000000
00010000
01000000
00001000
00010000
00000010
00001000
00000100
00000010
,
00000001
00000000
00000000
00000101
00000000
00000000
00001100
00000000
00011000
00000000
00000000
00110000
00000000
00000000
10000000
00100000
,
10000000
00000000
00000000
11000000
00000000
00000000
00010000
00001000
00000100
00000000
00000000
00000101
00000000
00000000
00000011
00000000
,
00000010
00001000
00010000
00001000
00000010
00000000
00000001
00000100
00001000
00000000
00011000
00000000
00000000
00000000
00201000
00000000
,
00000000
00000000
00310000
00000000
10000000
01000000
00100000
01000000
10000000
00000000
00010000
01000000
00100000
01000000
00010000
00000000
,
00100000
00000000
00001000
00010000
00001000
00000000
00000010
00000000
00001000
00010000
00001000
00000100
00000001
00000100
00001000
00000000
,
00100000
00000000
00001000
00010000
00001000
00000000
00000010
00000000
00001000
00010000
01000000
10000000
01000000
00010000
00001000
00000000
,
00010000
00000000
00010000
00000000
00001000
00000000
00001000
00000000
00000100
00000010
00001000
00000100
00000010
00000001
00000100
00001000
,
00010000
00000000
00010000
00000000
00001000
00000000
00001000
00000000
01000000
00100000
10000000
01000000
00100000
00001000
00010000
00000100
,
00001000
00000000
00000000
00000110
00000000
00000000
00000001
00000100
00001000
00000000
00000000
00011000
00000000
00000000
00010000
00100000
,
10000000
00010000
00100000
00001000
00010000
00001000
00000010
00000001
00001000
00000010
00000100
00001000
00010000
00100000
01000000
00010000
,
00000000
00000000
20020000
00000000
00000000
00000000
00000000
30030000
,
00000000
00000000
00000000
00000000
;
