
//----- song ID: pube -----//
#TITLE:Puberty Dysthymia;
#ARTIST:BEMANI Sound Team "person09";
#BANNER:Puberty Dysthymia.png;
#BACKGROUND:Puberty Dysthymia-bg.png;
#CDTITLE:./CDTitles/DDR A.png;
#MUSIC:Puberty Dysthymia.ogg;
#SAMPLESTART:84.924;
#SAMPLELENGTH:15;
#DISPLAYBPM:70:210;
#BPMS:0=70,7.5=69,8=68,8.5=67,9=68,9.5=69,10=70,10.5=71,11=72,11.5=73,12=74,12.5=75,13=76,13.5=77,14=78,14.5=79,15=80,16=78,16.5=69.7,18=210,259.5=200,260=190,260.5=180,261=170,261.5=160,262=210;
#NOTES:
     dance-single:
     :
     Beginner:
     4:
     :
0000
0000
0000
0000
,
0000
0000
0000
0000
,
0000
0000
0000
0000
,
0000
0000
0000
0000
,
0000
0000
1000
0000
,
0000
0010
0000
0000
,
0000
0100
0000
0000
,
0100
0000
0000
0000
,
0000
0010
0000
0000
,
1000
0000
0000
0000
,
0001
0000
0000
0001
,
0000
0000
0000
0000
,
0010
0000
0000
0100
,
0000
0000
0000
1000
,
0000
0000
1000
0000
,
0000
0000
0000
0010
,
0000
0000
0100
0000
,
0000
0000
0001
0000
,
0000
1000
0000
0000
,
0010
0000
0000
0200
,
0000
0300
0000
0000
,
0000
0000
0000
0000
,
0000
1000
0000
0000
,
0000
0001
0000
0000
,
0000
0100
0000
0000
,
0000
0010
0000
0010
,
0000
0000
0000
0100
,
0000
0000
0000
0001
,
0000
1000
0000
0010
,
0000
0100
0000
0001
,
0000
0010
0000
0100
,
0000
0000
0000
0000
,
0000
1000
0000
0000
,
0000
0000
0000
0001
,
0000
0000
0000
0000
,
0000
0010
0000
0000
,
0000
0000
0000
0100
,
0000
0100
0000
0010
,
0000
0010
0000
0001
,
0000
1000
0000
0001
,
0000
0010
0000
0010
,
0000
0100
0000
0100
,
0000
1000
0000
0001
,
0000
1000
0000
0001
,
0000
0100
0000
0010
,
0000
0100
0000
0100
,
0000
0010
0000
0010
,
0000
1000
0000
0000
,
0000
0000
0000
0001
,
0000
0000
0000
0000
,
0100
0000
0000
0000
,
0000
0000
0010
0000
,
0000
0000
0000
0000
,
1000
0000
0000
0000
,
0000
0000
0100
0000
,
0000
0000
0000
0010
,
0000
0000
0000
0000
,
0000
0001
0000
0000
,
0000
0000
0000
0010
,
0000
0000
0100
0000
,
0000
0010
0000
0000
,
0000
0000
0000
1000
,
0000
0000
0001
0000
,
0000
1000
0000
0000
,
0020
0030
0000
0000
,
0000
0000
1000
0000
,
0000
0010
0000
0000
,
0100
0000
0000
0001
,
0000
0000
0010
0000
,
0000
0100
0000
0000
,
1000
0000
0000
0001
,
0000
0000
0100
0000
,
0010
0010
0000
0000
,
0100
0000
0010
0010
,
0000
0000
1000
0000
,
0000
0001
0000
0000
,
0100
0000
0000
0010
,
0000
0000
1001
0000
,
0000
0100
0000
0000
,
0010
0000
0000
0100
,
0000
0000
0000
0001
,
0000
0000
0001
0000
,
0000
0000
0000
1000
,
0000
0000
0100
0000
,
0000
0010
0000
0000
,
0001
0000
0000
0100
,
0000
0000
1001
0000
,
0000
0000
0000
0000
,
0000
0010
0000
0000
,
0000
0000
0000
0000
;
#NOTES:
     dance-single:
     :
     Easy:
     8:
     :
0000
0000
0000
0000
,
0000
0000
0000
0000
,
0000
0000
0010
0000
0100
0100
0000
0001
,
0001
0000
1000
1000
0000
0001
0001
0000
,
0010
0100
0000
1000
0001
0000
0000
0010
,
0000
0100
1000
0100
,
0001
0000
0100
0000
0000
0010
0000
0000
,
0200
0000
0000
0300
,
0000
0000
1000
0000
0000
0010
0000
0000
,
1000
0100
0001
0100
,
0010
0000
0000
0001
0000
0000
0200
0000
,
0000
0000
0300
0000
,
0010
0000
0000
0100
0000
0000
0001
0000
,
0010
0100
1000
0001
,
0000
1000
0000
0000
0020
0000
0000
0000
,
0000
0030
0000
0100
,
0000
0001
0000
0000
0010
0000
0100
0000
,
1000
0000
0001
0000
0100
0000
0000
0001
,
0000
0010
0001
1000
,
0100
0010
0002
2000
,
0000
0000
0000
0000
,
0000
3003
0000
0000
,
0000
0010
0100
0001
,
0000
1000
0100
1000
,
0000
0010
0100
0001
,
0010
0110
1001
1000
,
0010
0100
0000
0001
,
0010
0100
0000
1000
,
0000
0100
0001
0100
,
0000
0010
1000
0010
,
0000
1001
0110
0002
,
0000
0103
0000
0010
,
1000
0200
0000
0310
,
0000
0001
1000
0020
,
0000
0130
0000
0010
,
1000
0002
0000
0013
,
0000
0100
1000
0010
,
0000
0100
0001
1000
,
0000
0001
1000
0010
,
0100
0001
0100
0010
,
0010
1000
0000
0001
,
0010
1000
0000
0010
,
0001
0100
0010
1000
,
0001
0100
0010
0001
,
1000
0010
1000
0100
,
0010
0001
0000
1000
,
0000
0010
0000
0100
,
0110
0000
0020
0000
0000
0030
0000
0000
,
0010
1000
0010
0200
,
0000
0300
0000
0000
0001
0000
1000
0000
,
0002
0000
0000
0003
0000
0000
0001
0000
,
0010
0000
0001
0000
2000
0000
0000
3000
,
0000
0010
0100
0110
,
0002
0000
0000
0003
0000
0000
0010
0000
,
0100
0000
1000
0000
0020
0000
0000
0030
,
0000
0100
0001
0020
,
0000
0030
0000
0000
0100
0000
1000
0000
,
0001
0000
0200
0000
0000
0300
0000
0000
,
0010
0100
0001
0010
,
0010
0000
0100
0100
,
0000
1000
1000
0000
,
0000
0000
0000
0010
,
0010
0000
0100
0100
,
0000
0001
0001
0000
,
2000
0020
0000
0000
,
0000
3030
0001
0001
,
0100
0010
0000
0000
,
1000
1000
0100
0010
,
0000
0000
0001
0010
,
0100
1000
0000
0000
,
0010
0100
0001
1000
,
0010
0010
1000
0000
,
0001
1000
0010
0100
,
0001
0000
0010
0100
,
1000
0001
0100
0100
,
0110
0001
0001
1001
,
0010
0010
0110
1000
,
1000
1001
0110
0000
,
0000
2002
0000
3003
,
0010
0000
0000
0100
0000
0000
0001
0000
,
0010
0100
1000
0001
,
0000
0100
0000
0000
0020
0000
0000
0000
,
0030
0000
0000
1000
,
0000
0100
0000
0000
0010
0000
0001
0000
,
0100
0000
0010
0000
0000
1000
0000
0000
,
0100
0010
0001
1000
,
0100
0010
2002
0000
,
3003
0000
0000
0000
,
0000
0000
0010
0000
0000
0100
0000
0000
,
0000
0000
0000
0000
;
#NOTES:
     dance-single:
     :
     Medium:
     13:
     :
0000
0000
0000
0000
,
0000
0000
0000
0000
,
0000
0000
0000
0000
0001
0000
0010
0100
1000
0000
0010
0000
0100
0001
0010
0000
,
0100
0000
1000
0010
0100
0000
0001
0000
1000
0100
0001
0000
0100
0000
0000
0000
,
1000
1001
0000
0001
0011
0000
0000
1100
,
0000
1001
0110
1010
,
0011
0000
1100
0000
0000
0101
0000
0000
,
2002
3000
0203
0320
,
0130
0000
0101
0000
0000
1010
0000
0000
,
0110
1001
0101
1100
,
0011
0000
0000
1010
0000
0000
2002
0000
,
0003
3020
0230
0310
,
0011
0000
0000
1010
0000
0000
1100
0000
,
0101
0011
1100
1010
,
0000
0110
0000
0000
0022
0000
0030
0000
,
2003
3020
0130
0011
,
0000
0101
0000
0000
1100
0000
0011
0000
,
0101
0000
1010
0000
0011
0000
0000
1100
,
0000
0110
0011
1010
,
0110
1100
0101
2002
,
0000
0000
0000
0000
,
0000
0000
0000
3003
,
0000
0000
0010
0000
0100
0001
0100
0000
,
0001
0000
0010
0000
0100
1000
0100
0000
,
0010
0000
0001
1000
0100
0000
1000
0001
,
0100
0110
1001
0002
,
0103
0010
2000
0000
3002
0000
0023
0000
,
0130
0010
0002
0000
2003
0000
3010
0001
,
0020
0000
1030
0100
2000
0000
3010
1000
,
0200
0000
0301
0100
2000
0000
3001
0100
,
0020
0000
0130
0000
1001
0000
0002
0010
,
0000
0103
0200
0000
1000
0000
0302
0000
,
0013
0100
2000
0010
0000
3100
0200
0000
,
0001
0000
2300
0000
3010
0100
0020
1000
,
0000
0130
0200
0000
0302
0000
0013
0100
,
1000
0001
0010
0020
0000
0031
0002
0000
,
2003
0010
3001
0210
,
0301
0100
2000
0000
3002
0000
0023
0000
,
1030
0100
0002
0000
2003
0000
3010
0001
,
0100
0010
1000
0100
0010
0001
1000
0000
,
0110
0000
0002
0000
1003
0010
0002
0000
,
2003
0000
3200
0000
0301
0010
2000
0000
,
3002
0000
0103
1000
0010
0100
0001
0010
,
0100
0000
1000
0100
0010
0100
1000
0010
,
0100
0000
0001
0010
0100
1000
0100
0001
,
0100
1000
0020
0000
0130
0001
0020
0000
,
0130
1000
0020
0000
0031
0010
0100
0000
,
1001
0000
0002
0000
1003
0020
0000
1030
,
0002
0203
0302
2003
,
3001
0200
0000
0301
1000
0000
0001
0000
,
0020
0000
0130
2000
0000
3100
0020
0000
,
0032
0000
0023
0000
0230
0000
1300
0002
,
0000
1003
0020
0000
0001
0000
2030
0000
,
3200
0000
0301
0200
0000
1300
0020
0000
,
0230
0000
0302
0000
0023
0000
1030
0020
,
0000
0031
0100
0000
0010
0000
0200
0000
,
0301
0020
0000
0130
2000
0000
3020
0000
,
0230
0000
0302
0000
0013
2000
0000
3001
,
0200
0000
2300
0000
3010
0000
0001
0010
,
0001
0010
1000
0000
0001
0100
0001
0100
,
1000
0000
0001
0010
1000
0010
0001
0000
,
0010
1000
0100
0010
0001
0000
1000
0010
,
0001
0100
2000
0000
3001
0010
1000
0100
,
0002
0000
1003
0010
0001
1000
0200
0000
,
0320
0000
0032
0000
1003
0010
0100
0001
,
0010
0100
1000
0010
0100
0000
0001
0010
,
0001
1000
0010
0100
0001
0000
0011
0000
,
1100
0000
0010
0001
0010
0100
1000
0001
,
0100
0001
1000
0010
0100
0000
0001
0100
,
0010
1000
0100
1000
0010
0000
1100
0000
,
0011
0000
1000
0010
0100
0001
0010
0100
,
0010
0001
1000
0000
0101
0000
1100
0000
,
0001
0010
0100
0000
0001
1000
0010
0000
,
0011
0000
0101
0000
1000
0100
0001
0000
,
0100
1000
0010
0000
0100
0010
1000
0010
,
0001
0001
0010
1000
0100
0010
0001
0001
,
0010
0100
0001
0100
1000
1000
0010
0100
,
0001
0010
1000
0010
0001
0000
0000
0000
,
0000
0220
0000
0330
,
1010
0000
0000
0011
0000
0000
0101
0000
,
0011
1100
0110
1001
,
0000
0011
0000
0000
0210
0000
0001
0000
,
1000
0010
0301
1100
,
0000
0011
0000
0000
0110
0000
1010
0000
,
0011
0000
1010
0000
0000
1100
0000
0000
,
0110
0101
1100
0011
,
1100
0110
2002
0000
,
0000
0000
0000
0000
,
3003
0000
0110
0000
0000
1001
0000
0000
,
0000
0000
0000
0000
;
#NOTES:
     dance-single:
     :
     Hard:
     17:
     :
0000
0000
0000
0000
,
0000
0000
0000
0000
,
0000
0000
0000
0000
1000
0100
0010
0001
1000
0010
0100
0001
0010
1000
0010
0001
,
0100
0010
0001
1000
0100
0001
0010
1000
0001
0100
0010
0100
2000
0000
0000
0000
,
3001
0000
0210
0000
0000
0000
0310
0000
1000
0000
0001
0100
0001
0000
0010
0000
,
0100
1000
0100
0000
1000
0000
0010
0000
0100
0000
0001
0000
0010
0000
1000
0000
,
0001
0000
0100
0000
0010
0000
0001
1000
0001
0000
0010
0000
0100
0000
0000
0000
,
1002
0000
0000
0000
0000
0000
0000
0000
0000
0000
0000
0000
0000
0000
0000
0000
0000
0000
0000
0000
0000
0000
0000
0000
0000
0000
0000
0000
0000
0000
0000
0000
0000
0000
0000
0000
0000
0000
0000
0000
0000
0000
0000
0000
0000
0000
0000
0003
0010
0000
0000
0000
0000
0000
0000
0000
0000
0000
0000
0000
0000
0000
0000
0000
0100
0000
0000
0000
0000
0000
0000
0000
0000
0000
0000
0000
0000
0000
0000
0000
1000
0000
0000
0000
0000
0000
0000
0000
0000
0000
0000
0000
0000
0000
0000
0000
0010
0000
0000
0000
0000
0000
0000
0000
0000
0000
0000
0000
0000
0000
0000
0000
0100
0000
0000
0000
0000
0000
0000
0000
0000
0000
0000
0000
0000
0000
0000
0000
0001
0000
0000
0000
0000
0000
0000
0000
0000
0000
0000
0000
0000
0000
0000
0000
0100
0000
0000
0000
0000
0000
0000
0000
0000
0000
0000
0000
0000
0000
0000
0000
0010
0000
0000
0000
0000
0000
0000
0000
0000
0000
0000
0000
0000
0000
0000
0000
1000
0000
0000
0000
0000
0000
0000
0000
0000
0000
0000
0000
0000
0000
0000
0000
,
0100
0000
0010
0000
0001
0000
0100
0010
0100
0000
0001
0000
1000
0010
1000
0000
,
0001
0100
0010
1000
0100
0001
1000
0010
,
0100
0000
0000
0000
0000
0000
0000
0000
0000
0000
0000
0000
0000
0000
0000
0000
0000
0000
0000
0000
0000
0000
0000
0000
1000
0000
0000
0000
0000
0000
0000
0000
0000
0000
0000
0000
0100
0000
0000
0000
0000
0000
0000
0000
0000
0000
0000
0000
1000
0000
0000
0000
0000
0000
0000
0000
0000
0000
0000
0000
0000
0000
0000
0000
0000
0000
0000
0000
0000
0000
0000
0000
0010
0000
0000
0000
0000
0000
0000
0000
0000
0000
0000
0000
0000
0000
0000
0000
0000
0000
0000
0000
0000
0000
0000
0000
0100
0000
0000
0000
0000
0000
0000
0000
0000
0000
0000
0000
0000
0000
0000
0000
0000
0000
0000
0000
0000
0000
0000
0000
0000
0000
0000
0000
0000
0000
0000
0000
0000
0000
0000
0000
0000
0000
0000
0000
0000
0000
0000
0000
0000
0000
0000
0000
2001
0000
0000
0000
0000
0000
0000
0000
0000
0000
0000
0000
0000
0000
0000
0000
0000
0000
0000
0000
0000
0000
0000
0000
0000
0000
0000
0000
0000
0000
0000
0000
0000
0000
0000
0000
0000
0000
0000
0000
0000
0000
0000
0000
0000
0000
0000
3000
,
0010
0000
0100
0000
0001
0000
0010
0000
0100
0000
1000
0000
0100
0000
0010
0000
0001
0000
0100
0000
0000
0010
0000
0000
,
0110
1000
0001
0011
0000
0100
1100
0100
,
0110
0100
0101
0100
1100
1000
1001
0100
,
0010
0000
0000
0110
0000
0000
0000
0000
0000
0002
0000
0000
2000
0000
0000
0003
0000
0000
3010
0000
1000
0000
0100
0000
,
0010
0000
0001
0000
0100
0000
0010
0000
1000
0000
0100
0000
1000
0000
0000
0001
0000
0000
0110
0000
0000
0001
0000
0000
,
1000
1100
0000
0010
0011
0010
0110
0010
,
1010
0010
0011
0001
1001
0010
0100
0110
,
0000
1000
1100
1000
1001
1000
1010
0000
,
1001
0001
0101
0001
0011
0000
2002
0000
,
0000
0000
0000
0000
,
0000
0000
0000
0000
,
3003
0000
0100
1000
0001
0010
1000
0000
,
0001
0000
0100
0000
0010
0001
0100
0000
,
1000
0000
0001
0010
1000
0100
0010
1000
,
0001
0100
1100
0000
0011
0000
2001
0000
,
3010
0100
0102
0000
0010
0000
2003
0000
,
3010
0100
0201
0000
0310
0000
2000
0010
,
3010
0001
1000
0100
0001
0010
2000
0010
,
3010
0001
0100
1000
0001
0010
0100
0001
,
1000
0100
0011
0000
1100
0000
2000
0000
,
3000
0001
0020
0000
0031
0100
0010
1000
,
0001
0010
0200
0000
0300
0010
0002
0000
,
0000
1003
0010
0100
0001
0010
0200
0000
,
0300
1000
0010
2000
0000
3100
0001
0100
,
1000
0001
0010
0002
0000
0000
1003
0020
,
0100
0000
1030
0100
0010
0001
2000
0000
,
3001
0000
0100
0010
0200
0000
0000
0000
0302
0000
0000
0000
0200
0003
0000
0000
,
0310
0000
1000
0100
2000
0000
0000
0000
3002
0000
0000
0000
1003
0000
0001
0100
,
0001
0010
0001
0100
1000
0100
0110
0000
,
1001
0000
0000
0000
0120
0000
0000
0000
1030
0000
0010
0100
0020
0000
0000
0000
,
0032
0000
0000
0000
2003
0000
0000
0000
3100
0000
0010
0001
0020
0000
0000
0000
,
0230
0000
0000
0000
0310
0000
0001
0010
0001
0000
0010
0000
0100
0000
1000
0000
,
0100
0000
0001
0000
0010
0000
1000
0010
1000
0000
0010
0000
0100
0000
0001
0000
,
0100
0000
1000
0000
0010
0000
0001
0010
0001
0000
1000
0000
0100
0000
0001
0000
,
0010
1000
0020
0000
1030
0010
0002
0000
,
1003
0010
0002
0000
1003
0100
0002
0000
,
0023
0000
2030
0000
3001
0101
0000
1000
,
0010
0100
0001
0010
0011
0000
2100
0000
,
3001
0011
0000
1000
0110
0000
1001
0000
,
0120
0000
1030
1001
0000
0010
1000
0001
,
0100
0010
0101
0000
2010
0000
3001
0101
,
0000
1000
1100
0000
0011
0000
1001
0000
,
0120
0000
0000
0000
0031
0000
1002
0000
0000
0000
0103
0000
0010
0000
1000
0001
,
0100
0001
0011
0000
2100
0000
3001
0012
,
0000
0103
0110
0000
1001
0000
2100
0000
,
3010
0000
0120
0000
0000
0000
1030
0000
0001
0000
0100
0001
1000
0000
0010
1000
,
0001
0000
0210
0000
0301
1002
0000
0013
,
0100
0000
1000
0100
0010
0000
0001
0000
1001
0000
0000
0000
1000
0000
1000
0000
,
0002
0000
0000
0000
0013
0100
1000
0000
0001
0000
0001
0000
2000
0000
0000
0000
,
3010
0100
0001
0000
1000
0000
1000
0000
0002
0000
0000
0000
0013
0000
0010
0000
,
0001
0000
1000
0001
0100
0000
0001
0100
0010
0000
1000
0001
0010
0100
0010
0000
,
0002
0000
0000
0000
0013
0000
0010
0000
0001
1000
0010
0000
2000
0000
0000
0000
,
3100
0000
0100
0000
1000
0001
0100
0000
0020
0000
0000
0000
0130
0000
0100
0000
,
0010
0100
0010
0000
0101
0000
0000
0000
1010
0000
0010
0000
0011
0000
0001
0000
,
0101
0000
1001
0000
1010
0000
0101
0000
2001
0000
0000
0000
3010
0000
0100
0001
,
0100
0000
0010
0000
1002
0000
0000
0000
0013
0000
0100
1000
0100
0000
0010
0000
,
2001
0000
0000
0000
3010
0000
0100
0001
0100
0000
0010
0000
1000
0000
0100
0000
,
0010
0000
0001
0000
0100
0000
0010
0000
2010
0000
0000
0000
3100
0000
0010
0100
,
0010
0000
0001
0000
0012
0000
0000
0000
0103
0000
0010
0100
0010
0000
1000
0000
,
2010
0000
0000
0000
3100
0000
0010
0100
0010
0000
0001
0000
0010
0000
0100
0000
,
1000
0100
0010
0001
0011
0000
1100
0001
,
1000
0010
0100
0000
0110
0000
0000
0000
1001
0000
1000
0000
0010
1000
0001
0000
,
0101
0000
0000
0000
1100
0000
0100
0000
0010
0100
1000
0000
1001
0000
0000
0000
,
0110
0000
0100
0000
0001
0000
0010
0000
0100
0000
1000
0010
1000
0000
0001
0000
,
0010
0000
0100
0000
0010
0000
0001
0100
0001
0000
1000
0000
0100
0000
0010
0000
,
0100
0000
0010
0001
0010
0000
0100
0000
1000
0000
0010
0000
0100
0000
0010
1000
,
0010
0100
0001
0010
0110
0000
0000
0000
,
0000
2002
0000
3003
,
1100
0000
0010
0011
0000
0100
1100
0100
,
0110
0100
0101
0100
1100
1000
1001
0000
,
0100
0000
0000
0110
0000
0000
0000
0000
0000
0001
0000
0000
2001
0000
0000
0000
0000
0000
3010
0000
1000
0000
0001
0000
,
0010
0000
0000
0000
0001
0000
0000
0000
1000
0000
0000
0000
0100
0000
0000
0000
1000
0000
0000
0000
0001
0000
0000
0000
0100
0000
0000
0000
0000
0000
0010
0000
0000
0000
0000
0000
1000
0000
0000
0000
0000
0000
0001
0000
0000
0010
0000
0000
,
0001
0000
0100
0000
0001
1000
0001
0000
0100
0000
0100
0000
0110
0000
0100
0000
,
0101
0000
0100
0000
0001
0000
1000
0100
1000
0000
0010
0000
1000
0001
1000
0000
,
0100
0100
0110
0100
1100
0100
0101
0000
,
1100
0110
2002
3003
,
0010
0100
0010
0100
1000
0001
0100
1000
,
0001
0010
0110
0000
0000
1001
0000
0000
,
0000
0000
0000
0000
;
#NOTES:
     dance-double:
     :
     Easy:
     8:
     :
00000000
00000000
00000000
00000000
,
00000000
00000000
00000000
00000000
,
00000000
00000000
10000000
00000000
00010000
00100000
00000000
01000000
,
00010000
00000000
00001000
00000100
00000000
00000010
00000100
00000000
,
00000001
00001000
00000000
00000100
00010000
00000000
00000000
00010000
,
00000000
00010000
00001000
00000100
,
00000010
00000000
00001000
00000000
00000000
00000001
00000000
00000000
,
00000020
00000000
00000030
00000000
,
00000000
00000000
00000100
00000000
00000000
00010000
00000000
00000000
,
00001000
00100000
01000000
10000000
,
00010000
00000000
00000000
01000000
00000000
00000000
00200000
00000000
,
00000000
00300000
00000000
00000000
,
10000000
00000000
00000000
01000000
00000000
00000000
00100000
00000000
,
00010000
00100000
01000000
00010000
,
00000000
00001000
00000000
00000000
00000200
00000000
00000000
00000000
,
00000300
00000000
00000000
00000010
,
00000000
00000001
00000000
00000000
00000100
00000000
00000010
00000000
,
00001000
00000000
00000001
00000000
00000100
00000000
00000000
00001000
,
00000000
00010000
01000000
10000000
,
00100000
01000000
00100000
20020000
,
00000000
00000000
00000000
00000000
,
00000000
30030000
00000000
00000000
,
00000000
10000000
00000000
00100000
,
01000000
00010000
00000000
00100000
,
01000000
10000000
00000000
00100000
,
00000000
00010000
00001000
00000100
,
00000000
00000010
00000010
00000001
,
00000000
00001000
00001000
00000010
,
00000000
00001000
00000100
00010000
,
00000000
00000010
00010000
00001000
,
00000000
00100000
00010000
10000000
,
00000000
01000000
00000000
00100000
,
00010000
01000000
00000000
00100000
,
00000000
10000000
01000000
00010000
,
00000000
00001000
00000000
00000010
,
00000001
00001000
00000000
00000010
,
00000000
00001000
00000100
00010000
,
00000000
00001000
00100000
01000000
,
00000000
10000000
00100000
01000000
,
00000000
00010000
00000000
00001000
,
00010000
00000010
00000000
00000100
,
00000010
00001000
00000000
00000100
,
00000010
00000001
00000000
00000100
,
00000000
00001000
00000000
00010000
,
00000000
00100000
00000000
01000000
,
00100000
10000000
00000000
00010000
,
00000000
01000000
00000000
00100000
,
00000000
00000000
20020000
00000000
00000000
30030000
00000000
00000000
,
01000000
00100000
00001000
00200000
,
00000000
00300000
00000000
00000000
00001000
00000000
00010000
00000000
,
00000200
00000000
00000000
00000300
00000000
00000000
00001000
00000000
,
00000010
00000000
00000100
00000000
00000002
00000000
00000000
00000003
,
00000000
00000010
00000100
00010000
,
00002000
00000000
00000000
00003000
00000000
00000000
01000000
00000000
,
00010000
00000000
00100000
00000000
00020000
00000000
00000000
00030000
,
00000000
10000000
01000000
00200000
,
00000000
00300000
00000000
00000000
01000000
00000000
00100000
00000000
,
00010000
00000000
00200000
00000000
00000000
00300000
00000000
00000000
,
00001000
00010000
00000100
00002000
,
00003000
00000100
00000020
00000030
,
00000001
00000020
00000030
00000100
,
00001000
00000100
00010000
00002000
,
00003000
00100000
02000000
03000000
,
00100000
00020000
00030000
10000000
,
02000000
00200000
00000000
00000000
,
00000000
00000000
03300000
01000000
,
01000000
00010000
00000000
00001000
,
00000100
00000100
00000010
00000001
,
00000000
00000100
00000010
00000010
,
00001000
00000100
00000000
00010000
,
00001000
00001000
00100000
00010000
,
00000000
10000000
01000000
00000000
,
00100000
00010000
01000000
00010000
,
00100000
00000000
00001000
00010000
,
00001000
00000010
00000001
00000100
,
00000001
00001000
00000100
00001000
,
00000010
00010000
00000010
00010000
,
00001000
00010000
00011000
00000000
,
00000000
00022000
00000000
00033000
,
00100000
00000000
00000000
01000000
00000000
00000000
10000000
00000000
,
00100000
01000000
00010000
00100000
,
00000000
00001000
00000000
00000000
00020000
00000000
00000000
00000000
,
00000000
00030000
00000000
00001000
,
00000000
00010000
00000000
00000000
00000100
00000000
00000010
00000000
,
00000100
00000000
00001000
00000000
00000000
00000001
00000000
00000000
,
00000100
00000010
00000100
00000010
,
00010000
00000010
00002000
00000000
,
00003000
00000000
00000000
00000000
,
00000000
00000000
00010000
00000000
00000000
00001000
00000000
00000000
,
00000000
00000000
00000000
00000000
;
#NOTES:
     dance-double:
     :
     Medium:
     13:
     :
00000000
00000000
00000000
00000000
,
00000000
00000000
00000000
00000000
,
00000000
00000000
00001000
00000010
00001000
00000001
00000100
00001000
,
00010000
00000010
00001000
00000100
00010000
00001000
00200000
00000000
,
02300000
23000000
00000000
30010000
01100000
00000000
00000000
01001000
,
00000000
00011000
00010100
00000110
,
00000011
00000000
00001001
00000000
00000000
00010100
00000000
00000000
,
00012000
00000010
00010000
00003020
,
00000130
00000000
00001001
00000000
00000000
00010100
00000000
00000000
,
01001000
00110000
11000000
01100000
,
10010000
00000000
00000000
00101000
00000000
00000000
00021000
00000000
,
01000000
00001000
02030000
03100000
,
01100000
00000000
00000000
00101000
00000000
00000000
00011000
00000000
,
00010100
00000110
00000011
00001100
,
00000000
00010010
00000000
00000000
00020100
00000000
00001000
00000000
,
01000000
00001000
01030000
01100000
,
00000000
11000000
00000000
00000000
01010000
00000000
00110000
00000000
,
00011000
00000000
00001100
00000000
00000011
00000000
00000000
00001010
,
00000000
00001100
00011000
00101000
,
01010000
10100000
01100000
20020000
,
00000000
00000000
00000000
00000000
,
00000000
00000000
00000000
30030000
,
00000000
00000000
00010000
00000000
00100000
00001000
00010000
00000000
,
00000100
00000000
00000010
00000000
00000001
00000010
00000100
00000000
,
00001000
00000000
00000010
00000100
00001000
00000000
00010000
00100000
,
01000000
11000000
01010000
10000000
,
00100000
01000000
00001000
00000000
00010000
00000000
00001000
00000000
,
00000010
00000100
00001000
00000000
00000001
00000000
00000010
00000001
,
00000100
00000000
00000010
00001000
00000100
00000000
00010000
00001000
,
00100000
00000000
01000000
10000000
00100000
00000000
01000000
00001000
,
00100000
01010000
00011000
00002000
,
00000100
00000000
00010000
00000000
00003100
00001000
00010000
00000000
,
01000000
00020000
01000000
00001000
,
01030000
00010000
00001000
00000000
00000010
00000000
00002000
00000000
,
00000010
00000000
00010000
00000000
00003010
00001000
00010000
00001000
,
00100000
00001000
01000000
00100000
01000000
00000000
00002000
00000000
,
01000000
00100000
00013000
00200000
,
01000000
20300000
30020000
02030000
,
00100000
00000000
03020000
00000000
00032000
00000000
00003010
00000100
,
00000010
00010000
00001000
00000010
00001000
00010000
00001000
00000000
,
00001010
00000200
00000010
00000302
,
00002003
00003020
00000100
00002030
,
00023000
00000000
01030000
00100000
01000000
00000000
10000000
01000000
,
00010000
01000000
00100000
00001000
01000000
00000000
00010000
00100000
,
00001000
00010000
00001000
00000010
00000001
00000000
00000100
00000001
,
00000010
00000100
00001000
00000000
00000010
00010000
00001000
00000000
,
00010000
01000000
10000000
00000000
00100000
01000000
00010000
00000000
,
11000000
00000000
01010000
00000000
00010000
00100000
00000000
00100000
,
00002000
00003020
00000032
00000103
,
00000100
00001000
00000000
00001000
00020000
00000000
00230000
00000000
,
01300000
00000000
00010000
10000000
00000000
10000000
00020000
00000000
,
00230000
00000000
02300000
00000000
03100000
00000000
00100000
00010000
,
00000000
00010000
00002000
00000000
00003010
00000000
00000011
00000000
,
00001002
00000000
00000103
00001000
00000000
00001000
00020000
00000000
,
00030020
00000000
00000230
00000000
00002300
00000000
00013000
00001000
,
00000000
00001000
00200000
00000000
00302000
00000000
02003000
00000000
,
03100000
10000000
00000000
10000000
00020000
00000000
00230000
00000000
,
20300000
00000000
30200000
00000000
01300000
00010000
00000000
00010000
,
00002000
00003010
00000011
00001100
,
00010000
00001000
00000100
00000000
00000110
00000000
00000001
00000010
,
00001000
00000000
00011000
00000000
00100000
00001000
01000000
00000000
,
00100000
10000000
01000000
00100000
00001000
00010000
00100000
00000000
,
10000000
01000000
00010000
00000000
01100000
00000000
00001000
01000000
,
00010000
00000000
00101000
00000000
00010000
00001000
00000010
00000000
,
00000001
00000000
00000110
00000000
00001010
00000000
00001000
00010000
,
00001000
00100000
00001000
01000000
00200000
00000000
10300000
01000000
,
10000000
00010000
00100000
00000000
01000000
00010000
00001000
00010000
,
00001000
00000000
00000100
00000010
00001000
00000001
00000010
00000100
,
00010000
00001000
00000100
00000010
00001000
00000000
00000001
00000010
,
00000100
00010000
00001000
00000000
00010000
00100000
01000000
00010000
,
01000000
00000000
00100000
10000000
01000000
00100000
00010000
00000000
,
00101000
00011000
00010200
00000010
,
00001300
00000010
00000200
00000000
00001000
00000000
00000310
00000000
,
00000021
00000000
00001000
00000000
00000130
00000001
00002000
00000000
,
00003200
00000000
00010300
00000000
00001000
00100000
00010000
01000000
,
00100000
10000000
01000000
00100000
00001000
00010000
00000100
00010000
,
00000010
00001000
00000001
00000100
00000010
00010000
00001000
00010000
,
00100000
01000000
00010000
10000000
10010000
00000000
00000000
00000000
,
00000000
00022000
00000000
00033000
,
00010010
00000000
00000000
00001100
00000000
00000000
00000011
00000000
,
00001001
00010100
00101000
10010000
,
00000000
10100000
00000000
00000000
02020000
00000000
00000000
00000000
,
00000000
00000000
03030000
10100000
,
00000000
01010000
00000000
00000000
00011000
00000000
00001010
00000000
,
00000011
00000000
00000101
00000000
00000000
00001100
00000000
00000000
,
00010100
00101000
01001000
00010010
,
00001010
00000011
00000220
00000000
,
00000000
00000000
00000000
00000000
,
00000330
00000000
00010100
00000000
00000000
00011000
00000000
00000000
,
00000000
00000000
00000000
00000000
;
#NOTES:
     dance-double:
     :
     Hard:
     17:
     :
00000000
00000000
00000000
00000000
,
00000000
00000000
00000000
00000000
,
00000000
00000000
00000000
00000000
00001000
00010000
00001000
00000100
00000001
00000010
00001000
00000010
00000100
00001000
00000010
00000100
,
00010000
00001000
00000010
00000100
00001000
00010000
00100000
01000000
00001000
00100000
01000000
00010000
20000000
00000000
00000000
00000000
,
30020000
00032000
00000000
00003001
00000110
00000000
00000000
00011000
,
00000000
01010000
10010000
00110000
,
00011000
00000000
00110000
00000000
00000000
11000000
00000000
00000000
,
01100000
00000000
00000000
10000000
01000000
10000000
01000000
00010000
01000000
00010000
00001000
00010000
,
00000010
00001000
00000101
00000000
00000000
00001010
00000000
00000000
,
00010010
00101000
01001000
00010100
,
00000110
00000000
00000000
00000011
00000000
00000000
00000110
00000000
,
00000001
00000000
00000100
00000000
00000001
00000000
00000100
00000000
00001000
00000000
00000100
00000000
00001000
00000000
00010000
00000000
00001000
00000000
00100000
00000000
00000000
00010000
00000000
00000000
,
01100000
00000000
00010000
00011000
00000000
00000010
00000110
00000000
,
00000001
00000100
00001000
00010000
00100000
10000000
01100000
00000000
,
00001000
00000000
00000000
00011000
00000000
00000000
00000000
00000000
00000000
00000100
00000000
00000000
00000110
00000000
00000000
00000000
00000000
00000000
00000001
00000000
00000100
00000000
00001000
00000000
,
00000100
00000000
00001000
00000000
00010000
00000000
00001000
00000000
00010000
00000000
01000000
00000000
00010000
00000000
00000000
01000000
00000000
00000000
01100000
00000000
00000000
00000000
00000000
00000000
,
00100000
00101000
00000000
00010000
00010010
00000000
00000100
00000010
,
00001000
00010000
00100000
10000000
11000000
00000000
00100000
00110000
,
00000000
00001000
00011000
00000000
00010100
00000000
00101000
00000000
,
01001000
00010010
00001001
00000022
,
00000000
00000000
00000000
00000000
,
00000000
00000000
00000000
00000000
,
00000033
00000000
00000100
00000000
00010000
00001000
00000010
00000000
,
00000100
00000000
00010000
00000000
00001000
00100000
01000000
00000000
,
00010000
00000000
10000000
00100000
00010000
01000000
00100000
00010000
,
00001000
00000010
00000011
00000000
00001100
00000000
00010020
00000000
,
00001030
00000100
00000110
00000000
00010100
00000000
00201000
00000000
,
00310000
01000000
01100000
00000000
01001000
00000000
00100000
00010000
,
00001000
00010000
00000010
00001000
00000100
00000010
00001000
00010000
,
00001000
00010000
01000000
00100000
00001000
00010000
00100000
10000000
,
00010000
00100000
01100000
00000000
10010000
00000000
00200000
00000000
,
01300000
00010000
00002000
00000000
01003000
00100000
00010000
00001000
,
00000100
00000010
00000002
00000000
00000013
00000100
00002000
00000000
,
00003100
00001000
00010000
00100000
01000000
10000000
02000000
00000000
,
03010000
00100000
00002000
00000000
00013000
00100000
01000000
00100000
,
01000000
10000000
01000000
00010000
00100000
01000000
00010000
00002000
,
00000000
00000100
00003100
00000020
,
00000130
00000000
00000001
00000100
00000002
00000000
00000000
00000000
00001003
00000000
00000000
00000000
00012000
00000000
00000000
00000000
,
00103000
00000000
01000000
10000000
02000000
00000000
00000000
00000000
03100000
00000000
00000000
00000000
10000000
00000000
00100000
00000000
,
00010000
01000000
00001000
00010000
00001000
00000100
00000110
00000000
,
00011000
00000000
00000000
00000000
01200000
00000000
00000000
00000000
10300000
00000000
00010000
01000000
00020000
00000000
00000000
00000000
,
10030000
00000000
00000000
00000000
00012000
00000000
00000000
00000000
00003010
00000000
00000001
00000100
00000002
00000000
00000000
00000000
,
00001003
00000000
00000110
00000100
00001000
00010000
00100000
10000000
,
01000000
00010000
00011000
00001000
00000100
00000001
00000010
00001000
,
00010000
00100000
01100000
01000000
00001000
00010000
00000100
00000010
,
00001000
00010000
00110000
00000000
00010000
00001000
00001010
00000000
,
00001000
00010000
01010000
00000000
00010000
00001000
00001100
00000000
,
00001100
00000000
00000110
00000000
00000010
00001000
00000000
00000001
,
00000100
00001000
00010000
01000000
01100000
00000000
11000000
00000000
,
00010000
00001000
00000100
00000001
00001001
00000000
00001100
00000000
,
00000110
00000000
00010000
00001000
00000000
00000100
00000010
00001000
,
00010000
01000000
01100000
00000000
10100000
00000000
00010000
01000000
,
00100000
01000000
10100000
00000000
01001000
00000000
00010010
00000000
,
00000101
00000001
00001000
00001100
00000000
00000100
00010000
00001000
,
00100000
00010000
01010000
00000000
10100000
00100000
01000000
01010000
,
00000000
00001000
00011000
00000000
00001010
00000000
00000011
00001000
,
00000100
00001100
00000000
00010000
00001000
00100000
00010000
00001000
,
00001100
00000000
00010100
00001000
00000100
00000011
00000000
00000100
,
00001100
00000000
00010100
00000000
01001000
00000000
01100000
00100000
,
02000000
00000000
03010000
00100000
00011000
00001000
00020000
00000000
,
00030010
00001000
00001001
00000001
00000020
00000000
00000130
00000010
,
00001000
00010000
00001000
00100000
00010000
01000000
01100000
10000000
,
00020000
00000000
01030000
00100000
01100000
00010000
00002000
00000000
,
00003100
00000010
00000110
00001000
00000200
00000000
00010300
00001000
,
00011000
00000000
00110000
00000000
00001000
00010000
00100000
10000000
,
01000000
00000000
00010000
00000000
00001000
00000000
00000100
00000000
00000102
00000000
00000000
00000000
00001003
00000000
00000100
00000010
,
00000100
00000000
00000010
00000000
00002000
00000000
00000000
00000000
00013000
00000000
00100000
01000000
00100000
00000000
10000000
00000000
,
02000000
00000000
00000000
00000000
03100000
00000000
00010000
01000000
00010000
00000000
00100000
00000000
00001000
00000000
00001000
00000000
,
00010000
00000000
00001000
00000000
00000010
00000000
00000001
00000000
00000200
00000000
00000000
00000000
00000310
00000000
00001000
00000010
,
00001000
00000000
00000010
00000000
00000200
00000000
00000000
00000000
00001300
00000000
00010000
00100000
00010000
00000000
00100000
00000000
,
20000000
00000000
00000000
00000000
31000000
00000000
10000000
00010000
10000000
00000000
01000000
00000000
00100000
00000000
01000000
00000000
,
00010000
00001000
00000010
00000100
00000110
00000000
00000011
00000001
,
00001000
00000100
00000110
00000000
00010100
00001000
00010000
01000000
,
01100000
00000000
10010000
10000000
00100000
01000000
01010000
00000000
,
00101000
00010000
00001000
00000100
00000110
00000010
00010000
00001000
,
00010000
00000100
00001100
00000001
00001000
00000001
00000100
00001000
,
00011000
00010000
00100000
01000000
00001000
00100000
00110000
01000000
,
10000000
00100000
00010000
00001000
00011000
00000000
00000000
00000000
,
00000000
00002002
00000000
00003003
,
00000110
00000000
00000000
00011000
00000000
00000000
00110000
00000000
,
10010000
01010000
00011000
00101000
,
00010000
00000000
00000000
00010100
00000000
00000000
00000000
00000000
00000000
00001000
00000000
00000000
00002001
00000000
00000000
00000000
00000000
00000000
00003010
00000000
00000100
00000000
00001000
00000000
,
00000100
00000000
00001000
00000000
00010000
00000000
00001000
00000000
00010000
00000000
01000000
00000000
00010000
00000000
00000000
00001000
00000000
00000000
00011000
00000000
00000000
00000000
00000000
00000000
,
00000010
00001010
00000000
00000010
00000110
00000010
00001010
00000010
,
00010010
00010000
00011000
00000000
01000000
01010000
00000000
01000000
,
01100000
01000000
01010000
01000000
01001000
00001000
00011000
00001000
,
00011000
00010000
00011000
00001000
00022000
00000000
00033000
00000000
,
00000010
00001000
00000001
00000100
00001000
00010000
01000000
10000000
,
00100000
00010000
00110000
00000000
00000000
11000000
00000000
00000000
,
00000000
00000000
00000000
00000000
;
