
//----- song ID: pure -----//
#TITLE:プレインエイジア -PHQ remix-;
#ARTIST:PHQUASE;
#TITLETRANSLIT:Plain Asia -PHQ remix-;
#BANNER:Plain Asia -PHQ remix-.png;
#BACKGROUND:Plain Asia -PHQ remix--bg.png;
#CDTITLE:./CDTitles/BEMANI x Toho Project Ultimate MasterPieces (2015).png;
#MUSIC:Plain Asia -PHQ remix-.ogg;
#SAMPLESTART:34.935;
#SAMPLELENGTH:15;
#BPMS:0=182;
#NOTES:
     dance-single:
     :
     Beginner:
     5:
     :
0000
0000
0000
0000
,
0000
0000
0000
0000
,
0000
0000
0000
0000
,
1000
1000
1000
0000
,
0000
0000
0000
0000
,
0000
0000
0000
0000
,
0000
0000
0000
0000
,
0001
0001
0001
0000
,
0010
0000
0010
0000
,
0001
0001
0001
0000
,
1001
0000
0000
0000
,
1000
0000
1000
0000
,
0010
0010
1000
0000
,
2000
0000
3000
0000
,
1000
0010
1000
0000
,
0001
0000
0001
0000
,
0010
0010
0001
0000
,
0001
0001
0010
0010
,
0001
0000
0000
0000
,
1000
1000
1000
0000
,
1000
0010
1000
0000
,
2000
0000
3000
0000
,
1000
0000
1001
0000
,
0001
0001
0001
0000
,
0010
0000
0010
0000
,
0001
0001
0010
0000
,
1001
0000
0000
0000
,
1000
1000
1000
0000
,
0020
0000
0030
0000
,
1000
0000
1000
0000
,
0010
1000
0010
0000
,
0001
0001
0001
0000
,
0020
0000
0030
0000
,
0001
0000
0001
0000
,
0010
0001
0010
0000
,
1000
1000
1000
0000
,
0020
0000
0030
0000
,
1000
0000
1000
0000
,
0010
1000
0010
0000
,
0001
0001
0001
0000
,
0020
0000
0030
0000
,
0001
0000
0001
0000
,
0010
0001
0010
0000
,
0002
0000
0003
0000
,
0001
0000
0000
0000
,
2000
0000
3000
0000
,
1000
0000
0000
0000
,
0010
0000
0010
0000
,
0010
0000
0010
0000
,
0001
0000
0001
0000
,
1000
0000
1001
0000
,
1000
1000
0010
0000
,
1000
0010
1000
0000
,
0100
0000
0100
0000
,
1000
1000
1000
0000
,
0001
0001
0010
0000
,
0001
0010
0001
0000
,
0100
0000
0100
0000
,
0001
0001
0001
0000
,
1000
1000
1000
0000
,
0010
0010
0010
0000
,
0001
0001
0001
0000
,
0010
0010
0010
0000
,
1001
0000
0000
0000
,
0110
0000
0000
0000
,
1000
0000
0001
0000
,
1001
0000
0000
0000
,
1000
1000
1000
0000
,
0020
0000
0030
0000
,
0002
0000
0003
0000
,
0020
0000
0030
0000
,
0001
0001
0001
0000
,
0020
0000
0030
0000
,
0001
0000
0001
0000
,
0010
0001
0010
0000
,
1000
1000
1000
0000
,
0020
0000
0030
0000
,
1000
0000
1000
0000
,
0010
1000
0010
0000
,
0001
0001
0001
0000
,
0020
0000
0030
0000
,
0001
0000
0001
0000
,
0010
0001
0010
0000
,
0020
0000
0030
0000
,
1001
0000
0000
0000
,
0000
0000
0000
0000
;
#NOTES:
     dance-single:
     :
     Easy:
     7:
     :
0000
0000
0000
0000
,
0000
0000
0000
0000
,
0000
0000
0000
0000
,
1100
0010
0001
0000
,
0000
0000
0000
0000
,
0000
0000
0000
0000
,
0000
0000
0000
0000
,
0101
0010
1000
0000
,
1000
0100
0001
0100
,
0110
0001
1000
0100
,
0020
0002
0033
0000
,
0110
0010
0001
0000
,
0001
0100
0020
0000
,
1030
1000
0001
1000
,
0010
0100
0110
0000
,
1010
1000
0100
0010
,
0001
1000
0002
0000
,
0013
0011
0100
1100
,
1001
0000
0000
0000
,
0101
0100
0010
1000
,
0001
1000
0002
0000
,
0013
0100
1000
0001
,
1000
0010
0110
0000
,
1010
1000
0001
0100
,
0010
1000
0100
0010
,
0001
1000
0010
0100
,
0001
1000
0001
0000
,
1100
0010
0001
0000
,
0010
0100
1000
0001
,
1000
0100
0001
0100
,
1000
0001
0110
0000
,
0101
0010
1000
0000
,
0010
0100
0001
1000
,
0001
0010
1000
0010
,
0001
1000
1001
0000
,
1100
0010
0001
0000
,
0010
0100
1000
0001
,
1000
0100
0001
0100
,
1000
0001
0110
0000
,
0101
0010
1000
0000
,
0010
0100
0001
1000
,
0001
0010
1000
0010
,
0001
1000
1001
0000
,
0002
0000
0000
0000
,
0103
0000
0000
0000
,
2000
0000
0000
0000
,
3100
0000
0000
0000
,
0010
0000
0010
0000
,
0100
0000
0100
0000
,
1000
0100
0010
0001
,
0010
0100
0110
0000
,
1000
0100
0010
0001
,
1000
0001
0100
0010
,
1000
0001
0010
0100
,
1000
0001
0100
0000
,
0001
0100
0010
1000
,
0001
0010
0100
1000
,
0100
0010
0001
0010
,
0100
1000
1001
0000
,
1000
0100
0001
0100
,
1000
0100
0001
0000
,
1000
0010
0001
0010
,
1000
0010
0001
0000
,
0001
0100
1000
0100
,
0001
0100
1000
0100
,
0001
0010
1000
0010
,
0001
0010
1000
0000
,
1100
0010
0001
0000
,
0010
0100
1000
0000
,
0001
0100
0010
0000
,
0100
0001
1000
0000
,
0101
0010
1000
0000
,
0010
0100
0001
1000
,
0001
0010
1000
0010
,
0001
1000
1001
0000
,
1100
0010
0001
0000
,
0010
0100
1000
0001
,
1000
0100
0001
0100
,
1000
0001
0110
0000
,
0101
0010
1000
0000
,
0010
0100
0001
1000
,
0001
0010
1000
0010
,
0001
1000
1001
0000
,
0220
0000
0000
0330
,
1001
0000
0000
0000
,
0000
0000
0000
0000
;
#NOTES:
     dance-single:
     :
     Medium:
     10:
     :
0000
0000
0000
0000
,
0000
0000
0000
0000
,
0000
0000
0000
0000
1000
0100
1000
0000
,
1100
0110
0011
0000
,
0000
0000
0000
0000
,
0000
0000
0000
0000
,
0000
0000
0000
0000
,
0101
0110
1010
0000
,
0002
0000
0203
0000
0310
1000
0001
0000
,
0011
0000
0110
0000
0100
1000
0001
0000
,
1000
0100
0010
0002
0000
0000
0013
0000
,
0110
0110
1100
1100
,
0010
0001
1000
0000
0001
1000
0001
0000
,
2000
3020
0230
0301
,
0001
0100
0010
1000
0002
0000
1003
0000
,
1001
1001
0101
0101
,
0010
1000
0001
0000
1000
0001
1000
0000
,
0001
0000
0001
0100
0000
0100
0010
0000
0010
1000
0000
1000
,
0001
0000
0000
0000
1000
0001
0100
0000
,
1001
1001
1100
1100
,
0001
0100
0010
0000
1000
0001
0100
0000
,
0020
2030
3002
1003
,
0100
0010
0001
0010
0200
0000
0310
0000
,
0011
0011
0110
0110
,
1000
0001
1000
0001
0100
0010
1000
0000
,
0001
0100
0010
0000
1000
0001
0010
0000
,
0001
0010
0100
1000
0100
0000
0000
0000
,
1100
0000
0110
0000
0011
0000
0000
0110
,
0000
0000
0100
0000
0010
0001
1000
0000
,
1000
0010
1000
0000
0001
0100
0001
0000
,
1000
0100
0010
0000
0001
0010
0100
0000
,
1100
0000
0110
0000
0011
0000
0000
0101
,
0000
0000
1000
0000
0010
0100
0001
0000
,
0200
0000
0320
0000
1030
0001
0010
0000
,
0100
1000
0100
0000
0020
0000
0031
0000
,
0101
0000
0110
0000
1010
0000
0000
0110
,
0000
0000
0100
0000
0010
1000
0001
0000
,
0001
0010
0001
0000
1000
0100
1000
0000
,
0001
0100
0010
0000
1000
0010
0100
0000
,
0101
0000
0110
0000
1010
0000
0000
1100
,
0000
0000
0001
0000
0010
0100
1000
0000
,
0200
0000
0320
0000
0031
1000
0010
0000
,
0100
0001
0100
0000
0020
0000
1030
0000
,
0002
0000
0000
0000
0000
0000
0000
0103
,
0000
0000
0000
0000
,
2000
0000
0000
0000
0000
0000
0000
3100
,
0000
0000
0000
0000
,
0001
0000
0001
0000
,
0010
0000
0010
0000
,
1000
0001
1000
0001
,
0010
0100
0010
0100
0010
0000
0000
0000
,
1000
0100
0010
0000
0001
0000
1001
0000
,
0001
0100
0010
0000
1000
0010
0100
0000
,
0001
1000
0001
1000
0010
0000
0100
0000
,
0010
0100
0010
0100
0001
0000
1000
0000
,
0001
1000
0100
0000
0010
0001
1000
0000
,
0100
0000
0010
0000
0001
0010
0001
0000
,
0010
0100
1000
0100
0010
0100
1000
0000
,
0001
0010
0100
0010
0001
0010
0100
0000
,
1000
0001
0010
0100
0000
0010
0000
0001
,
1000
0001
0100
0010
0000
1000
0000
0010
,
0100
0001
0100
0010
0000
1000
0000
0001
,
0010
0100
0010
0001
0000
1000
0001
0000
,
0101
0000
0000
0000
0000
0110
0000
1001
,
0000
0000
1100
0110
,
0000
0000
0000
0000
0001
0000
0000
1000
0000
0000
0001
0000
0000
1000
0000
0000
,
0010
0000
0000
0000
1000
0001
0100
0000
,
0101
0000
0110
0000
1010
0000
0000
1000
,
0000
0100
0010
0001
0010
0000
0000
0100
,
0000
1000
0100
0010
0001
0000
0000
0010
,
0000
0100
1000
0001
0100
0000
0100
0000
,
1010
0000
0110
0000
0101
0000
0000
0011
,
0000
0000
1000
0000
0100
0010
0001
0000
,
0020
0000
0230
0000
1300
0001
0100
0000
,
0010
1000
0010
0000
0200
0000
0301
0000
,
0011
0000
0110
0000
1100
0000
0000
0110
,
0000
0000
0010
0000
0100
1000
0001
0000
,
0001
0100
0001
0000
1000
0010
1000
0000
,
0001
0010
0100
0000
1000
0100
0010
0000
,
0011
0000
0110
0000
1100
0000
0000
1010
,
0000
0000
0001
0000
0100
0010
1000
0000
,
0020
0000
0230
0000
0301
1000
0100
0000
,
0010
0001
0010
0000
0200
0000
0000
0000
,
0310
0000
0010
0000
0100
0010
0100
0000
,
1001
0000
0000
0000
,
0000
0000
0000
0000
;
#NOTES:
     dance-single:
     :
     Hard:
     13:
     :
0000
0000
0000
0000
,
0000
0000
0000
0000
,
0000
0000
0000
0000
1000
0100
0010
0001
,
0011
0110
1001
0000
,
0000
0000
0000
0000
,
0000
0000
0000
0000
,
0000
0000
0000
0000
0000
0001
0100
0000
,
0110
0000
1010
0000
1001
0000
1000
0100
,
0010
0000
0001
0010
0100
1000
0001
0000
,
0011
0000
0110
0000
0100
1000
0001
1000
,
0010
0100
0001
0200
0000
0310
0110
0000
,
0101
0000
1010
0000
1000
0010
0100
0001
,
0000
0100
0010
0000
1000
0000
0001
0000
1000
0000
0100
0000
0001
0000
0100
0000
,
0110
0000
0011
0001
1000
0001
0010
0000
,
0100
1000
0100
0000
0010
0000
0001
0000
1000
0001
1000
0000
0010
0000
0100
0000
,
0110
0000
1001
0000
0001
0100
0010
1000
,
0000
0010
0100
0001
1000
0100
0001
0100
,
0010
0000
0001
0010
0000
0100
1000
0000
0001
0100
0000
0010
,
1000
0000
0000
0000
0010
0100
0001
1000
,
1010
0000
0101
0000
0001
1000
0100
0010
,
0000
0001
0010
0000
0100
0000
1000
0000
0001
0000
0100
0000
1000
0000
0100
0000
,
0110
0000
0101
0001
1000
0100
0010
0000
,
0001
0010
0001
0000
0010
0000
0100
0000
1000
0001
1000
0000
0010
0000
0100
0000
,
0101
0000
1010
0000
0010
0100
0001
1000
,
0000
0010
0100
0001
1000
0100
0001
0100
,
0010
0001
0010
0000
0100
0000
0010
0000
0100
1000
0100
0000
1000
0000
0001
0000
,
0100
0010
1000
0001
1000
0100
0010
0001
,
0011
0000
0110
0000
1001
0000
1000
0100
,
0000
0010
0001
1000
0010
0100
0001
0100
,
0110
0000
1010
0000
0001
0100
0010
1000
,
0001
0010
1000
0010
0001
0010
0100
0000
,
1100
0000
0110
0000
1001
0000
0001
0010
,
0000
0100
1000
0001
1000
0010
0100
0001
,
0101
0000
0110
0000
0010
1000
0010
0100
,
0001
0010
1000
0010
0002
0000
1003
0000
,
0101
0000
0110
0000
1001
0000
1000
0010
,
0000
0100
0001
1000
0100
0010
0001
0010
,
0110
0000
1100
0000
0001
0010
0100
1000
,
0001
0100
1000
0100
0001
0100
0010
0000
,
1010
0000
0110
0000
1001
0000
0001
0100
,
0000
0010
1000
0001
1000
0100
0010
0001
,
0011
0000
0110
0000
0100
1000
0100
0010
,
0001
0100
1000
0100
0002
0000
0103
0000
,
2000
0000
0000
0000
0000
0000
0000
3200
,
0000
0000
0000
0000
,
0302
0000
0000
0000
0000
0000
0000
0023
,
0000
0000
0000
0000
,
0130
0000
0110
0000
,
1000
0000
1001
0000
,
1000
0100
0010
0001
,
0010
0000
0010
0000
0100
0000
1000
0000
0100
0000
0010
0001
0010
0000
0000
0000
,
0001
0010
0100
1000
0001
0100
0010
1000
,
0001
0100
1000
0100
0001
0010
1000
0010
,
0001
0010
0100
1000
0100
0010
0001
0010
,
1000
0010
0001
0010
0100
0001
0100
1000
,
0100
0010
0001
1000
0010
0100
0001
0100
,
0010
1000
0001
0010
0001
0100
0010
1000
,
0100
0001
0100
1000
0100
0010
0001
1000
,
0001
0100
1000
0100
0001
0100
0010
1000
,
0001
0100
0010
1000
0010
0100
0010
0100
,
0001
0010
0100
1000
0100
0010
0100
0010
,
0001
1000
0010
0100
0001
0100
1000
0100
,
0001
0010
1000
0010
0001
1000
0100
0010
,
0011
0000
0000
0000
0000
0100
0010
0110
,
0000
0000
1001
0110
,
0000
0000
0000
0000
0101
0000
0000
0110
0000
0000
1010
0000
0000
1001
0000
0000
,
0110
0000
0000
0000
1000
0100
0010
0001
,
0011
0000
0110
0000
1001
0000
0000
1100
,
0000
0010
0001
1000
0100
0000
0000
0101
,
0000
0010
1000
0001
0100
0000
0000
0110
,
0000
1000
0100
0010
0001
0010
0100
0010
,
0011
0000
0110
0000
1001
0000
1000
0100
,
0000
0010
0001
1000
0001
0100
0010
1000
,
1010
0000
0110
0000
0100
0001
0100
0010
,
1000
0100
0001
0100
2000
0000
3001
0000
,
1010
0000
0110
0000
1001
0000
0001
0100
,
0000
0010
1000
0001
0010
0100
1000
0100
,
0110
0000
0011
0000
1000
0010
0100
0001
,
1000
0010
0001
0010
1000
0010
0100
0000
,
0101
0000
0110
0000
1001
0000
1000
0010
,
0000
0100
0001
1000
0001
0010
0100
1000
,
1100
0000
0110
0000
0010
0001
0010
0100
,
1000
0010
0001
0010
2000
0000
3001
0000
,
0100
0000
0100
0000
0001
0000
1000
0000
0010
0100
0010
0100
0010
0000
0000
0000
,
1001
0000
0000
0000
,
0000
0000
0000
0000
;
#NOTES:
     dance-single:
     :
     Challenge:
     17:
     :
0000
0000
0000
0000
,
0000
0000
0000
0000
,
0000
0000
0000
0000
0001
0010
0100
1000
,
1001
0110
1001
0000
,
0000
0000
0000
0000
,
0000
0000
0000
0000
,
0000
0000
0000
0000
,
1001
0000
0110
0000
1001
0000
1000
0010
,
0100
0001
0100
0001
0010
0001
0100
0010
,
1000
0000
1100
0000
0110
0010
0001
1000
,
0010
0100
0010
0100
0020
0000
0030
0000
,
0110
0000
0000
0000
1001
0000
0000
0000
1000
0010
0100
0010
0000
1000
0000
0100
,
0010
0001
0010
0000
0001
1000
0001
1000
0002
0000
2003
0000
3020
0000
0230
0000
,
1300
0000
0100
0000
0001
0010
0001
0010
0001
0000
1000
0100
0010
0000
0000
0000
,
0001
1000
0100
1000
0001
0010
0100
1000
0010
0100
0010
0000
1000
0010
0100
0000
,
0110
0000
0000
0000
1001
0000
0000
0000
0001
0100
0010
0100
0000
0001
0000
0010
,
0100
0000
1000
0100
1000
0001
1000
0001
2000
0000
3002
0000
0203
0000
0320
0000
,
0031
0000
0010
1000
0000
0100
0010
0000
1000
0010
0000
0001
,
1000
0000
0000
0000
1000
0100
0010
0001
,
1001
0000
0000
0000
0110
0000
0000
0000
1000
0100
0010
0100
0000
1000
0000
0010
,
0100
0001
0100
0000
0001
1000
0001
1000
0002
0000
2003
0000
3200
0000
0320
0000
,
1030
0000
0010
0000
0001
0100
0010
0100
0001
0100
0010
0100
0001
0000
0000
0000
,
1000
0100
0010
0001
0100
0010
1000
0010
0100
0001
1000
0000
0100
0010
0100
0000
,
0110
0000
0000
0000
1001
0000
0000
0000
0001
0010
0100
0000
0010
0100
1000
0000
,
0001
0100
0010
0000
0100
0010
1000
0000
0001
1000
0100
0000
1000
0100
0010
0000
,
0001
0010
0100
0000
1000
0010
0100
0000
0001
0010
0100
0000
1000
0010
0100
0000
,
0001
0100
0001
0100
0010
1000
0010
1000
0100
0010
0001
1000
0001
0000
0000
0000
,
0011
0000
1001
0000
0101
1000
1000
0001
,
0000
0001
0010
0100
1000
0010
1000
0100
,
0010
0001
1000
0000
0010
1000
0100
1000
,
0001
0000
0100
0000
0010
0000
0100
0000
0001
1000
0001
1000
0001
0000
0000
0000
,
1010
0000
1001
0000
1100
0001
0001
1000
,
0000
1000
0010
0100
0001
0010
0001
0100
,
0010
1000
0001
0000
0010
0001
0100
0001
,
1000
0100
0010
0100
2000
0000
3000
0000
,
1100
0000
1001
0000
1010
0001
0001
1000
,
0000
1000
0100
0010
0001
0100
1000
0100
,
0001
1000
0001
0000
0100
0001
0010
0001
,
1000
0000
0010
0000
0100
0000
0010
0000
1000
0100
0010
0001
1000
0000
0000
0000
,
0101
0000
1001
0000
0011
1000
1000
0001
,
0000
0001
0100
0010
1000
0100
0001
0100
,
1000
0001
1000
0000
0100
1000
0010
1000
,
0001
0010
0100
1000
0002
0000
0003
0000
,
1001
0000
0000
0000
,
0000
0000
0000
0000
,
0000
0000
0000
0000
,
0000
0000
0000
0000
,
1000
0000
0100
0000
0010
0000
0001
1000
0001
1000
0001
0000
0100
0000
0010
0000
,
1000
0000
0010
0000
0100
0000
0001
1000
0001
1000
0001
0000
0010
0000
0100
0000
,
1000
0100
0010
0001
0100
0010
1000
0100
,
0010
0000
0001
0000
0100
0000
0010
0100
0010
0100
0010
0000
1000
0000
0000
0000
,
0001
1000
0001
0000
0100
0010
0100
0000
0001
0010
0001
0000
1000
0100
1000
0000
,
0001
1000
0010
0100
0010
1000
0001
0010
0100
1000
0001
1000
0100
0010
0001
0000
,
1000
0001
1000
0000
0010
0100
0010
0000
1000
0100
1000
0000
0001
0010
0001
0000
,
1000
0001
0100
0010
0100
0001
1000
0100
0010
0001
1000
0001
0010
0100
1000
0000
,
0001
1000
0010
1000
0001
1000
0010
0000
1000
0001
0010
0100
1000
0001
1000
0000
,
0100
0010
0100
1000
0100
0010
0100
1000
0001
0100
0010
0100
0001
1000
0100
0000
,
1000
0001
0100
0001
1000
0001
0100
0000
0001
1000
0100
0010
0001
1000
0001
0000
,
0010
0100
0010
0001
0010
0100
0010
0001
1000
0010
0100
0010
1000
0001
0010
0000
,
0100
1000
0001
0100
0010
1000
0010
1000
0100
0010
0001
0010
0100
1000
0001
0000
,
0100
0010
1000
0010
1000
0001
0100
0001
0100
0010
0100
0001
1000
0010
1000
0000
,
0010
1000
0001
0010
0100
1000
0100
1000
0010
0100
0001
0100
0010
1000
0001
0010
,
0100
1000
0100
1000
0001
0010
0001
0010
0100
0010
0001
1000
0100
1000
0001
0000
,
1000
0010
0100
0001
1000
0010
0100
0001
1000
0100
1000
0001
0010
0001
1000
0000
,
0010
1000
0001
0100
0001
1000
0010
0100
0010
1000
0100
0010
0001
0010
0100
0000
,
1000
0010
0100
0001
1000
0010
0100
0001
1000
0100
1000
0001
0010
0001
1000
0010
,
1000
0001
0100
0001
1000
0010
0100
0010
1000
0100
0010
0001
0010
0100
1000
0010
,
0100
0000
0110
0000
1001
1000
0001
1001
,
0000
1000
0100
0010
0001
0100
0010
0110
,
0000
0100
0010
1000
0001
0100
0010
0110
,
0000
0010
1000
0100
0010
0001
1000
0100
,
0110
0000
1001
0000
0110
0001
0001
1000
,
0000
1000
0100
0001
1000
0010
0001
1000
,
0100
0010
0100
0000
0010
0000
0100
0000
1000
0001
1000
0000
0001
0000
0010
0000
,
0001
0100
0010
0000
1000
0000
0100
0000
0020
0000
0000
0000
0031
0000
0000
0000
,
0011
0000
1100
0000
0011
1000
1000
0010
,
0000
0010
1000
0100
0010
0001
0100
0010
,
1000
0100
1000
0000
0010
0000
0100
0000
0001
0010
0001
0000
1000
0000
0010
0000
,
0100
0001
0010
0000
0001
0000
1000
0000
0100
0010
0100
0000
1000
0000
0000
0000
,
1010
0000
0101
0000
1010
0001
0001
0010
,
0000
0010
0001
0100
0010
1000
0100
0010
,
0001
0100
0001
0000
0010
0000
0100
0000
1000
0010
1000
0000
0001
0000
0010
0000
,
0100
1000
0010
0000
1000
0000
0001
0000
0100
0000
0020
0000
0000
0000
0000
0000
,
1030
0000
1000
0000
0100
0000
0010
0001
0100
0010
1000
0000
0001
0000
0000
0000
,
1001
0000
0000
0000
,
0000
0000
0000
0000
;
#NOTES:
     dance-double:
     :
     Easy:
     7:
     :
00000000
00000000
00000000
00000000
,
00000000
00000000
00000000
00000000
,
00000000
00000000
00000000
00000000
,
11000000
00010000
00001000
00000000
,
00000000
00000000
00000000
00000000
,
00000000
00000000
00000000
00000000
,
00000000
00000000
00000000
00000000
,
00000101
00001000
00010000
00000000
,
00100000
10000000
00010000
01000000
,
01100000
00010000
10000000
01000000
,
00020000
00002000
00033000
00000000
,
00001010
00000010
00000001
00000000
,
00000001
00000100
00002000
00000000
,
00013000
00001000
00010000
00100000
,
10000000
00010000
10010000
00000000
,
11000000
10000000
01000000
00010000
,
00001000
00010000
00002000
00000000
,
00003010
00000011
00000100
00001100
,
00001001
00000000
00000000
00000000
,
00000101
00000100
00000010
00001000
,
00010000
00001000
00020000
00000000
,
01030000
00100000
10000000
00010000
,
10000000
00100000
01100000
00000000
,
10100000
10000000
00010000
01000000
,
00100000
10000000
01000000
00010000
,
00001000
00000010
00001000
00010000
,
00001000
00000100
00000001
00000000
,
00000101
00001000
00010000
00000000
,
00100000
10000000
00010000
01000000
,
00100000
10000000
01000000
00100000
,
00010000
00100000
01100000
00000000
,
11000000
00010000
00001000
00000000
,
00000010
00000001
00001000
00000100
,
00000010
00000001
00000010
00000100
,
00001000
00000001
00001001
00000000
,
00000101
00001000
00010000
00000000
,
00100000
10000000
00010000
01000000
,
00100000
10000000
01000000
00100000
,
00010000
00100000
01100000
00000000
,
11000000
00010000
00001000
00000000
,
00000010
00000001
00001000
00000100
,
00000010
00000001
00000010
00000100
,
00001000
00000001
00001001
00000000
,
00000002
00000000
00000000
00000000
,
00000203
00000000
00000000
00000000
,
00002300
00000000
00000000
00000000
,
00023000
00000000
00000000
00000000
,
00130000
00000000
00100000
00000000
,
10000000
00000000
00010000
00000000
,
10000000
01000000
00100000
00010000
,
00100000
01000000
01100000
00000000
,
10000000
01000000
00010000
00001000
,
00010000
00001000
00000010
00000001
,
00000100
00000010
00000100
00000001
,
00001000
00000010
00000100
00000000
,
00000001
00000100
00001000
00010000
,
00001000
00010000
00100000
10000000
,
01000000
00100000
00010000
00100000
,
01000000
10000000
10010000
00000000
,
10000000
01000000
00010000
00001000
,
00000010
00000001
00001000
00000000
,
00000001
00000100
00001000
00010000
,
00100000
10000000
00010000
00000000
,
10000000
01000000
00010000
00001000
,
00010000
00001000
00000010
00000001
,
00000100
00001000
00000100
00001000
,
00010000
00100000
01000000
00000000
,
10100000
00010000
00001000
00000000
,
00000010
00001000
00010000
00000000
,
00100000
00010000
00001000
00000000
,
00010000
01000000
10000000
00000000
,
11000000
00010000
00001000
00000000
,
00000010
00000001
00001000
00000100
,
00000010
00000001
00000010
00000100
,
00001000
00000001
00001001
00000000
,
00000101
00001000
00010000
00000000
,
00100000
10000000
00010000
01000000
,
00100000
10000000
01000000
00100000
,
00010000
00100000
01100000
00000000
,
11000000
00010000
00001000
00000000
,
00000010
00000001
00001000
00000100
,
00000010
00000001
00000010
00000100
,
00001000
00000001
00001001
00000000
,
00000220
00000000
00000000
00000330
,
00001001
00000000
00000000
00000000
,
00000000
00000000
00000000
00000000
;
#NOTES:
     dance-double:
     :
     Medium:
     10:
     :
00000000
00000000
00000000
00000000
,
00000000
00000000
00000000
00000000
,
00000000
00000000
00000000
00000000
10000000
01000000
10000000
00000000
,
11000000
01100000
00110000
00000000
,
00000000
00000000
00000000
00000000
,
00000000
00000000
00000000
00000000
,
00000000
00000000
00000000
00000000
,
00000101
00000110
00001010
00000000
,
00000002
00000000
00000203
00000000
00001300
00010000
00001000
00000000
,
00011000
00000000
00110000
00000000
00100000
10000000
00010000
00000000
,
10000000
01000000
00100000
00020000
00000000
00000000
00130000
00000000
,
01100000
01100000
11000000
11000000
,
01000000
00010000
00001000
00000000
00010000
00001000
00010000
00000000
,
00002000
00003020
00000032
00001003
,
00000001
00000100
00001000
00010000
00002000
00000000
00013000
00000000
,
00011000
00011000
01010000
01010000
,
10000000
01000000
00100000
00000000
00010000
00100000
00010000
00000000
,
10000000
00000000
10000000
00010000
00000000
00010000
01000000
00000000
01000000
00100000
00000000
00100000
,
10000000
00000000
00000000
00000000
10000000
00100000
00010000
00000000
,
00011000
00011000
00001100
00001100
,
00000001
00000100
00001000
00000000
00010000
00001000
00010000
00000000
,
00200000
20300000
30020000
10030000
,
01000000
00010000
00001000
00010000
00002000
00000000
00003010
00000000
,
00000011
00000011
00000110
00000110
,
00001000
00000001
00001000
00000001
00000100
00000010
00001000
00000000
,
00000001
00000100
00001000
00000000
00010000
00001000
00100000
00000000
,
00010000
00010000
00100000
00100000
01000000
00000000
00000000
00000000
,
11000000
00000000
01100000
00000000
00110000
00000000
00000000
00011000
,
00000000
00000000
00001000
00000000
00000100
00000001
00001000
00000000
,
00000010
00010000
00001000
00000000
00100000
00001000
00010000
00000000
,
00001000
01000000
00010000
00000000
00100000
00010000
10000000
00000000
,
11000000
00000000
01100000
00000000
00110000
00000000
00000000
00011000
,
00000000
00000000
00001000
00000000
00000100
00000001
00001000
00000000
,
00000020
00000000
00000230
00000000
00001300
00010000
00100000
00000000
,
01000000
00100000
00010000
00000000
00002000
00000000
00003100
00000000
,
00000101
00000000
00000110
00000000
00001010
00000000
00000000
00011000
,
00000000
00000000
00010000
00000000
01000000
10000000
00010000
00000000
,
00100000
00001000
00010000
00000000
00000010
00010000
00001000
00000000
,
00010000
00000100
00001000
00000000
00000010
00001000
00000001
00000000
,
00000101
00000000
00000110
00000000
00001010
00000000
00000000
00011000
,
00000000
00000000
00010000
00000000
01000000
10000000
00010000
00000000
,
20000000
00000000
32000000
00000000
03010000
00001000
00010000
00000000
,
00001000
00000010
00000001
00000000
00000020
00000000
00000000
00000000
,
00000032
00000000
00000000
00000000
00000000
00000000
00000000
00000103
,
00000000
00000000
00000000
00000000
,
00000200
00000000
00000000
00000000
00000000
00000000
00000000
00001300
,
00000000
00000000
00000000
00000000
,
00010000
00000000
00010000
00000000
,
00100000
00000000
00100000
00000000
,
10000000
00010000
10000000
00010000
,
00100000
01000000
00100000
01000000
00100000
00000000
00000000
00000000
,
10000000
01000000
00010000
00000000
00001000
00000000
00011000
00000000
,
00001000
00000010
00000001
00000000
00000010
00000100
00000010
00000000
,
00000001
00001000
00000001
00001000
00000010
00000000
00000100
00000000
,
00000010
00010000
00001000
00000000
00010000
00001000
00100000
00000000
,
00010000
10000000
01000000
00000000
00100000
00010000
01000000
00000000
,
00001000
00000000
00010000
00000000
00001000
00000010
00000001
00000000
,
00000010
00000100
00001000
00000100
00000010
00000100
00001000
00000000
,
00000001
00000010
00000100
00000010
00000001
00000010
00000100
00000000
,
00001000
00000100
00000010
00000001
00000000
00000100
00000000
00001000
,
00010000
00100000
01000000
00010000
00000000
10000000
00000000
01000000
,
00100000
00010000
00100000
01000000
00000000
00010000
00000000
00001000
,
00010000
00100000
00010000
00001000
00000000
00000100
00000010
00000000
,
00000101
00000000
00000000
00000000
00000000
00000110
00000000
00001001
,
00000000
00000000
00000011
00000110
,
00000000
00000000
00000000
00000000
00000001
00000000
00000000
00001000
00000000
00000000
00000001
00000000
00000000
00001000
00000000
00000000
,
00000010
00000000
00000000
00000000
00001000
00000001
00000100
00000000
,
00000101
00000000
00000110
00000000
00001010
00000000
00000000
00000010
,
00000000
00000100
00001000
00010000
00100000
00000000
00000000
01000000
,
00000000
00100000
00010000
00001000
00000100
00000000
00000000
00000010
,
00000000
00000100
00001000
00010000
00100000
00000000
00000000
00000000
,
10100000
00000000
01100000
00000000
01010000
00000000
00000000
00011000
,
00000000
00000000
00001000
00000000
00000010
00000001
00001000
00000000
,
00000200
00000000
00000320
00000000
00001030
00010000
01000000
00000000
,
00100000
01000000
00010000
00000000
00002000
00000000
00003010
00000000
,
00000011
00000000
00000110
00000000
00001100
00000000
00000000
00011000
,
00000000
00000000
00010000
00000000
00100000
10000000
00010000
00000000
,
01000000
00001000
00010000
00000000
00000100
00010000
00001000
00000000
,
00010000
00000010
00001000
00000000
00000100
00001000
00000001
00000000
,
00000011
00000000
00000110
00000000
00001100
00000000
00000000
00011000
,
00000000
00000000
00010000
00000000
00100000
10000000
00010000
00000000
,
20000000
00000000
30200000
00000000
00310000
00001000
00010000
00000000
,
00001000
00000000
00000000
00000000
00000000
00000000
00000000
00000000
00000000
00000000
00000000
00000000
00000000
00000000
00000000
00000000
00000000
00000000
00000000
00000000
00000000
00000000
00000000
00000000
00000100
00000000
00000000
00000000
00000000
00000000
00000000
00000000
00000000
00000000
00000000
00000000
00000000
00000000
00000000
00000000
00000000
00000000
00000000
00000000
00000000
00000000
00000000
00000000
00000001
00000000
00000000
00000000
00000000
00000000
00000000
00000000
00000000
00000000
00000000
00000000
00000000
00000000
00000000
00000000
00000000
00000000
00000000
00000000
00000000
00000000
00000000
00000000
00000000
00000000
00000000
00000000
00000000
00000000
00000000
00000000
00000000
00000000
00000000
00000000
00000000
00000000
00000000
00000000
00000000
00000000
00000000
00000000
00000000
00000000
00000000
00000000
00000200
00000000
00000000
00000000
00000000
00000000
00000000
00000000
00000000
00000000
00000000
00000000
00000000
00000000
00000000
00000000
00000000
00000000
00000000
00000000
00000000
00000000
00000000
00000000
00000000
00000000
00000000
00000000
00000000
00000000
00000000
00000000
00000000
00000000
00000000
00000000
00000000
00000000
00000000
00000000
00000000
00000000
00000000
00000000
00000000
00000000
00000000
00000000
00000000
00000000
00000000
00000000
00000000
00000000
00000000
00000000
00000000
00000000
00000000
00000000
00000000
00000000
00000000
00000000
00000000
00000000
00000000
00000000
00000000
00000000
00000000
00000000
00000000
00000000
00000000
00000000
00000000
00000000
00000000
00000000
00000000
00000000
00000000
00000000
00000000
00000000
00000000
00000000
00000000
00000000
00000000
00000000
00000000
00000000
00000000
00000300
,
00000010
00000000
00000010
00000000
00000100
00000010
00000100
00000000
,
00001001
00000000
00000000
00000000
,
00000000
00000000
00000000
00000000
;
#NOTES:
     dance-double:
     :
     Hard:
     13:
     :
00000000
00000000
00000000
00000000
,
00000000
00000000
00000000
00000000
,
00000000
00000000
00000000
00000000
10000000
01000000
00010000
00001000
,
00011000
00000110
00001001
00000000
,
00000000
00000000
00000000
00000000
,
00000000
00000000
00000000
00000000
,
00000000
00000000
00000000
00000000
00000000
00000001
00001000
00000000
,
00011000
00000000
01100000
00000000
10010000
00000000
00100000
01000000
,
00010000
00000000
10000000
00100000
01000000
00010000
10000000
00000000
,
11000000
00000000
01010000
00000000
00001000
00010000
00100000
00010000
,
00001000
00000100
00000001
00000200
00000000
00000301
00000010
00000000
,
00000011
00000000
00000110
00000000
00001000
00000100
00000010
00000001
,
00000000
00000010
00001000
00000000
00010000
00000000
00001000
00000000
00000100
00000000
00001000
00000000
00010000
00000000
00100000
00000000
,
01100000
00000000
10100000
10000000
00010000
00100000
01000000
00000000
,
10000000
01000000
10000000
00000000
01000000
00000000
00010000
00000000
00001000
00010000
00001000
00000000
00000010
00000000
00000001
00000000
,
00000011
00000000
00000110
00000000
00000100
00001000
00000001
00000100
,
00000000
00001000
00000100
00000001
00000010
00001000
00010000
01000000
,
00100000
00000000
00010000
00100000
00000000
01000000
10000000
00000000
00010000
01000000
00000000
00100000
,
10000000
00000000
00000000
00000000
00100000
01000000
00010000
10000000
,
11000000
00000000
01100000
00000000
00010000
00100000
01000000
10000000
,
00000000
01000000
00010000
00000000
00001000
00000000
00010000
00000000
00100000
00000000
00010000
00000000
00001000
00000000
00000100
00000000
,
00000110
00000000
00000101
00000001
00001000
00000100
00000010
00000000
,
00000001
00000010
00000001
00000000
00000010
00000000
00001000
00000000
00010000
00001000
00010000
00000000
01000000
00000000
10000000
00000000
,
11000000
00000000
01100000
00000000
00100000
00010000
10000000
01000000
,
00000000
00100000
01000000
10000000
01000000
00010000
00001000
00000010
,
00000100
00000010
00000100
00000000
00001000
00000000
00000001
00000000
00000100
00000010
00000100
00000000
00000001
00000000
00001000
00000000
,
00000010
00000100
00000001
00001000
00000001
00000100
00001000
00010000
,
00011000
00000000
01100000
00000000
10010000
00000000
10000000
00100000
,
00000000
01000000
00010000
00100000
00001000
00010000
00001000
00000100
,
00000010
00001000
00000001
00000010
00001000
00010000
00100000
00010000
,
00001000
00010000
01000000
10000000
01000000
00100000
00010000
00000000
,
00011000
00000000
00000110
00000000
00001001
00000000
00000001
00000100
,
00000000
00000010
00001000
00000001
00000100
00001000
00000100
00000010
,
00010000
00001000
00000100
00001000
00010000
00100000
10000000
00010000
,
10000000
01000000
00010000
01000000
00200000
00000000
00310000
00000000
,
00011000
00000000
00000110
00000000
00001001
00000000
00000001
00000010
,
00000000
00000100
00001000
00000010
00010000
00001000
00010000
01000000
,
00100000
00010000
10000000
00100000
00010000
00001000
00000010
00001000
,
00010000
00001000
00000100
00000001
00000100
00000010
00001000
00000000
,
00011000
00000000
01100000
00000000
10010000
00000000
10000000
00100000
,
00000000
01000000
00010000
10000000
00100000
00010000
00100000
01000000
,
00001000
00010000
00100000
00010000
00001000
00000100
00000001
00001000
,
00000001
00000010
00000100
00000010
00000002
00000000
00000000
00000000
,
00000203
00000000
00000000
00000000
00000000
00000000
00000000
00002300
,
00000000
00000000
00000000
00000000
,
00023000
00000000
00000000
00000000
00000000
00000000
00000000
00230000
,
00000000
00000000
00000000
00000000
,
01300000
00000000
01100000
00000000
,
10000000
00000000
10010000
00000000
,
10000000
01000000
00010000
00001000
,
00000010
00000000
00000010
00000000
00000001
00000000
00001000
00000000
00000100
00000000
00000010
00000001
00000010
00000000
00000000
00000000
,
00000001
00000010
00001000
00000010
00000001
00000100
00001000
00010000
,
00100000
10000000
00010000
01000000
00001000
00010000
01000000
10000000
,
01000000
00010000
00001000
00010000
00100000
00010000
00001000
00000100
,
00000001
00000010
00001000
00000010
00000100
00001000
00010000
00001000
,
00000100
00000010
00001000
00010000
00000100
00001000
00010000
00100000
,
01000000
10000000
01000000
00010000
00001000
00010000
00100000
10000000
,
00100000
01000000
00010000
01000000
00100000
00010000
00001000
00000100
,
00000010
00001000
00000001
00000100
00000010
00000001
00000010
00000100
,
00000001
00000100
00001000
00010000
00100000
10000000
00010000
10000000
,
01000000
00010000
00001000
00000010
00000001
00001000
00000100
00000010
,
00000001
00000010
00001000
00000010
00000001
00000100
00001000
00010000
,
00100000
00010000
00001000
00010000
01000000
10000000
01000000
00100000
,
00110000
00000000
00000000
00000000
00000000
00001000
00010000
00011000
,
00000000
00000000
00000110
00001001
,
00000000
00000000
00000000
00000000
00000101
00000000
00000000
00000100
00000000
00000000
00001000
00000000
00000000
00010000
00000000
00000000
,
01000000
00000000
00000000
00000000
10000000
01000000
00010000
00001000
,
00011000
00000000
00000110
00000000
00001001
00000000
00000000
00000101
,
00000000
00001000
00010000
00100000
10000000
00000000
00000000
11000000
,
00000000
00010000
00001000
00000010
00000001
00000000
00000000
00000101
,
00000000
00000100
00001000
00010000
01000000
10000000
01000000
00010000
,
00011000
00000000
00000110
00000000
00001001
00000000
00000001
00000100
,
00000000
00000010
00001000
00000001
00000100
00001000
00000100
00000010
,
00010000
00001000
00000100
00001000
00010000
00100000
10000000
00010000
,
10000000
01000000
00010000
01000000
00200000
00000000
00310000
00000000
,
00011000
00000000
00000110
00000000
00001001
00000000
00000001
00000010
,
00000000
00000100
00001000
00000010
00010000
00001000
00010000
01000000
,
00100000
00010000
10000000
00100000
00010000
00001000
00000010
00001000
,
00010000
00001000
00000100
00000001
00000100
00000010
00001000
00000000
,
00011000
00000000
01100000
00000000
10010000
00000000
10000000
00100000
,
00000000
01000000
00010000
10000000
00100000
00010000
00100000
01000000
,
00001000
00010000
00100000
00010000
00001000
00000100
00000001
00001000
,
00000001
00000010
00000100
00000010
00000002
00000000
00000000
00000000
,
00000103
00000000
00000010
00000000
00000100
00000000
00001000
00000000
00010000
00001000
00010000
00001000
00020000
00000000
00000000
00000000
,
00031000
00000000
00000000
00000000
,
00000000
00000000
00000000
00000000
;
#NOTES:
     dance-double:
     :
     Challenge:
     17:
     :
00000000
00000000
00000000
00000000
,
00000000
00000000
00000000
00000000
,
00000000
00000000
00000000
00000000
10000000
00010000
00100000
01000000
,
01100000
00011000
00000110
00000000
,
00000000
00000000
00000000
00000000
,
00000000
00000000
00000000
00000000
,
00000000
00000000
00000000
00000000
,
00000110
00011000
01100000
00000000
,
10000000
00100000
10000000
00100000
01000000
00010000
01000000
00010000
,
00100000
00001000
00010000
00000000
00000010
00010000
00001000
00000000
,
01000000
00001000
00010000
00000100
00002000
00000000
00003000
00000000
,
00001000
00000000
00000100
00000000
00000010
00000000
00000001
00000000
00000100
00000010
00000100
00000010
00000000
00000100
00000000
00001000
,
00010000
00001000
00010000
00000000
00001000
00100000
00001000
00000000
00200000
00000000
00320000
00000000
02030000
00000000
00000000
00000000
,
03100000
00000000
10000000
00000000
00010000
01000000
00010000
01000000
00010000
00000000
10000000
00000000
00100000
00000000
10000000
00000000
,
01000000
00100000
00010000
00000000
00100000
00001000
00010000
00001000
00100000
00000000
00001000
00010000
00001000
00000000
00010000
00000100
,
00001000
00000000
00000010
00000000
00000100
00000000
00000001
00000000
00001000
00000100
00001000
00000100
00000000
00000001
00000000
00000100
,
00001000
00000000
00000100
00010000
00000100
00000000
00010000
00001000
00010000
00000000
00001000
00000000
00011000
00000000
00000000
00000000
,
00001000
00000000
00001000
01000000
00000000
01000000
00010000
00000000
00010000
10000000
00000000
10000000
,
01000000
00000000
00000000
00000000
10000000
00010000
10000000
00000000
,
00010000
00000000
01000000
00000000
00100000
00000000
10000000
00000000
01000000
00100000
01000000
00100000
00000000
01000000
00000000
00010000
,
00001000
00010000
00001000
00000000
00010000
00000010
00010000
00000000
00000020
00000000
00002030
00000000
00003200
00000000
00000000
00000000
,
00000310
00000000
00000001
00000000
00001000
00000100
00001000
00000100
00001000
00000000
00000001
00000000
00000010
00000000
00000001
00000000
,
00000100
00000010
00001000
00000000
00000010
00010000
00001000
00010000
00000010
00000000
00010000
00001000
00010000
00000000
00001000
01000000
,
00010000
00000000
00100000
00000000
01000000
00000000
10000000
00000000
00010000
01000000
00010000
00000000
10000000
01000000
10000000
00000000
,
00010000
01000000
00010000
00000000
01000000
00001000
01000000
00000000
00001000
00010000
00001000
00000000
00010000
00000100
00010000
00000000
,
00000100
00001000
00000100
00001000
00000100
00000010
00000100
00000000
00000010
00000001
00000010
00000001
00001000
00000001
00001000
00000000
,
00000010
00010000
00001000
00010000
00000010
00010000
00001000
00010000
00000010
00000000
00010000
00001000
00010000
00000000
00001000
00000000
,
00101000
00000000
00110000
00000000
01100000
01000000
01000000
10000000
,
00100000
10000000
01000000
00100000
00001000
00010000
00001000
00010000
,
00001000
00000010
00001000
00000000
00010000
00001000
00000100
00000001
,
00000010
00000100
00000010
00000000
00000001
00000000
00000100
00000000
00001000
00010000
00001000
00000000
00010000
00000000
00000000
00000000
,
00010010
00000000
00001010
00000000
00000110
00000100
00000100
00000001
,
00000010
00000001
00000100
00000010
00010000
00001000
00010000
00001000
,
00010000
00100000
00010000
00000000
00001000
00010000
01000000
10000000
,
00100000
01000000
00100000
00000000
10000000
00000000
01000000
00000000
00020000
00000000
00000000
00000000
00030000
00000000
00000000
00000000
,
00010100
00000000
00001100
00000000
00000110
00000010
00000010
00000001
,
00000100
00000001
00000010
00000100
00010000
00001000
00010000
00001000
,
00010000
01000000
00010000
00000000
00001000
00010000
00100000
10000000
,
01000000
00100000
01000000
00000000
10000000
00000000
00100000
00000000
00010000
00001000
00010000
00000000
00001000
00000000
00000000
00000000
,
01001000
00000000
01010000
00000000
01100000
00100000
00100000
10000000
,
01000000
10000000
00100000
01000000
00001000
00010000
00001000
00010000
,
00001000
00000100
00001000
00000000
00010000
00001000
00000010
00000001
,
00000100
00000010
00000100
00000000
00000001
00000000
00000010
00000000
00002000
00000000
00000000
00000000
00003000
00000000
00000000
00000000
,
00011000
00000000
00000000
00000000
,
00000000
00000000
00000000
00000000
,
00000000
00000000
00000000
00000000
,
00000000
00000000
00000000
00000000
,
00001000
00000000
00001000
00010000
00100000
00000000
10000000
00010000
,
10000000
00000000
10000000
01000000
00010000
00000000
00001000
00010000
,
00001000
00001010
00000010
00000011
,
00002002
00000000
00000000
00003003
,
00000001
00000010
00000001
00000000
00001000
00000100
00001000
00000000
00000010
00000100
00000010
00000000
00010000
00001000
00010000
00000000
,
00001000
00100000
00001000
00100000
00010000
00100000
00010000
00000000
01000000
00100000
01000000
00100000
10000000
00100000
10000000
00000000
,
00100000
01000000
00100000
00000000
01000000
00010000
01000000
00000000
00010000
10000000
00010000
00000000
00100000
01000000
00100000
00000000
,
00010000
00100000
00010000
00100000
00001000
00010000
00001000
00000000
00010000
00000100
00010000
00000100
00001000
00000100
00001000
00000000
,
00000100
00000010
00000001
00000000
00000010
00000100
00001000
00000000
00000001
00000100
00000010
00000000
00001000
00000010
00010000
00000000
,
00001000
00010000
00001000
00100000
00010000
00100000
00010000
00000000
01000000
00100000
10000000
00100000
01000000
00010000
10000000
00000000
,
01000000
00100000
00010000
00000000
00100000
01000000
10000000
00000000
00100000
01000000
00010000
00000000
01000000
00001000
00010000
00000000
,
00001000
00010000
00001000
00010000
00000010
00001000
00000010
00000000
00001000
00000100
00000010
00000100
00001000
00000001
00000010
00000000
,
00000001
00000010
00000100
00001000
00000100
00001000
00000100
00000000
00010000
00001000
00100000
00001000
00010000
00001000
01000000
00000000
,
00010000
00100000
01000000
00100000
00010000
00100000
00001000
00010000
00001000
01000000
00010000
00000000
01000000
00100000
01000000
00000000
,
00010000
01000000
00010000
01000000
00010000
00100000
00010000
00000000
00100000
00001000
00010000
00001000
00100000
00001000
00010000
00000000
,
00001000
00010000
00001000
00010000
00000010
00001000
00000010
00001000
00000010
00000100
00000001
00000000
00000010
00000100
00001000
00000000
,
00000100
00000010
00000001
00001000
00000010
00000100
00000010
00000000
00001000
00000010
00010000
00001000
01000000
00010000
01000000
00000000
,
00010000
00100000
01000000
10000000
00010000
01000000
00100000
10000000
00100000
01000000
00100000
10000000
01000000
00100000
00010000
00000000
,
10000000
01000000
10000000
00010000
00100000
00001000
00010000
00000000
00001000
00010000
00000010
00001000
00000010
00000100
00000010
00000000
,
00001000
00000001
00000010
00000100
00001000
00000100
00000010
00000001
00000100
00000010
00001000
00000010
00010000
00001000
00010000
00001000
,
00010000
00000000
00001000
00000000
00011000
00001000
00100000
00110000
,
00000000
00010000
10000000
00100000
01000000
00001000
00010000
00011000
,
00000000
00001000
00010000
00001000
00000010
00000001
00001000
00001100
,
00000000
00000100
00000010
00000001
00000100
00001000
00010000
00000000
,
00011000
00000000
00101000
00000000
00011000
00001000
00010000
01000000
,
00000000
01000000
10000000
00100000
01000000
00100000
10000000
01000000
,
00100000
00010000
00100000
00000000
00001000
00000000
00010000
00000000
00000100
00001000
00000100
00000000
00000010
00000000
00000001
00000000
,
00000100
00000010
00001000
00000000
00000001
00000000
00001000
00000000
00000002
00000000
00000000
00000000
00001003
00000000
00000000
00000000
,
00001010
00000000
00001001
00000000
00000011
00000010
00001000
00010000
,
00000000
00010000
01000000
10000000
00010000
00100000
01000000
10000000
,
00100000
01000000
00100000
00000000
10000000
00000000
00010000
00000000
00100000
00001000
00100000
00000000
00001000
00000000
00010000
00000000
,
00001000
00000010
00001000
00000000
00000010
00000000
00000001
00000000
00001000
00000100
00000010
00000000
00000001
00000000
00000000
00000000
,
00001001
00000000
00000110
00000000
00001001
00000001
00000100
00001000
,
00000000
00001000
00010000
00100000
01000000
00010000
00100000
01000000
,
00010000
01000000
00010000
00000000
01000000
00000000
10000000
00000000
00100000
01000000
00010000
00000000
10000000
00000000
01000000
00000000
,
00010000
00001000
00000010
00000001
00002000
00000000
00000000
00000000
,
00003001
00000000
00000001
00000000
00000100
00000000
00000010
00000100
00001000
00010000
00001000
00000000
00010000
00000000
00000000
00000000
,
00011000
00000000
00000000
00000000
,
00000000
00000000
00000000
00000000
;
