
//----- song ID: poss3 -----//
#TITLE:POSSESSION (20th Anniversary Mix);
#ARTIST:BEMANI Sound Team “Sota Fujimori 2nd Season”;
#BANNER:POSSESSION (20th Anniversary Mix).png;
#BACKGROUND:POSSESSION (20th Anniversary Mix)-bg.png;
#CDTITLE:./CDTitles/DDR A.png;
#MUSIC:POSSESSION (20th Anniversary Mix).ogg;
#SAMPLESTART:12.628;
#SAMPLELENGTH:15;
#BPMS:0=190,37=380,165=190,196=380,322=190,357=380,577=190,579=380;
#STOPS:36=0.947,180=0.316,224=0.079,224.5=0.079,225=0.079,225.5=0.079,337=0.316;
#NOTES:
     dance-single:
     :
     Beginner:
     8:
     :
0000
0000
0000
0000
,
0000
0000
0000
0000
,
0000
0000
0000
0000
,
0000
0000
0000
0000
,
0000
0000
0000
0000
,
0001
0000
1000
0000
,
0001
0000
1000
0000
,
0010
0000
0100
0000
,
0010
0100
0010
0000
,
0000
0001
0000
0010
,
0000
0001
0000
0010
,
0000
0100
0000
1000
,
0000
0100
0000
1000
,
0000
0100
0000
0000
,
0000
1000
0000
0000
,
0000
0001
0000
0000
,
0000
1000
0000
0000
,
0000
0010
0000
1000
,
0000
0010
0000
0010
,
0000
0100
0000
0001
,
0000
0100
0000
0100
,
0000
0010
0000
1000
,
0000
0100
0000
0100
,
0000
0010
0000
0001
,
0000
1000
0000
0000
,
0000
0001
0000
0100
,
0000
0020
0000
0000
,
0030
1000
0000
0100
,
0000
0020
0000
0000
,
0030
0001
0000
0000
,
0000
1000
0000
0000
,
0000
0010
0000
0100
,
0000
0010
0000
0100
,
0000
0001
0000
0000
,
0000
1000
0000
0000
,
0000
0001
0000
0000
,
0000
1000
0000
0000
,
0000
0010
0000
0010
,
0000
0001
0000
0000
,
0000
0100
0000
0100
,
0000
1000
0000
0000
,
0000
0220
0000
0000
,
0000
0000
0000
0000
,
0330
2002
0000
0000
,
0000
0000
3003
0100
,
0100
0100
0000
1000
,
0100
1000
0000
0100
,
0010
0000
0000
0100
0000
0000
0010
0000
,
0000
0100
0000
0000
0010
0000
0110
0000
,
0000
0000
1000
0000
,
0100
0000
0001
0000
,
0100
0000
0010
0000
,
0001
0000
0001
0000
,
0000
0000
1000
0000
,
0010
0000
0001
0000
,
0010
0000
0100
0000
,
0010
0010
0000
0000
,
1000
0000
0100
0000
,
1000
0000
0010
0000
,
1000
0000
0001
0000
,
0001
0000
0000
0000
,
0001
0000
0100
0000
,
0001
0000
0010
0000
,
0001
0000
1000
0000
,
1000
0000
0010
0000
,
0000
0000
1000
0000
,
0000
0000
0100
0000
,
0000
0000
0001
0000
,
0000
0000
0010
0000
,
0000
0000
0001
0000
,
0000
0000
0100
0000
,
0000
0000
1000
0000
,
0000
0000
0010
0000
,
0000
0000
1000
0000
,
0000
0000
0100
0000
,
0000
0000
0001
0000
,
0000
0000
0010
0000
,
0000
0000
0001
0000
,
0000
0000
0100
0000
,
0000
0000
2002
0000
,
0000
3003
1000
0000
,
0000
0000
0001
0000
,
0000
0000
0100
0000
,
0000
0000
0010
0000
,
0000
0000
0000
0010
,
0000
0001
0000
0100
,
0000
1000
0000
0001
,
0000
1000
0001
1000
,
0000
0000
0000
0000
,
0000
0100
0000
0001
,
0000
0100
0000
0100
,
0000
0001
0000
0010
,
0000
0100
0000
1000
,
0000
0010
0000
1000
,
0000
0010
0000
0010
,
0000
1000
0000
0100
,
0000
0010
0000
0001
,
0000
1000
0000
0001
,
0000
0100
0000
0010
,
0000
1000
0000
0100
,
0000
0010
0000
0010
,
0000
0001
0000
1000
,
0000
0010
0000
0100
,
0000
0001
0000
0010
,
0000
0100
0000
0100
,
0000
0010
0000
0010
,
0000
0010
1000
0010
,
0000
0100
0000
0100
,
0000
0100
0001
0100
,
0000
0001
0000
0001
,
0000
0001
0010
0001
,
0000
1000
0000
1000
,
0000
1000
0100
1000
,
0000
0010
0000
0001
,
0000
1000
0000
0100
,
0000
0001
0000
1000
,
0000
0001
0000
0010
,
0000
0100
0000
0010
,
0000
0001
0000
0010
,
0000
0001
0000
0100
,
0000
1000
0000
0001
,
0000
0010
0000
0000
,
0000
1000
0000
0000
,
0000
0100
0000
0000
,
0000
0001
0000
0000
,
0000
0010
0000
0000
,
0000
0001
0000
0000
,
0000
0100
0000
0000
,
0000
1000
0000
0000
,
0000
0010
0000
0000
,
0000
0001
0000
0000
,
0000
0100
0000
0000
,
0000
1000
0000
0000
,
0000
0010
0000
0000
,
0000
1000
0000
0000
,
0000
0100
0000
0000
,
0000
0001
0000
0000
,
0000
0010
0000
0000
,
0000
0001
0000
0000
,
0000
0100
0000
0000
,
0000
1000
0000
0000
,
0000
0010
0000
0000
,
0000
1000
0000
0000
,
0000
0100
0000
0000
,
0000
0001
0000
1000
,
0000
0000
0000
0001
,
0000
0000
0000
1000
,
0000
0000
0000
0001
,
0000
0000
0000
0010
,
0000
0000
0000
0001
,
0000
0000
0000
0100
,
0000
0000
0000
1000
,
0000
0000
0000
0010
,
0000
0000
0000
0001
,
0000
0000
0000
2002
,
0000
0000
0000
0000
,
0000
0000
0000
3003
,
0000
0000
0000
0000
;
#NOTES:
     dance-single:
     :
     Easy:
     11:
     :
0000
0000
0000
0000
,
0000
0000
0000
0000
,
0000
0000
0000
0000
,
0000
0000
0000
0000
,
0000
0000
0000
0000
,
0001
0001
1000
1000
,
0001
0001
1000
1000
,
0010
0010
0100
0100
,
0010
0100
0220
0000
,
0330
0001
0100
0001
,
0000
0100
0010
0100
,
0000
0010
1000
0010
,
0000
1000
0100
1000
,
0000
0010
0100
0010
,
0000
1000
0100
1000
,
0000
0001
1000
0001
,
0000
0100
0001
0100
,
0000
1000
0000
0100
,
0000
1000
0100
0010
,
0000
0001
0000
0100
,
0000
0001
0100
0010
,
0000
0100
0000
0010
,
0000
0100
0010
0100
,
0000
0001
0000
0000
,
1000
0000
0001
1000
,
0001
0001
0000
0101
,
0000
1000
0000
1100
,
0000
0001
0000
0011
,
0000
1000
0000
1010
,
0000
0001
0010
0001
,
0000
1000
0010
1000
,
0000
0001
0100
0001
,
0000
1000
0100
1000
,
0000
1000
0000
0010
,
0000
0001
0000
0010
,
0000
1000
0000
0010
,
0000
0001
0000
0010
,
0000
0100
0001
0100
,
0000
1000
0100
1000
,
0000
0010
1000
0010
,
0000
0001
0010
0001
,
0000
0220
0000
0000
,
0000
0000
0000
0000
,
0330
0000
0002
0000
0000
2000
0000
0000
,
0000
0000
3003
0010
,
0010
0000
0010
0000
0000
0100
0001
0000
,
0010
0000
0100
0000
0000
1000
0001
0000
,
1000
0000
0000
0100
0000
0000
0001
0000
,
0000
0100
0000
0000
0110
0000
1001
0000
,
0000
0000
0001
0000
,
1000
0100
0010
0000
,
0001
0100
0010
0000
,
1000
0100
1000
0000
,
0001
0000
0100
0000
,
0010
0100
0001
0000
,
0010
0100
1000
0000
,
0010
0010
1000
1000
0001
0000
0000
0000
,
0010
0000
0100
1000
,
0010
0000
0100
0001
,
0010
0000
0100
0010
,
0001
0000
0001
0000
,
0100
0000
1000
0001
,
0010
0000
0100
0001
,
1000
0000
0010
1000
,
0001
0000
0000
1000
0000
1000
,
0000
1000
0000
0001
0000
0001
,
0000
0001
0000
1000
0000
1000
,
0000
1000
0000
0001
0000
0001
,
0000
0001
0000
0010
0000
0010
,
0000
0010
0000
0100
0000
0100
,
0000
0100
0000
0010
0000
0010
,
0000
0010
0000
0100
0000
0100
,
0000
0001
0000
1000
0000
1000
,
0000
1000
0000
0100
0000
0100
,
0000
0100
0000
0010
0000
0010
,
0000
0010
0000
0001
0000
0001
,
0000
0001
0000
0010
0000
0010
,
0000
0010
0000
0100
0000
0100
,
0000
0100
0000
1000
0000
1000
,
0000
1000
0000
2002
0000
0000
,
0000
3003
0002
1000
,
0000
0000
0000
1000
0003
0000
0010
0000
,
0000
0010
2000
0001
,
0000
0000
0000
0001
3000
0000
0100
0000
,
0000
0100
0001
0100
,
0100
1000
1000
0010
,
0010
0002
0000
2000
,
3003
0001
1000
2002
,
0000
3003
0000
0000
,
0000
0010
0000
1000
,
0000
0100
1000
0100
,
0000
0010
0001
0010
,
0000
0001
0100
0001
,
0000
1000
0000
0100
,
0000
0010
0100
0010
,
0000
0100
0010
0100
,
0000
0010
0001
0100
,
0000
1000
0000
0010
,
0000
1000
0001
0010
,
0000
0001
1000
0010
,
0000
1000
0001
0010
,
0000
1000
0000
0100
,
0000
0001
1000
0100
,
0000
1000
0001
0100
,
0000
0001
1000
0100
,
0000
0010
0100
0010
,
0100
0010
0100
0010
,
0000
1000
0001
1000
,
0001
1000
0001
1000
,
0000
0010
1000
0010
,
1000
0001
0100
0001
,
0000
0100
0001
0100
,
0001
1000
0010
1000
,
0000
0010
0100
0001
,
0000
0001
0100
0010
,
0000
1000
0100
0010
,
0000
0010
0100
1000
,
0000
1000
0001
0100
,
0001
1000
0100
0010
,
0001
1000
0010
0100
,
0001
0010
0100
1000
,
0000
0000
0000
0100
0000
0000
0000
0100
0000
0000
0000
0100
,
0000
0000
0000
0001
0000
0000
0000
0001
0000
0000
0000
0001
,
0000
0000
0000
0010
0000
0000
0000
0010
0000
0000
0000
0010
,
0000
0000
0000
1000
0000
0000
0000
1000
0000
0000
0000
1000
,
0000
0000
0000
0100
0000
0000
0000
0100
0000
0000
0000
0100
,
0000
0000
0000
1000
0000
0000
0000
1000
0000
0000
0000
1000
,
0000
0000
0000
0010
0000
0000
0000
0010
0000
0000
0000
0010
,
0000
0000
0000
0001
0000
0000
0000
0001
0000
0000
0000
0001
,
0000
0000
0000
0100
0000
0000
0000
0100
0000
0000
0000
0100
,
0000
0000
0000
1000
0000
0000
0000
1000
0000
0000
0000
1000
,
0000
0000
0000
0010
0000
0000
0000
0010
0000
0000
0000
0010
,
0000
0000
0000
0001
0000
0000
0000
0001
0000
0000
0000
0001
,
0000
0000
0000
0100
0000
0000
0000
0100
0000
0000
0000
0100
,
0000
0000
0000
1000
0000
0000
0000
1000
0000
0000
0000
1000
,
0000
0000
0000
0100
0000
0000
0000
0100
0000
0000
0000
0100
,
0000
0000
0000
0001
0000
0000
0000
0001
0000
0000
0000
0001
,
0000
0000
0000
0010
0000
0000
0000
0010
0000
0000
0000
0010
,
0000
0000
0000
0001
0000
0000
0000
0100
0000
0000
0000
0010
,
0000
0000
0000
1000
0000
0000
0000
1000
0000
0000
0000
1000
,
0000
0000
0000
0010
0000
0000
0000
0100
0000
0000
0000
0001
,
0000
0000
0000
0010
0000
0000
0000
0010
0000
0000
0000
0010
,
0000
0000
0000
0001
0000
0000
0000
1000
0000
0000
0000
0100
,
0000
0000
0000
0010
0000
0000
0000
0010
0000
0000
0000
0010
,
0000
0000
0000
1000
0000
0100
0000
0010
0000
0001
0000
0000
,
0000
0100
0000
0000
0000
0010
0000
0000
0000
1000
0000
0000
,
0000
0010
0000
0000
0000
0100
0000
0000
0000
0001
0000
0000
,
0000
0010
0000
0000
0000
0100
0000
0000
0000
1000
0000
0000
,
0000
0100
0000
0000
0000
0010
0000
0000
0000
0001
0000
0000
,
0000
0010
0000
0000
0000
0100
0000
0000
0000
1000
0000
0000
,
0000
0001
0000
0000
0000
0010
0000
0000
0000
0001
0000
0000
,
0000
0100
0000
0000
0000
1000
0000
0000
0000
1000
0000
0000
,
0000
0010
0000
0000
0000
0001
0000
0000
0000
0001
0000
0000
,
0000
0100
0000
0000
0000
1000
0000
0000
0000
1000
0000
0000
,
0000
0010
0000
0000
0000
0001
0000
0000
0000
2002
0000
0000
,
0000
0000
0000
0000
,
0000
0000
0000
3003
,
0000
0000
0000
0000
;
#NOTES:
     dance-single:
     :
     Medium:
     14:
     :
0000
0000
0000
0000
,
0000
0000
0000
0000
,
0000
0000
0000
0000
,
0000
0000
0000
0000
,
0000
0000
0000
0000
,
0001
0000
0000
0001
0000
0000
0001
0000
0010
0000
0000
0010
0000
0000
0010
0000
,
0100
0000
0000
0100
0000
0000
0100
0000
1000
0000
0000
1000
0000
0000
0000
0000
,
0001
0000
0000
0001
0000
0000
0001
0000
0010
0000
0000
0010
0000
0000
0010
0000
,
1000
0000
0000
1000
0000
0000
1000
0000
0200
0000
0000
0000
0000
0000
0000
0000
,
0300
0100
1000
0100
,
0010
0100
0010
0001
,
0010
0001
0100
0001
,
0100
0010
0100
0010
,
1000
0010
1000
0020
,
0030
1000
0100
2000
,
3000
0001
1000
0002
,
0003
1000
0100
2000
,
3000
0001
1000
0100
,
0010
0001
0010
0100
,
0000
0100
0010
1000
,
0010
0100
0001
0010
,
0100
0000
0010
0001
,
0100
0010
1000
0010
,
0000
1000
0000
0000
,
0001
0000
0001
1000
,
0000
0000
0001
0000
0000
0010
0000
0000
,
0001
1000
0100
1000
,
0100
0000
1000
0000
0000
0010
0000
0000
,
1000
0001
0100
0001
,
0100
0001
0010
0100
,
0000
1000
0001
0100
,
0000
0010
1000
0010
,
1000
0001
0100
0001
,
0100
0001
0100
0010
,
0000
1000
0100
0010
,
0000
0001
0010
0100
,
1000
0100
0010
0001
,
0000
1000
0100
0010
,
0000
0001
0100
0010
,
0000
0100
0001
0100
,
0020
0000
0000
1030
,
0000
0220
0000
0000
,
0000
0000
0000
0000
,
0330
0001
2000
0000
0000
0002
0000
0000
,
0000
0000
3003
0110
,
0110
0010
0100
0010
0000
0100
0100
0000
,
0010
0100
1000
0100
0000
1000
1000
0001
,
0100
0000
1000
0100
0000
0001
0100
0000
,
1000
0001
0000
0010
0100
0010
0110
0000
,
0000
0001
1000
0010
,
0100
0001
0011
0000
,
0010
0000
0001
0000
0010
0000
0100
1000
,
0100
1000
0100
1000
,
0001
0100
0010
1000
,
0100
0010
0011
0000
,
0100
0000
0010
0000
0100
0000
0010
0001
,
0010
0001
0100
0010
0100
0000
0001
0000
,
0010
0001
1000
0010
,
0110
0000
1000
0001
,
0010
0000
0100
0010
0100
0000
0010
0000
,
0001
0000
0100
0000
,
0001
0000
1000
0001
,
0000
0010
0000
1000
,
0001
0000
0010
0100
0010
0000
0001
0000
,
1000
0000
0000
0001
0000
0010
,
0000
0001
0000
0010
0000
0001
,
0000
0010
0000
0100
0000
1000
,
0000
0100
0000
1000
0100
1000
,
0000
0100
0000
1000
0000
0010
,
0000
1000
0000
0010
0000
1000
,
0000
0010
0000
0100
0000
0001
,
0000
0100
0000
0100
0000
0100
,
0000
0001
0000
1000
0000
0100
,
0000
1000
0000
0001
0000
0010
,
0000
0001
0000
0100
0000
0001
,
0000
0100
0000
0010
1000
0010
,
0000
0010
0000
0100
0000
1000
,
0000
0100
0000
0001
0000
0100
,
0000
0001
0000
0010
0000
0100
,
0000
0010
0000
2002
0000
0000
,
0000
0000
3003
0000
1000
0100
0010
0000
,
1000
0100
0000
0010
0000
0000
0000
0000
,
0001
0100
1000
0000
0001
0100
0010
0000
,
0001
0100
0000
0010
0000
0000
0000
0000
,
1000
0100
0001
0100
1000
0000
0010
1000
,
0010
0000
0010
0001
0010
0000
0001
0100
,
0001
0000
1000
0100
1000
0100
0010
0001
,
0010
0001
1000
0001
0010
0100
1000
0001
,
1000
0000
1001
0000
0010
0100
0001
1000
,
0001
0010
1000
0001
,
0010
0100
1000
0010
,
0010
1000
0001
0010
,
0100
0010
0100
0000
1000
0000
0100
0000
,
1000
0001
0010
0100
,
1000
0100
0010
0001
,
0001
0100
0010
0100
,
0010
1000
0010
0000
1000
0000
0100
0000
,
0010
0002
2003
3010
,
1000
0001
0010
0100
,
0010
0001
1000
0010
,
0100
0010
0100
0000
0010
0000
2000
0000
,
3000
0010
1000
0001
,
0010
0001
1000
0100
,
1000
0010
1000
0001
,
0100
0010
0100
0000
0001
0000
1000
0000
,
0100
0010
0100
0201
,
0300
0100
1000
1200
,
0300
1000
0001
0100
,
0010
0100
0010
0000
0100
0000
0001
0000
,
0010
0001
0100
1200
,
0300
0100
0001
0201
,
0300
0001
1000
0100
,
0010
0100
0010
0000
0100
0000
2000
0000
,
3000
0001
0100
0110
,
0000
1000
0010
0110
,
0000
0001
0010
0110
,
0000
1000
0100
0110
,
0000
0210
0310
0110
,
0000
0120
0130
0110
,
0000
1002
1003
2001
,
3001
1002
1003
1001
,
0000
0000
0000
0001
0000
0000
0000
1000
0000
0000
0000
0100
,
0000
0000
0000
1000
0000
0000
0000
0001
0000
0000
0000
0100
,
0000
0000
0000
0001
0000
0000
0000
1000
0000
0000
0000
0010
,
0000
0000
0000
1000
0000
0000
0000
0001
0000
0000
0000
0010
,
0000
0000
0000
0100
0000
0000
0000
1000
0000
0000
0000
0010
,
0000
0000
0000
1000
0000
0000
0000
0100
0000
0000
0000
0010
,
0000
0000
0000
0001
0000
0000
0000
0100
0000
0000
0000
0010
,
0000
0000
0000
0100
0000
0000
0000
0001
0000
0000
0000
0010
,
0000
0000
0000
0100
0000
0000
0000
1000
0000
0000
0000
1100
,
0000
0000
0000
0001
0000
0000
0000
0100
0000
0000
0000
0101
,
0000
0000
0000
0001
0000
0000
0000
0010
0000
0000
0000
0011
,
0000
0000
0000
1000
0000
0010
0000
1000
0000
0000
0000
1010
,
0000
0000
0000
1000
0000
0000
0000
0100
0000
0000
0000
0001
,
0000
0000
0000
0001
0000
0000
0000
0100
0000
0000
0000
1000
,
0000
0000
0000
1000
0000
0000
0000
0010
0000
0000
0000
0001
,
0000
0000
0000
0001
0000
0000
0000
0010
0000
0000
0000
1000
,
0000
0000
0000
0010
0000
0000
0000
1000
0000
0000
0000
0100
,
0000
0010
0000
0100
0000
0000
0000
0010
0000
0000
0000
0001
,
0000
0010
0000
0001
0000
0000
0000
0100
0000
0000
0000
0010
,
0000
1000
0000
0010
0000
0000
0000
0100
0000
0000
0000
0001
,
0000
0000
0000
1000
0000
0000
0000
0001
0000
0000
0000
0010
,
0000
0100
0000
0010
0000
0000
0000
0100
0000
0000
0000
1000
,
0000
0100
0000
1000
0000
0000
0000
0001
0000
0000
0000
1000
,
0000
0000
0000
0100
0010
0100
0010
0100
0000
1100
0000
0000
,
0000
1100
0000
0000
0000
1100
0000
0000
0000
0011
0000
0000
,
0000
0011
0000
0000
0000
0011
0000
0000
0000
0101
0000
0000
,
0000
0101
0000
0000
0000
0101
0000
0000
0000
1010
0000
0000
,
0000
1010
0000
0000
0000
1010
0000
0000
0000
1100
0000
0000
,
0000
0100
0000
0000
0000
0101
0000
0000
0000
0011
0000
0000
,
0000
0010
0000
0000
0000
1010
0000
0000
0000
1001
0000
0000
,
0000
0100
0000
0000
0000
1001
0000
0000
0000
1001
0000
0000
,
0000
0010
0000
0000
0000
1001
0000
0000
0000
1001
0000
0000
,
0000
0110
0000
0000
0000
1001
0000
0000
0000
1001
0000
0000
,
0000
0110
0000
0000
0000
1001
0000
0000
0000
2002
0000
0000
,
0000
0000
0000
0000
,
0000
0000
0000
3003
,
0000
0000
0000
0000
;
#NOTES:
     dance-single:
     :
     Hard:
     16:
     :
0000
0000
0000
0000
,
0000
0000
0000
0000
,
0000
0000
0000
0000
,
0000
0000
0000
0000
,
0000
0000
0000
0000
,
0010
0000
0000
1000
0000
0000
1010
0000
0001
0000
0000
1000
0000
0000
0100
0000
,
0010
0000
0000
0001
0000
0000
0011
0000
1000
0000
0000
0001
0000
0000
0000
0000
,
0010
0000
0000
1000
0000
0000
1010
0000
0001
0000
0000
1000
0000
0000
0100
0000
,
0010
0000
0000
0000
0000
0000
0000
0000
0000
0000
0000
0000
0001
0000
0000
0000
0000
0000
0000
0000
0000
0000
0000
0000
0011
0000
0000
0000
0000
0000
0000
0000
2002
0000
0000
0000
0000
0000
0000
0000
0000
0000
0000
0000
0000
0000
0000
0000
0000
0000
0000
0000
0000
0000
0000
0000
0000
0000
0000
0000
0000
0000
0000
3003
,
0000
0010
0001
1000
,
0010
0100
0010
1000
,
0100
0010
0001
0100
,
0010
0100
0001
1000
,
0100
1000
0010
0100
,
0001
0010
0100
1000
,
0001
1000
0100
0010
,
0100
1000
0010
0100
,
0010
1000
0001
0010
,
0100
1000
0100
1000
,
0100
0010
0100
1000
,
0010
0100
0001
0100
,
0001
0010
0100
1000
,
0100
0001
0100
1000
,
0100
0110
0000
0001
,
0101
0000
1000
0010
,
0100
0001
0100
0010
,
1000
0010
0100
0001
,
0010
0000
0001
0000
0100
0010
1000
0000
,
0010
0000
1000
0001
0010
0000
0100
0000
,
1000
0100
0010
0001
,
0100
1000
0100
0001
,
0010
0000
0001
0000
0010
0001
0100
0000
,
0020
0000
0000
0000
1030
0000
0001
0100
,
0010
1000
0010
0100
,
0010
0100
0001
0100
,
0010
0000
1000
0000
0100
1000
0010
0000
,
0100
0000
0001
0010
0100
0000
0010
0000
,
0001
0010
0100
1000
,
0010
0001
0010
1000
,
0100
0000
0001
0000
0100
1000
0020
0000
,
0200
0000
0330
1001
,
0000
0220
0000
0000
,
0000
0000
0000
0000
,
0330
1000
0002
0000
0000
2000
0000
0000
,
0000
0000
3003
0011
,
1100
0000
1000
0000
0100
0000
0010
0100
1000
0100
0010
0000
0001
0000
0000
0000
,
0010
0000
0010
0000
0100
0000
0001
0100
0010
0100
0001
0000
1000
0000
0001
0000
,
0100
0001
0010
0011
0000
0100
1100
0000
,
0001
0101
0000
0010
0100
0010
0110
0000
,
0000
0000
1000
0000
0001
0000
0100
0010
,
0100
0000
0001
0000
1000
0100
1000
0000
,
0001
0001
0010
0010
,
0100
1000
0010
0010
,
0100
0000
0001
0000
1000
0000
0010
1000
,
0010
0000
0100
0000
0001
0100
0001
0000
,
0010
0010
0100
0100
,
1000
0001
0010
0100
0010
0001
1000
0000
,
0010
0000
1000
0001
0010
0000
0100
0000
,
0010
0001
1000
0000
0010
1000
0001
0000
,
0010
0000
0001
1000
0010
0000
0100
0000
,
1002
0000
1003
0000
,
1100
0001
1000
0100
,
0010
0001
0101
1000
,
1100
0000
1010
0010
,
0011
0000
0000
0101
0000
0101
,
0000
0101
0000
0011
0000
1010
,
0000
0011
0000
0010
0000
0001
,
0000
1000
0000
0010
1000
0010
,
0000
0100
0000
0101
0000
0101
,
0000
0101
0000
1001
0000
1100
,
0000
1001
0000
1100
0000
1100
,
0000
1100
0000
0100
0000
0100
,
0000
0001
0000
0011
0000
1010
,
0000
0011
0000
1000
0000
0100
,
0000
1000
0001
1000
0000
0100
,
0000
0010
0000
0001
0010
0001
,
0000
0010
0100
1000
0000
0010
,
0000
1010
0000
0001
0000
0100
,
0000
1100
0000
0001
0000
0100
,
0000
0110
0000
2002
0000
0000
,
0000
0000
0000
3003
0001
0010
0001
0000
,
1000
0100
1000
0100
0000
0100
1000
0000
,
0001
0000
0100
0000
0010
0000
1000
0001
1000
0000
0000
0001
0000
0000
1001
0000
,
0000
0010
0100
0001
0000
1000
0001
0100
,
0010
0000
1001
0010
0001
0010
0001
0100
,
0001
0100
0010
1000
0010
1000
0100
1000
,
0100
0000
1000
0000
0010
1000
0010
0000
0100
0001
0100
0000
0001
0010
0001
0000
,
1000
0100
1000
0000
0001
0000
1000
0000
0100
0010
0100
0010
0100
0000
0010
0000
,
0010
0000
0000
0000
1001
0000
0000
0000
1000
0100
0010
0001
1000
0000
0100
0000
,
0220
0330
0010
0100
0010
0000
0001
0000
,
0010
0100
0010
0000
0001
0000
1000
0010
,
1000
0000
0001
0010
0001
0000
0100
0000
,
0010
0100
0010
0000
1000
0000
0100
0000
,
0010
0000
0001
0100
0001
0000
1000
0000
,
0100
0010
0100
0000
0010
0000
0001
1000
,
0001
0000
0100
0010
0100
0000
0010
0000
,
1000
0100
1000
0000
0001
0000
0100
0000
,
0010
0200
0302
1003
,
0100
0010
0001
0000
1000
0000
0001
0010
,
0100
0000
1000
0100
0010
0000
0001
0000
,
0010
0100
1000
0000
0001
0000
2000
0000
,
3000
0000
0010
1000
0001
0000
0100
0000
,
0001
1000
0010
0000
0100
0000
0010
1000
,
0001
0000
0100
0001
1000
0000
0010
0000
,
1000
0001
0100
0000
0010
0000
1000
0000
,
0001
0000
1000
0100
0010
0000
0110
0000
,
0010
0100
1000
0000
0001
0000
0100
0000
,
0001
1000
0100
1100
,
0000
0001
0100
0101
,
0000
0000
0001
0010
0100
0000
0110
0000
,
0100
0010
0001
0000
1000
0000
0010
0000
,
1000
0001
0010
0011
,
0000
1000
0010
2020
,
3030
0000
0010
1000
0001
0000
1001
0000
,
0001
1000
0100
0000
1000
0000
0010
0000
,
0100
0101
0001
0011
,
0000
1100
1000
2020
,
3030
0000
0100
0001
1000
0000
1001
0000
,
1000
0001
0010
0000
0001
0000
0100
0000
,
0010
1010
1000
1001
,
0001
0101
0100
0110
,
0000
0000
0000
1100
0000
0000
0000
0101
0000
0000
0000
0101
,
0000
0000
0000
0011
0000
0000
0000
1010
0000
0000
0000
0011
,
0000
0000
0000
0101
0000
0000
0000
1100
0000
0000
0000
1100
,
0000
0000
0000
1010
0000
0000
0000
0011
0000
0000
0000
1010
,
0000
0000
0000
1100
0000
0000
0000
1010
0000
0000
0000
1010
,
0000
0000
0000
0011
0000
0000
0000
1010
0000
0000
0000
0011
,
0000
0000
0000
0101
0000
0000
0000
0011
0000
0000
0000
0011
,
0000
0000
0000
0101
0000
0000
0000
1100
0000
0000
0000
0101
,
0000
0000
0000
0011
0000
0000
0000
1010
0000
0000
0000
1100
,
0000
0000
0000
0101
0000
0000
0000
1100
0000
0000
0000
1000
,
0000
0001
0000
0010
0000
0000
0000
0011
0000
0000
0000
0101
,
0000
0000
0000
0100
0000
0001
0000
0010
0000
0000
0000
0100
,
0000
0010
0000
0001
0000
0000
0000
0011
0000
0000
0000
0101
,
0000
0000
0000
1100
0000
0000
0000
0101
0000
0000
0000
0011
,
0000
0000
0000
1010
0000
0000
0000
0101
0000
0000
0000
1100
,
0000
0000
0000
0101
0000
0000
0000
0011
0000
0000
0000
0101
,
0000
0000
0000
0010
0000
1000
0000
0010
0000
0100
0000
0001
,
0000
0200
0000
0010
0000
0000
0000
0310
0000
0000
0000
0110
,
0000
0000
0000
1000
0000
0100
0000
1000
0000
0001
0000
0010
,
0000
0002
0000
1000
0000
0000
0000
1003
0000
0000
0000
1001
,
0000
0000
0000
0010
0000
1000
0000
0010
0000
0100
0000
0001
,
0000
0200
0000
0010
0000
0000
0000
0310
0000
0000
0000
0110
,
0000
0000
0000
1000
0000
0100
0000
1000
0000
0001
0000
0010
,
0000
0001
0000
1000
0100
0010
0001
0010
0100
1000
0000
0001
,
0000
0100
0000
0000
0000
0110
0000
0000
0000
1000
0000
0100
,
0000
0010
0000
0000
0000
0110
0000
0000
0000
0001
0000
1000
,
0000
0100
0000
0000
0000
1100
0000
0000
0000
1000
0000
0100
,
0000
0010
0000
0000
0000
0011
0000
0000
0000
0010
0000
0001
,
0000
1000
0000
0000
0000
1001
0000
0000
0000
0010
0000
0100
,
0000
0001
0000
0000
0000
0011
0000
0000
0000
1000
0000
0000
,
0000
1100
0000
0000
0000
0101
0000
0000
0000
0001
0000
0000
,
0000
0011
0000
0000
0000
1010
0000
0000
0000
0110
0000
0000
,
0000
0101
0000
0000
0000
0011
0000
0000
0000
0110
0000
0000
,
0000
1100
0000
0000
0000
1010
0000
0000
0000
0220
0000
0000
,
0000
0000
0000
0000
,
0000
0000
0000
0330
,
0000
0000
0000
0000
;
#NOTES:
     dance-single:
     :
     Challenge:
     18:
     :
0000
0000
0000
0000
,
0000
0000
0000
0000
,
0000
0000
0000
0000
,
0000
0000
0000
0000
,
0000
0000
0000
0000
,
0001
0000
0000
0110
0000
0000
1000
0100
0010
0000
0000
0001
0000
0000
0100
0000
,
1000
0000
0000
0110
0000
0000
1000
0010
0100
0000
0000
0001
0000
0000
0000
0000
,
0100
0000
0000
1001
0000
0000
0001
0010
0100
0010
0000
0001
0000
0000
1000
0000
,
0010
0000
0000
1001
0000
0000
1000
0020
0200
0000
0000
0000
0000
0000
0000
0000
,
0000
0330
0000
0000
0000
0000
0000
0000
MMMM
0000
0000
0000
0000
0000
0000
0000
1000
0000
0000
0000
0000
0000
0000
0000
0000
0000
0000
0000
0000
0000
0000
0000
0010
0000
0000
0000
0000
0000
0000
0000
0000
0000
0000
0000
0000
0000
0000
0000
0001
0000
0000
0000
0000
0000
0000
0000
0000
0000
0000
0000
0000
0000
0000
0000
,
1000
0100
0001
0010
,
0100
0000
1000
0000
0001
0010
1000
0000
,
0001
0100
1000
0000
0001
0010
1000
0000
,
0001
0100
2000
0000
0000
0000
3010
0000
,
MMMM
0110
0110
MMMM
,
1001
0000
1000
0100
0010
0000
0011
0000
,
0010
0100
1000
0000
0010
0000
0001
0000
,
1000
0000
0100
0001
0100
0000
0010
0000
,
1000
0100
0001
0100
,
1000
0000
0001
0010
0100
0000
1000
0000
,
0010
0100
0010
0001
0010
0000
0100
0000
,
2002
3003
1001
0110
,
MMMM
0011
1100
MMMM
,
1010
0202
0000
0303
,
2002
3003
0110
1001
,
0110
0000
0001
0000
1000
0010
0000
0010
,
0100
0000
0001
0100
0010
0100
0001
0000
,
1000
0100
0001
0000
0100
0010
0000
1000
,
0010
0000
0001
0010
0100
1000
0010
0000
,
1000
0100
1000
0000
0001
0010
0000
1000
,
0001
0000
0100
0000
0010
0001
1000
0000
,
0001
1100
MMMM
1000
,
0101
MMMM
0010
1001
,
0001
1000
0010
0000
0001
0000
0010
0000
,
1000
0010
MMMM
0100
,
0001
0010
0100
0000
1000
0000
0100
0000
,
MMMM
0110
0110
0011
,
1010
MMMM
MMMM
1001
,
0010
0100
0001
1000
0010
0000
0100
0010
,
1000
0001
0100
0000
MMMM
0000
MMMM
0000
,
0110
MMMM
1100
1001
,
0011
0000
2000
0000
0000
0002
0000
0000
,
3003
0000
0000
0000
0001
0000
1000
0000
0010
0000
0100
0010
1000
0000
0001
0000
,
0010
0100
0000
0000
1000
0000
0001
0000
0010
0000
0100
0010
0001
0000
1000
0000
,
0010
0100
0000
0000
0010
0000
1000
0000
0001
0000
0100
0010
0100
0000
0010
0000
,
MMMM
1000
0100
0001
0000
1001
0000
1010
,
0010
0001
0000
0101
0000
1010
0000
0001
,
0001
0000
0101
0000
0000
0000
1100
0000
0000
0000
0101
0000
1000
0100
1000
0000
,
0001
0010
0100
0000
1000
0000
0001
0010
0001
0000
1000
0000
0001
0000
0100
0000
,
MMMM
0110
0110
1001
,
1001
MMMM
0011
1010
,
0001
0010
0100
1000
,
0010
0100
0001
1000
,
MMMM
0000
0100
0001
1000
0000
MMMM
0000
,
0020
0000
0001
0031
,
1000
0100
0010
0001
1001
0000
0000
0000
,
0010
MMMM
0010
MMMM
0010
MMMM
0010
MMMM
0010
0000
0000
0000
1000
0000
0000
0000
,
1000
MMMM
0200
0000
,
0001
0000
0301
0000
1000
0100
0010
0000
,
0001
0100
0010
0100
1000
0100
0010
0000
,
MMMM
0000
0001
0100
0010
0000
0110
0000
,
1010
0101
0011
1100
,
1001
0000
0110
0000
0001
0100
1000
0100
,
0001
0000
1000
0100
0001
0000
0101
0000
,
0110
0000
0000
1100
0000
0000
1001
0000
0000
0000
0101
0000
,
0000
0011
0000
1001
0000
1100
,
0000
1010
0000
1001
0000
0011
,
0000
1100
0000
0010
1000
0100
,
0000
MMMM
0000
0110
0000
0011
,
0000
1010
0000
0110
0000
0101
,
0000
1100
0000
1001
0000
1010
,
0000
MMMM
0000
0100
0000
0100
,
0000
0001
0000
0011
0000
1010
,
0000
1100
0000
0101
0000
0011
,
0000
0010
1000
0100
0000
0101
,
0000
MMMM
0000
0001
0010
0100
,
0000
1000
0010
0100
0000
1010
,
0000
0011
0000
0101
0000
1100
,
0000
0010
0001
0100
0000
1001
,
0000
0000
0110
0000
0000
0000
2002
0000
0000
3003
0000
0000
,
MMMM
0000
0000
0000
1000
0100
0010
0001
,
1000
0100
1000
0000
0010
0000
0100
0000
0001
0100
0001
0000
0010
0100
1000
0000
,
0001
0100
0010
0100
0001
0000
1000
0100
0010
0000
0000
0100
0000
0000
1001
0000
,
0000
0000
0010
0000
0100
0000
0100
0000
0010
1000
0100
0000
0010
0001
0100
0000
,
0010
1000
0100
0000
MMMM
0000
1000
0000
0010
0000
0001
0000
1000
0100
0001
0000
,
1000
0010
0001
0010
1000
0000
0100
0000
0001
0000
1000
0000
0010
0000
0001
1000
,
0000
1000
0001
0100
0010
1000
0100
0000
0001
0100
1000
0010
0001
0000
1000
0100
,
0001
0010
0100
0010
1000
0000
0010
0000
0001
0100
1000
0100
0010
0000
0100
0000
,
0110
0000
0000
0000
0001
1000
0100
0000
0001
0100
1000
0100
0001
0000
0100
0000
,
MMMM
0001
1000
0001
,
1000
0010
0100
0000
0101
0000
0100
0010
,
1000
0000
0001
0010
1000
0000
MMMM
0000
,
1000
0010
0001
0000
MMMM
0000
0001
0100
,
0010
1000
0001
1001
,
0100
0010
0001
0000
1000
0000
0010
0100
,
0001
0000
1000
0010
0001
0000
MMMM
0000
,
0001
0010
1000
0000
MMMM
0000
1000
0000
,
0100
0000
0010
0100
0010
0000
0001
0000
,
0100
0100
1000
0000
0001
0000
0100
0100
,
1000
0000
0100
0100
0001
1000
0001
0000
,
0100
0100
1000
0000
0010
0000
MMMM
0000
,
0000
1000
0001
0010
,
0100
0100
0001
0000
0010
0000
0100
0100
,
0001
0000
0100
0100
1000
0000
0100
0000
,
1000
0100
0011
0000
1100
0000
1010
0000
,
0101
0000
1000
0100
0010
0000
0001
0010
,
0100
1000
0001
0000
0100
0000
0001
0010
,
1000
0000
0001
0100
1000
0000
0001
0010
,
1000
0010
0001
0000
0010
0000
0001
0000
,
0100
0000
0010
1000
0001
0000
0100
0001
,
1000
0010
1000
0000
0100
0000
1001
0000
,
1001
MMMM
0110
1001
,
0100
0010
0100
0000
0100
0000
MMMM
0000
,
0000
0000
1000
0100
0001
0000
1001
0000
,
0001
0100
1000
0000
0001
0000
0110
0000
,
0110
MMMM
1010
0101
,
0010
1000
0100
0000
0100
0000
MMMM
0000
,
0000
0001
0001
1000
,
1000
0010
0010
0100
,
0100
0000
0001
0000
1000
0100
1000
0000
,
0001
0010
0100
0010
0001
0000
1100
0000
,
0011
0000
0000
1010
0000
0000
0000
0101
0000
0000
0000
1100
,
0000
0000
0000
0011
0000
0000
0000
1100
0000
0000
0000
MMMM
,
0000
0000
0000
0011
0000
0000
0000
0110
0000
0000
0000
1100
,
0000
0000
0000
1010
0000
0000
0000
0110
0000
0000
0000
MMMM
,
0000
0000
0000
0011
0000
0000
0000
1100
0000
0000
0000
0101
,
0000
0000
0000
1010
0000
0000
0000
0101
0000
0000
0000
MMMM
,
0000
0000
0000
1010
0000
0000
0000
0110
0000
0000
0000
0101
,
0000
0000
0000
0011
0000
0000
0000
0110
0000
0000
0000
MMMM
,
0000
0000
0000
0011
0000
0000
0000
1001
0000
0000
0000
1100
,
0000
0000
0000
1010
0000
0000
0000
1001
0000
0000
0000
0100
,
0000
1000
0000
0100
0000
0000
0000
0101
0000
0000
0000
0011
,
0000
0000
0000
0010
0000
1000
0000
0010
0000
0000
0000
MMMM
,
0000
0000
0000
0110
0000
0000
0000
1100
0000
0000
0000
1010
,
0000
0000
0000
0110
0000
0000
0000
0101
0000
0000
0000
0010
,
0000
1000
0000
0010
0000
0000
0000
1001
0000
0000
0000
0110
,
0000
0000
0000
1010
0000
0000
0000
0101
0000
0000
0000
MMMM
,
0000
0000
0000
0001
0000
0010
0000
0001
0000
0100
0000
0010
,
0000
1000
0000
MMMM
0000
0100
0000
0010
0000
1000
0000
0100
,
0000
0010
0000
MMMM
0000
0010
0000
0100
0000
1000
0000
0010
,
0000
0100
0000
0101
0000
0001
0000
1001
0000
0000
0000
1100
,
0000
0000
0000
0010
0000
0001
0000
0010
0000
0001
0000
1000
,
0000
0010
0000
MMMM
0000
0001
0000
0100
0000
0010
0000
1000
,
0000
0001
0000
MMMM
0000
0100
0000
0010
0000
0100
0000
1000
,
0000
0100
0000
0110
0100
1000
0001
0010
0100
1100
0000
0000
,
0000
MMMM
0000
0000
0000
1001
0000
0001
0000
0010
0000
0000
,
0000
MMMM
0000
0000
0000
1001
0000
1000
0000
0100
0000
0000
,
0000
MMMM
0000
0000
0000
0010
0000
0001
0000
0100
0000
1000
,
0000
0100
0000
0000
0000
0101
0000
0000
0000
1100
0000
0000
,
0000
MMMM
0000
0000
0000
0001
0000
0010
0000
1000
0000
0000
,
0000
MMMM
0000
0000
0000
0001
0000
0100
0000
1000
0000
0010
,
0000
0100
0000
0001
0000
1000
0100
1000
0000
0100
0000
0010
,
0000
0001
0000
1000
0000
0010
1000
0010
0000
0100
0000
0001
,
0000
0010
0000
0100
0000
1000
0100
1000
0000
0001
0000
0100
,
0000
1000
0000
0100
0000
0001
0000
0000
0000
0220
0000
0000
,
0000
0000
0000
0000
,
0000
0000
0000
0330
,
0000
0000
0000
0000
;
#NOTES:
     dance-double:
     :
     Easy:
     11:
     :
00000000
00000000
00000000
00000000
,
00000000
00000000
00000000
00000000
,
00000000
00000000
00000000
00000000
,
00000000
00000000
00000000
00000000
,
00000000
00000000
00000000
00000000
,
10000000
01000000
00010000
01000000
,
10000000
00100000
00010000
00001000
,
00000100
00000001
00000010
00000001
,
00000100
00001000
00022000
00000000
,
00033000
00001000
00000000
00010000
,
00000000
00100000
10000000
01000000
,
00000000
00100000
00000000
00010000
,
00000000
10000000
01000000
00100000
,
00000000
01000000
00010000
00001000
,
00000000
00100000
00001000
00010000
,
00000000
00001000
00010000
00001000
,
00000000
00000010
00000001
00001000
,
00000000
00000002
00000000
00000010
,
00000000
00002003
00000000
00000100
,
00000000
00003200
00000000
00010000
,
00000000
00020300
00000000
00001000
,
00000000
00031000
00010000
00001000
,
00000000
00010000
00001000
00010000
,
00000000
00011000
00000000
00000000
,
01100000
00000000
00100000
00100000
,
00000000
20000000
00000000
32000000
,
00000000
03020000
00000000
00031000
,
00000000
00002000
00000000
00003020
,
00000000
00000032
00000000
00001003
,
00000000
00000001
00000100
00001000
,
00000000
00010000
00001000
00010000
,
00000000
00100000
10000000
00010000
,
00000000
10000000
01000000
00010000
,
00000000
00001000
00010000
00001000
,
00010000
00001000
00000000
00010000
,
00001000
00010000
00001000
00010000
,
00000000
00001000
00000010
00000001
,
00000000
00000001
00000010
00000001
,
00000000
00001000
00000100
00001000
,
00000000
00000010
00000100
00000010
,
00000000
00010000
00001000
00010000
,
00000000
00022000
00000000
00000000
,
00000000
00000000
00000000
00000000
,
00033000
00000000
00020000
00000000
00000000
20000000
00000000
00000000
,
00000000
00000000
30030000
01000000
,
10010000
00100000
10000000
00100000
,
00010000
00001000
00010000
00001000
,
00000100
00000000
00000000
00000001
00000000
00000000
00000010
00000000
,
00000000
00000001
00000000
00000000
00000110
00000000
00001001
00000000
,
00000000
00000000
00000001
00000000
,
00000100
00001000
00000100
00000000
,
00001000
00010000
00100000
00000000
,
10000000
00010000
10000000
00000000
,
00010000
00000000
10000000
00000000
,
01000000
00100000
01000000
00000000
,
10000000
01000000
00010000
00001000
,
00010000
00001000
00010000
00000000
00001000
00000000
00000000
00000000
,
00000100
00000000
00000001
00000010
,
00000001
00000000
00000100
00000001
,
00001000
00000100
00010000
00001000
,
00100000
00000000
01000000
00000000
,
01100000
00000000
10000000
00000000
,
10010000
00000000
10000000
01000000
,
00010000
00000000
00011000
00000000
,
00011000
00000000
00000000
00001000
00000000
00001000
,
00000000
00001000
00000000
00000010
00000000
00000001
,
00000000
00000010
00000000
00000001
00000000
00000001
,
00000000
00000001
00000000
00000100
00000000
00000010
,
00000000
00000100
00000000
00001000
00000000
00001000
,
00000000
00001000
00000000
00010000
00000000
00001000
,
00000000
00010000
00000000
00100000
00000000
00100000
,
00000000
00100000
00000000
01000000
00000000
01000000
,
00000000
00010000
00000000
10000000
00000000
10000000
,
00000000
10000000
00000000
01000000
00000000
00100000
,
00000000
01000000
00000000
00010000
00000000
00010000
,
00000000
00010000
00000000
00001000
00000000
00010000
,
00000000
00001000
00000000
00000010
00000000
00000010
,
00000000
00000010
00000000
00000001
00000000
00001000
,
00000000
00000001
00000000
00001000
00000000
00001000
,
00000000
00000002
00000000
00002000
00000000
00000000
,
00003003
00000000
00000002
00000100
,
00000000
00000000
00000100
00000103
00000000
00000000
00000100
00000000
,
00001000
00010000
00200000
10000000
,
00000000
00000000
10000000
10300000
00000000
00000000
01000000
00000000
,
00100000
01000000
10000000
01000000
,
01000000
00010000
00010000
00001000
,
00001000
00000010
00001000
00010000
,
00100000
00010000
00001000
00000100
,
00000002
00001003
00000000
00000000
,
00000000
00001000
00000000
00000001
,
00000000
00000100
00001000
00000100
,
00000000
00001000
00010000
00100000
,
00000000
10000000
00010000
10000000
,
00000000
00010000
00000000
10000000
,
00000000
01000000
00100000
01000000
,
00000000
10000000
01000000
00010000
,
00001000
00010000
00001000
00010000
,
00000000
00001000
00000000
00000100
,
00000000
00000001
00000010
00000001
,
00000000
00000100
00000001
00001000
,
00000100
00010000
00001000
00100000
,
00000000
01000000
00000000
01100000
,
00000000
10000000
00000000
10010000
,
00000000
10000000
01000000
00010000
,
00000000
00011000
00000000
00011000
,
00000000
00010000
00001000
00010000
,
00001000
00010000
00001000
00010000
,
00000000
00001000
00000000
00000010
,
00000000
00000001
00000010
00000100
,
00000000
00001000
00000001
00001000
,
00000001
00001000
00000001
00001000
,
00000000
00000001
00000000
00000100
,
00000000
00001000
00010000
00001000
,
00000000
00010000
00100000
10000000
,
00000000
10000000
01000000
00010000
,
00000000
00001000
00010000
00001000
,
00000000
00010000
00001000
00010000
,
00000000
00001000
00000010
00000001
,
00000000
00000001
00000100
00001000
,
00000000
00010000
00001000
00010000
,
00001000
00010000
00000000
00011000
,
00000000
00000000
00000000
00010000
00000000
00000000
00000000
00010000
00000000
00000000
00000000
00010000
,
00000000
00000000
00000000
00001000
00000000
00000000
00000000
00010000
00000000
00000000
00000000
00001000
,
00000000
00000000
00000000
00100000
00000000
00000000
00000000
00100000
00000000
00000000
00000000
00100000
,
00000000
00000000
00000000
01000000
00000000
00000000
00000000
10000000
00000000
00000000
00000000
01000000
,
00000000
00000000
00000000
00100000
00000000
00000000
00000000
00100000
00000000
00000000
00000000
00100000
,
00000000
00000000
00000000
00010000
00000000
00000000
00000000
10000000
00000000
00000000
00000000
00010000
,
00000000
00000000
00000000
00100000
00000000
00000000
00000000
00010000
00000000
00000000
00000000
01000000
,
00000000
00000000
00000000
00100000
00000000
00000000
00000000
10000000
00000000
00000000
00000000
00010000
,
00000000
00000000
00000000
10000000
00000000
00000000
00000000
00100000
00000000
00000000
00000000
10000000
,
00000000
00000000
00000000
01000000
00000000
00000000
00000000
01000000
00000000
00000000
00000000
01000000
,
00000000
00000000
00000000
00010000
00000000
00000000
00000000
00001000
00000000
00000000
00000000
00010000
,
00000000
00000000
00000000
00001000
00000000
00000000
00000000
00001000
00000000
00000000
00000000
00001000
,
00000000
00000000
00000000
00000010
00000000
00000000
00000000
00000001
00000000
00000000
00000000
00000010
,
00000000
00000000
00000000
00000100
00000000
00000000
00000000
00000100
00000000
00000000
00000000
00000100
,
00000000
00000000
00000000
00000010
00000000
00000000
00000000
00000100
00000000
00000000
00000000
00001000
,
00000000
00000000
00000000
00000010
00000000
00000000
00000000
00000100
00000000
00000000
00000000
00000001
,
00000000
00000000
00000000
00000100
00000000
00000000
00000000
00000100
00000000
00000000
00000000
00000100
,
00000000
00000000
00000000
00000001
00000000
00000000
00000000
00000001
00000000
00000000
00000000
00000001
,
00000000
00000000
00000000
00000010
00000000
00000000
00000000
00000010
00000000
00000000
00000000
00000010
,
00000000
00000000
00000000
00001000
00000000
00000000
00000000
00001000
00000000
00000000
00000000
00001000
,
00000000
00000000
00000000
00010000
00000000
00000000
00000000
00010000
00000000
00000000
00000000
00010000
,
00000000
00000000
00000000
00100000
00000000
00000000
00000000
00100000
00000000
00000000
00000000
00100000
,
00000000
00000000
00000000
10000000
00000000
00000000
00000000
10000000
00000000
00000000
00000000
20000000
,
00000000
00000000
00000000
00200000
00000000
00000000
00000000
30300000
00000000
10000000
00000000
00000000
,
00000000
00010000
00000000
00000000
00000000
01000000
00000000
00000000
00000000
00100000
00000000
00000000
,
00000000
10000000
00000000
00000000
00000000
01000000
00000000
00000000
00000000
00010000
00000000
00000000
,
00000000
00001000
00000000
00000000
00000000
00100000
00000000
00000000
00000000
00001000
00000000
00000000
,
00000000
00010000
00000000
00000000
00000000
00000010
00000000
00000000
00000000
00001000
00000000
00000000
,
00000000
00000001
00000000
00000000
00000000
00000100
00000000
00000000
00000000
00000010
00000000
00000000
,
00000000
00010000
00000000
00000000
00000000
00000100
00000000
00000000
00000000
00001000
00000000
00000000
,
00000000
00000001
00000000
00000000
00000000
00000010
00000000
00000000
00000000
00001000
00000000
00000000
,
00000000
00010000
00000000
00000000
00000000
00001000
00000000
00000000
00000000
00010000
00000000
00000000
,
00000000
00100000
00000000
00000000
00000000
00010000
00000000
00000000
00000000
00001000
00000000
00000000
,
00000000
00010000
00000000
00000000
00000000
00001000
00000000
00000000
00000000
00022000
00000000
00000000
,
00000000
00000000
00000000
00000000
,
00000000
00000000
00000000
00033000
,
00000000
00000000
00000000
00000000
;
#NOTES:
     dance-double:
     :
     Medium:
     15:
     :
00000000
00000000
00000000
00000000
,
00000000
00000000
00000000
00000000
,
00000000
00000000
00000000
00000000
,
00000000
00000000
00000000
00000000
,
00000000
00000000
00000000
00000000
,
10000000
00000000
00000000
01000000
00000000
00000000
10000000
00000000
01000000
00000000
00000000
00100000
00000000
00000000
00010000
00000000
,
01000000
00000000
00000000
00010000
00000000
00000000
01000000
00000000
00100000
00000000
00000000
00010000
00000000
00000000
00000000
00000000
,
00001000
00000000
00000000
00000010
00000000
00000000
00000001
00000000
00000100
00000000
00000000
00000001
00000000
00000000
00000100
00000000
,
00000010
00000000
00000000
00010000
00000000
00000000
00001000
00000000
00022000
00000000
00000000
00000000
00000000
00000000
00000000
00000000
,
00033000
00100000
10000000
00100000
,
10000000
00010000
00100000
00010000
,
00100000
00001000
00010000
00001000
,
00010000
00000100
00000010
00000100
,
00000010
00000001
00001000
00000200
,
00000300
00001000
00000001
00000020
,
00000030
00000001
00000010
00000100
,
00001000
00000100
00000010
00000001
,
00000000
00000001
00000100
00000001
,
00000100
00000010
00001000
00000010
,
00001000
00000100
00010000
00000100
,
00010000
00001000
00100000
00001000
,
00100000
00010000
10000000
02000000
,
03000000
00100000
00010000
20000000
,
30000000
01010000
00000000
00000000
,
10100000
00000000
01000000
01000000
,
00000000
00000000
10000000
00000000
00000000
00010000
00000000
00000000
,
00100000
01000000
00010000
00001000
,
00000010
00000000
00000100
00000000
00000000
00001000
00000000
00000000
,
00000001
00000100
00001000
00010000
,
00100000
00000000
10100000
00000000
00000000
01000000
00000000
00000000
,
01010000
00000000
00000000
00100000
00000000
00000000
10000000
00000000
,
00000000
00000000
11000000
00000000
00000000
00100000
00000000
00000000
,
00101000
00000000
00000000
00010000
00000000
00000000
00010100
00000000
,
00000000
00001000
00000100
00000001
,
00000100
00001000
00000000
00001000
,
00000010
00000001
00000010
00001000
,
00000000
00000010
00000010
00000100
,
00000100
00001000
00010000
00001000
,
00010000
00100000
10000000
00100000
,
10000000
00010000
01000000
00010000
,
01000000
00001000
00010000
00001000
,
00010000
00022000
00000000
00000000
,
00000000
00000000
00000000
00000000
,
00033000
00001000
00000002
00000000
00000000
00002000
00000000
00000000
,
00000000
00000000
00003003
00000110
,
00001001
00000100
00000001
00000100
00000000
00000010
00000100
00000000
,
00001000
00010000
00100000
01000000
00000000
00010000
10000000
00000000
,
00110000
00000000
10000000
11000000
00000000
00010000
01010000
00000000
,
10000000
10100000
00000000
00100000
00010000
00001000
00011000
00000000
,
00000000
00010000
00001000
00000100
,
00000010
00001000
00000100
00000010
,
00000001
00000000
00000100
00000000
00000010
00000000
00001000
00000010
,
00001000
00000010
00010000
00001000
,
00100000
01000000
10000000
00010000
,
01000000
10000000
01000000
00010000
,
10000000
00000000
01000000
00000000
00100000
00000000
00010000
01000000
,
00001000
00001000
00010000
00010000
00001000
00000000
00000010
00000000
,
00001000
00010000
00100000
00010000
,
00001000
00000100
00000010
00000100
,
00001000
00000000
00010000
00001000
00010000
00000000
00000100
00000000
,
00001000
00000000
00011000
00000000
,
00100000
00010000
10000000
01000000
,
00010000
00001000
00000100
00000010
,
00000100
00001000
00010000
00100000
,
10000000
00000000
00000000
10000000
00000000
01000000
,
00000000
11000000
00000000
00010000
00000000
00001000
,
00000000
00011000
00000000
00001000
00000000
00000010
,
00000000
00000011
00000000
00000100
00001000
00000100
,
00000000
00000010
00000001
00000010
00000000
00000100
,
00000000
00001100
00000000
00010000
00000000
00001000
,
00000000
00011000
00000000
00010000
00000000
00100000
,
00000000
10100000
00000000
01000000
00000000
01000000
,
00000000
00010000
00000000
01000000
00000000
00100000
,
00000000
01100000
00000000
10000000
00000000
00100000
,
00000000
01000000
00010000
01000000
00000000
00100000
,
00000000
00110000
00000000
00001000
00010000
00001000
,
00000000
00000010
00000100
00000010
00000000
00000001
,
00000000
00000011
00000000
00000001
00000000
00000100
,
00000000
00001000
00010000
00001000
00000000
00010000
,
00000000
00001000
00000000
00022000
00000000
00000000
,
00000000
00000000
00033000
00000000
00001000
00010000
00100000
00000000
,
00010000
00001000
00000000
00011000
00000000
00000000
00000000
00000000
,
00000100
00001000
00010000
00000000
00010000
00001000
00000010
00000000
,
00001000
00010000
00000000
00011000
00000000
00000000
00000000
00000000
,
00010000
01000000
10000000
01000000
10000000
01000000
00100000
01000000
,
00100000
01000000
00010000
00001000
00010000
00001000
00000010
00000001
,
00000010
00000001
00000100
00001000
00010000
00100000
01000000
00100000
,
00010000
00001000
00000010
00000100
00000010
00001000
00010000
01000000
,
00010000
00001000
00000010
00000000
00000000
00000000
00000000
00000000
,
00000000
00001000
00010000
00001000
,
00000010
00000100
00001000
00000010
,
00000100
00000001
00000010
00000100
,
00001000
00000100
00001000
00000000
00000100
00000000
00010000
00000000
,
00001000
01000000
00100000
10000000
,
00010000
00100000
10000000
00100000
,
00010000
10000000
00100000
01000000
,
00010000
00100000
00001000
00000000
00001000
00000000
00010000
00000000
,
00010000
00001000
00000100
00001000
,
00010000
01000000
00010000
00001000
,
00000010
00000100
00000010
00001000
,
00010000
00001000
00010000
00000000
00000010
00000000
00001000
00000000
,
00000000
00011000
00000000
01000000
,
00010000
10000000
00100000
00010000
,
00001000
00000010
00000100
00000010
,
00001000
00010000
01000000
10000000
,
00000000
10000000
01000000
00010000
,
10000000
00100000
00010000
00001000
,
00000100
00000001
00001000
00000010
,
00000001
00000010
00000001
00000000
00001000
00000000
00001000
00000000
,
00000000
00000001
00000010
00001000
,
00000001
00000100
00001000
00010000
,
00100000
10000000
00010000
01000000
,
10000000
01000000
10000000
00000000
00010000
00000000
00010000
00000000
,
00000000
00100000
00010000
00001000
,
00000100
00001000
00010000
01000000
,
00010000
00001000
00000010
00001000
,
00010000
00001000
00010000
00000000
01000000
00000000
01000000
00000000
,
00000000
00100000
00010000
00001000
,
00000100
00001000
00010000
01000000
,
00010000
00001000
00000010
00001000
,
00010000
00001000
00010000
00000000
00000100
00000000
00000010
00000000
,
00000000
00000000
00000000
00000001
00000000
00000000
00000000
00000100
00000000
00000000
00000000
00000101
,
00000000
00000000
00000000
00001000
00000000
00000000
00000000
00010000
00000000
00000000
00000000
00011000
,
00000000
00000000
00000000
00010000
00000000
00000000
00000000
00100000
00000000
00000000
00000000
10100000
,
00000000
00000000
00000000
01000000
00000000
00010000
00000000
01000000
00000000
00000000
00000000
00100000
,
00000000
10000000
00000000
00100000
00000000
00000000
00000000
01000000
00000000
00000000
00000000
01010000
,
00000000
00000000
00000000
00001000
00000000
00000000
00000000
00010000
00000000
00000000
00000000
00011000
,
00000000
00000000
00000000
00001000
00000000
00000000
00000000
00000010
00000000
00000000
00000000
00000011
,
00000000
00000000
00000000
00000100
00000000
00000000
00000000
00001000
00000000
00000000
00000000
00001100
,
00000000
00000000
00000000
00000100
00000000
00000000
00000000
00000010
00000000
00000000
00000000
00000110
,
00000000
00000000
00000000
00000001
00000000
00000000
00000000
00000010
00000000
00000000
00000000
00000100
,
00000000
00001000
00000000
00000100
00000000
00000000
00000000
00000010
00000000
00000000
00000000
00001010
,
00000000
00000000
00000000
00010000
00000000
00001000
00000000
00010000
00000000
00000000
00000000
00100000
,
00000000
01000000
00000000
00100000
00000000
00000000
00000000
10000000
00000000
00000000
00000000
10100000
,
00000000
00000000
00000000
10000000
00000000
00000000
00000000
01000000
00000000
00000000
00000000
00010000
,
00000000
00001000
00000000
00010000
00000000
00000000
00000000
00001000
00000000
00000000
00000000
00011000
,
00000000
00000000
00000000
00000010
00000000
00000000
00000000
00000001
00000000
00000000
00000000
00000011
,
00000000
00000000
00000000
00000001
00000000
00000000
00000000
00000010
00000000
00000000
00000000
00000001
,
00000000
00000100
00000000
00000001
00000000
00000000
00000000
00000100
00000000
00000000
00000000
00001000
,
00000000
00010000
00000000
00001000
00000000
00000000
00000000
00010000
00000000
00000000
00000000
00100000
,
00000000
01000000
00000000
00100000
00000000
10000000
00000000
00100000
00000000
00000000
00000000
10000000
,
00000000
00000000
00000000
10000000
00000000
00000000
00000000
00100000
00000000
00000000
00000000
10000000
,
00000000
01000000
00000000
10000000
00000000
00000000
00000000
01000000
00000000
00000000
00000000
00010000
,
00000000
00001000
00000000
00010000
00000000
00000000
00000000
00001000
00000000
00000000
00000000
00000010
,
00000000
00000000
00000000
00000001
00001000
00000001
00001000
00000001
00000000
00000101
00000000
00000000
,
00000000
00000101
00000000
00000000
00000000
00000101
00000000
00000000
00000000
00000011
00000000
00000000
,
00000000
00000101
00000000
00000000
00000000
00000011
00000000
00000000
00000000
00001010
00000000
00000000
,
00000000
00001010
00000000
00000000
00000000
00001010
00000000
00000000
00000000
00011000
00000000
00000000
,
00000000
00001010
00000000
00000000
00000000
00011000
00000000
00000000
00000000
00110000
00000000
00000000
,
00000000
00110000
00000000
00000000
00000000
00110000
00000000
00000000
00000000
10100000
00000000
00000000
,
00000000
00110000
00000000
00000000
00000000
10100000
00000000
00000000
00000000
01100000
00000000
00000000
,
00000000
10010000
00000000
00000000
00000000
10010000
00000000
00000000
00000000
00110000
00000000
00000000
,
00000000
00011000
00000000
00000000
00000000
00011000
00000000
00000000
00000000
00001100
00000000
00000000
,
00000000
00001001
00000000
00000000
00000000
00001001
00000000
00000000
00000000
00000011
00000000
00000000
,
00000000
00001001
00000000
00000000
00000000
00001001
00000000
00000000
00000000
00022000
00000000
00000000
,
00000000
00000000
00000000
00000000
,
00000000
00000000
00000000
00033000
,
00000000
00000000
00000000
00000000
;
#NOTES:
     dance-double:
     :
     Hard:
     17:
     :
00000000
00000000
00000000
00000000
,
00000000
00000000
00000000
00000000
,
00000000
00000000
00000000
00000000
,
00000000
00000000
00000000
00000000
,
00000000
00000000
00000000
00000000
,
00000001
00000000
00000000
00000010
00000000
00000000
00000011
00000000
00000001
00000000
00000000
00000100
00000000
00000000
00000010
00000000
,
00001000
00000000
00000000
00000010
00000000
00000000
00001010
00000000
00001000
00000100
00000000
00010000
00000000
00000000
00000000
00000000
,
00001000
00000000
00000000
01000000
00000000
00000000
01001000
00000000
00010000
00000000
00000000
00100000
00000000
00000000
01000000
00000000
,
10000000
00000000
00000000
00100000
00000000
00000000
00020000
00000000
00002000
00000000
00000000
00000000
00000000
00000000
00000000
00000000
,
00033000
00000010
00000001
00000010
,
00000001
00001000
00000010
00010000
,
00001000
00100000
01000000
00100000
,
01000000
10000000
00100000
01000000
,
00010000
00100000
00001000
00010000
,
00000100
00010000
00001000
01000000
,
00001000
00010000
00000010
00010000
,
00001000
00000010
00000001
00000100
,
00000010
00001000
00000001
00001000
,
00000001
00000100
00001000
00010000
,
00100000
10000000
00010000
10000000
,
00010000
10000000
01000000
00010000
,
00001000
00000010
00000100
00001000
,
00000010
00001000
00000100
00000010
,
00000100
00001100
00000000
00010000
,
00011000
00000000
00001000
01000000
,
00010000
00100000
00010000
01000000
,
00100000
10000000
01000000
00010000
,
00001000
00010000
00100000
00010000
,
00001000
00000010
00001000
00010000
,
00001000
00000100
00000001
00000100
,
00001000
00000100
00001000
00000100
,
00000001
00000000
00001000
00000000
00000000
00000010
00001000
00000000
,
00000020
00000000
00000031
00000010
,
00001000
00010000
01000000
00100000
,
00010000
00001000
01000000
00100000
,
00010000
00001000
00000100
00001000
,
00010000
01000000
00010000
00001000
,
00010000
00000000
00000010
00001000
00000010
00000000
00001000
00000000
,
00010000
00000000
01000000
00010000
01000000
00000000
00010000
00000000
,
00001000
00000000
00000010
00000000
00001000
00000010
00000200
00000000
,
00000002
00000000
00000303
00001010
,
00000000
00002002
00000000
00000000
,
00000000
00000000
00000000
00000000
,
00003003
00000001
00001000
00000000
00000000
00002002
00000000
00000000
,
00000000
00000000
00003003
00011000
,
10010000
00000000
00100000
00000000
10000000
00000000
00010000
01000000
00100000
01000000
00010000
00000000
00100000
00000000
00001000
00010000
,
00000100
00000000
00000100
00000000
00000010
00000000
00000001
00000010
00000100
00000010
00000001
00000000
00000100
00000000
00001000
00010000
,
00001000
01000000
00010000
00110000
00000000
01000000
01100000
00000000
,
10000000
10100000
00000000
00001000
00010000
00001000
00011000
00000000
,
00000000
00000000
00000010
00000000
00000001
00000000
00000100
00000001
,
00000100
00000000
00000001
00000000
00000010
00000100
00000010
00000000
,
00000100
00001000
00000100
00000000
00010000
00000000
00001000
01000000
,
00001000
01000000
00100000
10000000
,
01000000
00000000
00010000
00000000
01000000
00000000
00100000
00010000
,
00100000
00000000
00010000
00000000
01000000
00100000
01000000
00000000
,
00100000
00010000
00001000
00000100
,
00000001
00000010
00001000
00010000
01000000
00100000
01000000
00000000
,
10000000
00000000
00100000
01000000
00100000
00000000
00010000
00000000
,
00100000
00010000
00001000
00000000
00100000
00010000
00001000
00000000
,
00000100
00000000
00000010
00000001
00000010
00000000
00000001
00000000
,
00001100
00000000
00011000
00000000
,
00101000
01000000
10000000
00100000
,
01000000
00010000
10000000
01000000
,
00010000
00001000
00010000
00001000
,
00000010
00000000
00000000
00000011
00000000
00000011
,
00000000
00000011
00000000
00001001
00000000
00000011
,
00000000
00001001
00000000
00000101
00000000
00000001
,
00000000
00000100
00000000
00000001
00000010
00000001
,
00000000
00000100
00000000
00001100
00000000
00001100
,
00000000
00001100
00000000
00011000
00000000
00001100
,
00000000
00011000
00000000
00110000
00000000
00110000
,
00000000
00110000
00000000
01000000
00000000
01000000
,
00000000
00010000
00000000
00110000
00000000
10100000
,
00000000
00110000
00000000
10000000
00000000
00100000
,
00000000
10000000
01000000
00100000
00000000
00010000
,
00000000
01000000
00000000
00100000
10000000
01000000
,
00000000
00010000
00001000
00000010
00000000
00000001
,
00000000
00000011
00000000
00000100
00000000
00001000
,
00000000
00001100
00000000
00010000
00000000
00001000
,
00000000
00010000
00000000
00022000
00000000
00000000
,
00000000
00033000
00001000
00100000
,
01000000
01000000
00000000
11000000
00000000
00000000
10000000
00000000
,
00100000
00010000
00001000
00000010
,
00000001
00000001
00000000
00000101
00000000
00000000
00000100
00000000
,
00001000
00000000
00010000
00001000
00100000
01000000
00010000
00001000
,
00000010
00000100
00001000
00000100
00010000
00001000
00100000
00001000
,
00010000
00000010
00001000
00100000
01000000
00001000
00100000
01000000
,
00010000
00000100
00000010
00001000
00010000
00000010
00001000
00010000
,
01000000
00001000
00010000
01000000
00010000
00000100
00000010
00001000
,
00010000
00000000
01000000
00100000
01000000
00000000
10000000
00000000
,
00100000
10000000
00100000
00000000
10000000
00000000
01000000
00100000
,
01000000
00000000
00100000
00010000
00100000
00000000
00001000
00000000
,
00010000
00000010
00010000
00000000
00000010
00000000
00000100
00000000
,
00000001
00000010
00001000
00000010
,
00000100
00001000
00000100
00000000
00001000
00000000
00000010
00000100
,
00000010
00000100
00001000
00010000
,
00100000
10000000
01000000
00010000
,
00001000
00000000
00000010
00000100
00000010
00000000
00000001
00000000
,
00000100
00000010
00000100
00000000
00001000
00000000
00000100
00001000
,
00010000
00000000
00000100
00001000
00010000
00000000
00100000
00000000
,
01000000
10000000
01000000
00000000
10000000
00000000
00020000
00000000
,
00000000
00000000
00031000
00010000
00001000
00000000
00000100
00000000
,
00000010
00000001
00000010
00000000
00000001
00000000
00000100
00000010
,
00000100
00000001
00000010
00001000
,
00010000
00001000
00010000
00000000
00001000
00000000
00010000
00000000
,
00000000
00000000
01000000
00100000
01000000
00000000
00010000
00000000
,
00000100
00000010
00000100
00000000
00010000
00000000
01000000
00100000
,
01000000
10000000
00010000
01010000
,
00000000
00100000
10000000
10100000
,
00000000
00000000
00100000
01000000
00100000
00000000
00010000
00000000
,
00000010
00000100
00000010
00000000
00010000
00000000
00100000
01000000
,
00100000
10000000
01000000
01010000
,
00000000
00001000
00000100
00000101
,
00000000
00000000
00000010
00000100
00000010
00000000
00001000
00000000
,
00100000
01000000
00100000
00000000
00001000
00000000
00000010
00000100
,
00000010
00001000
00000010
00001010
,
00000000
00000100
00000001
00000101
,
00000000
00000000
00000100
00000010
00000100
00000000
00001000
00000000
,
01000000
00100000
01000000
00000000
00001000
00000000
00000100
00000010
,
00000100
00000001
00000010
00001010
,
00000000
00010000
00100000
10100000
,
00000000
00000000
00000000
10100000
00000000
00000000
00000000
10100000
00000000
00000000
00000000
10100000
,
00000000
00000000
00000000
11000000
00000000
00000000
00000000
10100000
00000000
00000000
00000000
11000000
,
00000000
00000000
00000000
01100000
00000000
00000000
00000000
01100000
00000000
00000000
00000000
01100000
,
00000000
00000000
00000000
00101000
00000000
00000000
00000000
00110000
00000000
00000000
00000000
00101000
,
00000000
00000000
00000000
00011000
00000000
00000000
00000000
00011000
00000000
00000000
00000000
00011000
,
00000000
00000000
00000000
00001100
00000000
00000000
00000000
00011000
00000000
00000000
00000000
00001100
,
00000000
00000000
00000000
00000110
00000000
00000000
00000000
00000110
00000000
00000000
00000000
00000110
,
00000000
00000000
00000000
00000011
00000000
00000000
00000000
00001001
00000000
00000000
00000000
00000011
,
00000000
00000000
00000000
00001100
00000000
00000000
00000000
00001100
00000000
00000000
00000000
00001100
,
00000000
00000000
00000000
00000101
00000000
00000000
00000000
00001100
00000000
00000000
00000000
00000010
,
00000000
00000001
00000000
00000100
00000000
00000000
00000000
00000101
00000000
00000000
00000000
00000101
,
00000000
00000000
00000000
00000100
00000000
00001000
00000000
00010000
00000000
00000000
00000000
00001000
,
00000000
00010000
00000000
00100000
00000000
00000000
00000000
10100000
00000000
00000000
00000000
10100000
,
00000000
00000000
00000000
10010000
00000000
00000000
00000000
01010000
00000000
00000000
00000000
00010000
,
00000000
10000000
00000000
00100000
00000000
00000000
00000000
10100000
00000000
00000000
00000000
10100000
,
00000000
00000000
00000000
11000000
00000000
00000000
00000000
01010000
00000000
00000000
00000000
11000000
,
00000000
00000000
00000000
10000000
00000000
01000000
00000000
00100000
00000000
01000000
00000000
00100000
,
00000000
00020000
00000000
10000000
00000000
00000000
00000000
10030000
00000000
00000000
00000000
10010000
,
00000000
00000000
00000000
00100000
00000000
01000000
00000000
00100000
00000000
01000000
00000000
00001000
,
00000000
00020000
00000000
00001000
00000000
00000000
00000000
00031000
00000000
00000000
00000000
00011000
,
00000000
00000000
00000000
00001000
00000000
00000010
00000000
00001000
00000000
00000010
00000000
00000001
,
00000000
00000020
00000000
00000100
00000000
00000000
00000000
00000130
00000000
00000000
00000000
00000110
,
00000000
00000000
00000000
00000010
00000000
00000001
00000000
00000010
00000000
00000001
00000000
00000100
,
00000000
00000001
00000000
00000100
00001000
00010000
01000000
10000000
00010000
10000000
00000000
00100000
,
00000000
01000000
00000000
00010000
00000000
00100000
00000000
01000000
00000000
00010000
00000000
01000000
,
00000000
00100000
00000000
00010000
00000000
00001000
00000000
00000100
00000000
00000010
00000000
00000001
,
00000000
00000100
00000000
00000010
00000000
00001000
00000000
00000010
00000000
00000001
00000000
00001000
,
00000000
00000100
00000000
00000010
00000000
00001000
00000000
00000100
00000000
00000010
00000000
00001000
,
00000000
00010000
00000000
01000000
00000000
00100000
00000000
00010000
00000000
01000000
00000000
00100000
,
00000000
00010000
00000000
00001000
00000000
00100000
00000000
00010000
00000000
00001000
00000000
00000000
,
00000000
00000010
00000000
00000000
00000000
00001010
00000000
00000000
00000000
00000100
00000000
00000000
,
00000000
00001000
00000000
00000000
00000000
00001100
00000000
00000000
00000000
00010000
00000000
00000000
,
00000000
00001000
00000000
00000000
00000000
00011000
00000000
00000000
00000000
00100000
00000000
00000000
,
00000000
01000000
00000000
00000000
00000000
01010000
00000000
00000000
00000000
00022000
00000000
00000000
,
00000000
00000000
00000000
00000000
,
00000000
00000000
00000000
00033000
,
00000000
00000000
00000000
00000000
;
#NOTES:
     dance-double:
     :
     Challenge:
     18:
     :
00000000
00000000
00000000
00000000
,
00000000
00000000
00000000
00000000
,
00000000
00000000
00000000
00000000
,
00000000
00000000
00000000
00000000
,
00000000
00000000
00000000
00000000
,
10000000
00000000
00000000
01100000
00000000
00000000
10000000
01000000
00010000
00000000
00000000
00011000
00000000
00000000
00000010
00000000
,
00000001
00000000
00000000
00000110
00000000
00000000
00000001
00000100
00001000
00000000
00000000
00011000
00000000
00000000
00000000
00000000
,
00100000
00000000
00000000
01100000
00000000
00000000
00010000
00001000
00000010
00000100
00000000
00001001
00000000
00000000
00000101
00000000
,
00000011
00000000
00000000
00001100
00000000
00000000
00010000
00002000
00020000
00000000
00000000
00000000
00000000
00000000
00000000
00000000
,
00000000
00033000
00000000
00000000
00000000
00000000
00000000
00000000
MMMMMMMM
00000000
00000000
00000000
00000000
00000000
00000000
00000000
00100000
00000000
00000000
00000000
00000000
00000000
00000000
00000000
00000000
00000000
00000000
00000000
00000000
00000000
00000000
00000000
10000000
00000000
00000000
00000000
00000000
00000000
00000000
00000000
00000000
00000000
00000000
00000000
00000000
00000000
00000000
00000000
10100000
00000000
00000000
00000000
00000000
00000000
00000000
00000000
00000000
00000000
00000000
00000000
00000000
00000000
00000000
00000000
,
01000000
00001000
00011000
00000100
,
00000110
00000000
00000001
00000000
00001000
00000100
00001000
00000000
,
00001100
00000000
00000010
00000001
00000010
00000000
00000001
00000000
,
00000101
00000000
00001000
00011000
,
00000000
00101000
00110000
00000000
,
00010100
00001100
00001000
00000011
,
00001010
00000000
00000001
00001000
,
00000010
00000110
00000010
00001000
,
00010000
01000000
00100000
10000000
,
00010000
00000000
10010000
00000000
00100000
10000000
01000000
00000000
,
00110000
00000000
01000000
10000000
00100000
00000000
01000000
00000000
,
01010000
00000000
00011000
00011000
,
00000000
00001010
00000110
00000000
,
00000001
00000010
00001001
00000000
00000000
00000000
00000000
00000000
,
00000110
00000000
00001100
00011000
,
01010000
00000000
00100000
00000000
10000000
01000000
00000000
10000000
,
00100000
00000000
01000000
00001000
00010000
00000000
00000010
00001000
,
00000001
00000000
00001000
00000000
00000100
00000010
00000000
00000001
,
00000100
00000000
00001000
00010000
00000100
00000000
00010000
00001000
,
01000000
00000000
00100000
00000000
00000000
10010000
00000000
00000000
,
01000000
00000000
00000000
10010000
00000000
00000000
11000000
00000000
,
11000000
00000000
00100000
00000000
00000000
00011000
00000000
00000000
,
01000000
00000000
00011000
00001100
,
00000101
00000000
00000001
00000010
00000100
00001000
00000100
00000000
,
00010000
00000000
00011000
00000000
MMMMMMMM
00000000
10000000
00100000
,
01000000
00010000
01000000
00000000
00001000
00000000
00011000
00000000
,
MMMMMMMM
00001100
00001100
00000011
,
00000022
00000033
00001100
00001001
,
00000000
00000001
00000100
00000001
00001000
00000100
00001000
00000000
,
00000100
00010000
00001000
00000000
00001000
00000000
00001000
00000000
,
00010000
01000000
00000000
01000000
00000000
01000000
10000000
00000000
,
00100000
10000000
00020000
00000000
00000000
20000000
00000000
00000000
,
30030000
00000000
00000000
00000000
10000000
00000000
01000000
00000000
00100000
00000000
00010000
00001000
00000000
00000100
00000010
00000000
,
00000001
00001000
00000000
00000000
00000001
00000000
00000100
00000000
00000010
00000000
00001000
00010000
00000000
01000000
00100000
00000000
,
10000000
00010000
00000000
00000000
10000000
00100000
10000000
00000000
10000000
01000000
00010000
00001000
00000100
00000000
00000010
00000000
,
MMMMMMMM
00000000
00000010
00000001
00000010
00000000
00001000
00000100
00000010
00000001
00000010
00000000
00001000
00010000
00100000
00000000
,
01000000
00000000
00100000
10000000
00010000
00000000
01000000
00100000
00010000
00001000
00010000
00000000
00001000
00000010
00000001
00000000
,
00000101
00000000
00000101
00000000
00001100
00000000
00001100
00000000
00000000
00000000
00001010
00000000
00000000
00011000
00000000
00000000
,
01010000
00000000
00100000
00000000
10100000
00000000
00010000
00100000
01000000
10000000
00010000
00000000
10010000
00000000
01100000
00000000
,
MMMMMMMM
10100000
10100000
00110000
,
00110000
00000000
00100000
01000000
,
10100000
01000000
00101000
00010000
,
00001010
00000100
00000011
00000100
,
00000001
00000010
00000100
00000010
00000001
00000000
00001000
00000000
,
00000002
00000000
00001000
00000103
,
00000001
00000100
00000010
00010000
00001000
00100000
00010000
10000000
,
00100000
00100000
00100000
00100000
11000000
00000000
11000000
00000000
,
01010000
01010000
00200000
00000000
,
01000000
00000000
01300000
00000000
00100000
10000000
00010000
00000000
,
01000000
00001000
00010000
00000000
00000100
00001000
00000001
00000000
,
00000010
00000001
00001000
00000000
00001001
00000000
00000000
00000000
,
00000101
00000010
00010100
00001000
,
01010000
00000000
00100000
00000000
11000000
00000000
00010000
01000000
,
00010000
00000000
00100000
00010000
00001000
00000100
00000010
00000000
,
00001001
00000000
00000000
00001001
00000000
00000000
MMMM0011
00000000
00000000
00000000
MMMM1001
00000000
,
00000000
MMMM1010
00000000
MMMM1100
00000000
00011000
,
00000000
0011MMMM
00000000
1100MMMM
00000000
0110MMMM
,
00000000
0011MMMM
00000000
00100000
00001000
00010000
,
00000000
00011000
00000000
MMMM1100
00000000
MMMM0110
,
00000000
MMMM1001
00000000
MMMM0011
00000000
MMMM1100
,
00000000
MMMM1010
00000000
00011000
00000000
00101000
,
00000000
01001000
00000000
0100MMMM
00000000
0100MMMM
,
00000000
0001MMMM
00000000
1001MMMM
00000000
0011MMMM
,
00000000
00011000
00000000
0101MMMM
00000000
1100MMMM
,
00000000
00100000
00001000
00010000
00000000
0011MMMM
,
00000000
00011000
00000000
MMMM1000
00000010
MMMM0001
,
00000000
MMMM0001
00000100
MMMM0010
00000000
MMMM1010
,
00000000
00011000
00000000
MMMM0010
00001000
0001MMMM
,
00000000
0100MMMM
00100000
1000MMMM
00000000
0011MMMM
,
00000000
1100MMMM
00000000
1001MMMM
00000000
00000000
,
00000000
00000000
00000000
00000000
00100000
10000000
00010000
01000000
,
00100000
10000000
01000000
10000000
00000000
00000000
01100000
00000000
10000000
00010000
01000000
00000000
00001000
00010000
00000010
00000000
,
00001000
00000001
00000010
00000000
00000110
00000000
00000010
00000001
00000100
00000000
00000000
00000010
00000000
00000000
00000110
00000000
,
00000001
00001000
00000100
00000000
00000010
00000100
00001000
00000100
00000010
00000000
00000100
00000000
00010000
00000000
00001000
00000000
,
00100000
00010000
10000000
00000000
MMMMMMMM
00000000
01010000
00000000
11000000
00000000
11000000
00000000
10000000
00100000
01000000
00100000
,
00000000
10000000
01000000
10000000
01000000
00000000
00010000
00000000
00001000
00000000
00000010
00000000
00000001
00000000
00000100
00000010
,
00000000
00000010
00010000
00001000
00010000
00001000
01000000
00000000
00100000
10000000
01000000
00000000
00100000
01000000
00000000
00010000
,
00001000
00000010
00000001
00000000
00000100
00000010
00000100
00000000
00000001
00001000
00000100
00000010
00000001
00000000
00000000
00000000
,
00001001
00000000
00000000
00000000
00000001
00000010
00000100
00000000
00001000
00000010
00000100
00001000
00010000
00000000
00010000
01000000
,
00000000
01000000
10000000
00000000
00100000
00000000
10000000
00000000
01000000
00000000
00000000
00000000
01100000
00000000
00000000
00000000
,
00100000
00010000
01000000
00000000
01100000
00000000
00100000
10000000
,
01000000
00000000
01000000
00010000
00001000
00000000
00010000
00001000
,
00000010
00000000
00000001
00000010
00000100
00000010
00000001
00000000
,
00000110
00000000
00000010
00000001
00000100
00000000
00000110
00000000
,
00000010
00001000
00000100
00000000
00000110
00000000
00000010
00000001
,
00000100
00000000
00000100
00001000
00010000
00000000
00001000
00010000
,
00100000
00000000
10000000
00100000
01000000
00100000
10000000
00000000
,
01100000
00000000
00010000
00100000
10000000
00000000
10010000
00000000
,
10000000
00100000
00010000
00000000
10010000
00000000
10000000
00100000
,
00010000
00000000
00001000
00000100
00000001
00000000
00001001
00000000
,
00001000
00000100
00000010
00000000
00000001
00000000
MMMMMMMM
00000000
,
00000000
00000000
00000001
00000010
00001000
00000000
00001001
00000000
,
00001000
00000010
00000001
00000000
00001001
00000000
00000001
00000010
,
00001000
00000000
00010000
01000000
10000000
00000000
10010000
00000000
,
10000000
00100000
01000000
00100000
10000000
00000000
10100000
00000000
,
01010000
00000000
10000000
00100000
01000000
00000000
00100000
10000000
,
00010000
01000000
00001000
00000000
00010000
00000000
00001000
00010000
,
00001000
00000000
00100000
00001000
00010000
00000000
00000010
00010000
,
00001000
00000000
00010000
00000100
00001000
00000000
00000100
00000000
,
00000010
00000000
00000001
00000010
00000100
00000000
00000010
00000001
,
00000100
00000010
00001000
00000000
00000001
00000000
00000100
00000000
,
00001010
00000000
00000001
00001000
,
00010000
10000000
10100000
MMMMMMMM
,
00000000
00000000
10000000
01000000
00100000
00000000
10010000
00000000
,
00100000
01000000
10000000
00000000
00100000
00000000
00010000
00000000
,
00011000
00000000
00010010
00010100
,
00011000
00101000
01001000
MMMMMMMM
,
00000000
11000000
10100000
01010000
,
00011000
00001010
00000101
00001100
,
00000110
00000000
00000100
00000000
00001000
00000100
00000010
00000000
,
00000001
00000100
00000010
00001000
00000010
00000000
00001010
00000000
,
00001001
00000000
00000000
MMMM0101
00000000
00000000
00000000
MMMM1010
00000000
00000000
00000000
00010010
,
00000000
00000000
00000000
00101000
00000000
00000000
00000000
0011MMMM
00000000
00000000
00000000
1100MMMM
,
00000000
00000000
00000000
1010MMMM
00000000
00000000
00000000
01001000
00000000
00000000
00000000
00010010
,
00000000
00000000
00000000
MMMM1100
00000000
00000000
00000000
MMMM0011
00000000
00000000
00000000
MMMM1001
,
00000000
00000000
00000000
MMMM0011
00000000
00000000
00000000
MMMM1100
00000000
00000000
00000000
00010100
,
00000000
00000000
00000000
01001000
00000000
00000000
00000000
0101MMMM
00000000
00000000
00000000
1010MMMM
,
00000000
00000000
00000000
1100MMMM
00000000
00000000
00000000
00101000
00000000
00000000
00000000
00010100
,
00000000
00000000
00000000
MMMM1010
00000000
00000000
00000000
MMMM0101
00000000
00000000
00000000
MMMM0011
,
00000000
00000000
00000000
MMMM1001
00000000
00000000
00000000
MMMM0110
00000000
00000000
00000000
MMMM0011
,
00000000
00000000
00000000
MMMM1100
00000000
00000000
00000000
MMMM0110
00000000
00000000
00000000
MMMM1000
,
00000000
00000100
00000000
0001MMMM
00000000
00000000
00000000
00011000
00000000
00000000
00000000
0011MMMM
,
00000000
00000000
00000000
MMMM1000
00000000
00100000
00000000
0001MMMM
00000000
00000000
00000000
0100MMMM
,
00000000
00100000
00000000
1000MMMM
00000000
00000000
00000000
0110MMMM
00000000
00000000
00000000
1001MMMM
,
00000000
00000000
00000000
0011MMMM
00000000
00000000
00000000
00011000
00000000
00000000
00000000
0001MMMM
,
00000000
00000100
00000000
MMMM1000
00000000
00000000
00000000
MMMM0101
00000000
00000000
00000000
MMMM0110
,
00000000
00000000
00000000
MMMM1010
00000000
00000000
00000000
MMMM0011
00000000
00000000
00000000
MMMM1001
,
00000000
00000000
00000000
MMMM0001
00000000
00001000
00000000
MMMM0100
00000000
00010000
00000000
MMMM1000
,
00000000
00100000
00000000
0001MMMM
00000000
10000000
00000000
0100MMMM
00000000
10000000
00000000
1001MMMM
,
00000000
00000000
00000000
1000MMMM
00000000
00010000
00000000
0010MMMM
00000000
00001000
00000000
0001MMMM
,
00000000
00000100
00000000
MMMM1000
00000000
00000001
00000000
MMMM0010
00000000
00000001
00000000
MMMM1001
,
00000000
00000000
00000000
MMMM0001
00000000
00000010
00000000
MMMM0100
00000000
00010000
00000000
MMMM1000
,
00000000
01000000
00000000
0001MMMM
00000000
10000000
00000000
0010MMMM
00000000
10000000
00000000
1001MMMM
,
00000000
00000000
00000000
1000MMMM
00000000
00100000
00000000
0100MMMM
00000000
00001000
00000000
0001MMMM
,
00000000
00000100
00000000
00001000
00000010
00000100
00000001
00000100
00000010
MMMM0100
00000000
00000001
,
00000000
MMMM1000
00000000
00000010
00000000
MMMM1010
00000000
00000000
00000000
0001MMMM
00000000
00001000
,
00000000
0010MMMM
00000000
00010000
00000000
0011MMMM
00000000
00000000
00000000
1000MMMM
00000000
00100000
,
00000000
0100MMMM
00000000
00100000
00000000
0110MMMM
00000000
00000000
00000000
1000MMMM
00000000
01000000
,
00000000
0010MMMM
00000000
00010000
00000000
0011MMMM
00000000
00000000
00000000
MMMM1000
00000000
00010000
,
00000000
MMMM0010
00000000
00001000
00000000
MMMM1010
00000000
00000000
00000000
MMMM0001
00000000
00000010
,
00000000
MMMM0100
00000000
00001000
00000000
MMMM1100
00000000
00000000
00000000
MMMM0001
00000000
00000100
,
00000000
MMMM1000
00000000
00010000
00000000
0100MMMM
00000000
10000000
00000000
0001MMMM
00000000
10000000
,
00000000
0010MMMM
00000000
00010000
00000000
MMMM1000
00000000
00000010
00000000
MMMM0001
00000000
00000100
,
00000000
MMMM1000
00000000
00010000
00000000
0100MMMM
00000000
10000000
00000000
0001MMMM
00000000
10000000
,
00000000
0010MMMM
00000000
00010000
00000000
MMMM1000
00000000
00000000
00000000
00022000
00000000
00000000
,
00000000
00000000
00000000
00000000
,
00000000
00000000
00000000
00033000
,
00000000
00000000
00000000
00000000
;
