
//----- song ID: ourm -----//
#TITLE:\#OurMemories;
#ARTIST:DDR ALL FANS;
#TITLETRANSLIT:OurMemories;
#BANNER:OurMemories.png;
#BACKGROUND:OurMemories-bg.png;
#CDTITLE:./CDTitles/DDR A.png;
#MUSIC:OurMemories.ogg;
#SAMPLESTART:15.424;
#SAMPLELENGTH:15;
#BPMS:0=140;
#STOPS:66=0.429,159=1.286;
#NOTES:
     dance-single:
     :
     Beginner:
     3:
     :
0000
0000
0000
0000
,
0000
0000
0000
0000
,
0000
0000
0000
0000
,
0000
0000
0000
0000
,
0000
0000
0000
0000
,
0000
0001
0000
0000
0000
1000
0000
0000
,
0000
0001
0000
0000
0000
1000
0000
0000
,
0000
0010
0000
0000
0000
0100
0000
0000
,
0000
0010
0000
0000
0000
0000
0000
0000
,
1000
1000
1000
0000
,
0010
0010
0010
0000
,
0001
0001
0001
0000
,
0100
0100
0100
0000
,
0001
0001
0001
0000
,
0010
0010
0010
0000
,
1000
1000
1000
0000
,
0100
0100
0100
0000
,
0000
0000
0000
0001
,
0000
1000
0000
0000
,
0000
0000
0000
0010
,
0000
0100
0000
0000
,
0000
0000
0000
1000
,
0000
0001
0000
0000
,
0000
0000
0000
0100
,
0000
0010
0000
0002
,
0000
0003
0000
0010
,
0010
0010
0000
2000
,
0000
3000
0000
0010
,
0010
0010
0000
0001
,
0000
0010
0000
1000
,
0000
0010
0000
0001
,
0000
1000
0000
0001
,
0000
1000
0000
0020
,
0000
0000
0000
0030
,
0000
0000
0000
0200
,
0000
0000
0000
0300
,
0000
0000
0000
0002
,
0000
0000
0000
0003
,
0000
0000
0000
2000
,
0000
0000
3000
0000
,
0010
0000
1000
0000
,
0001
0000
0010
0000
,
0100
0000
1000
0000
,
0010
0000
0100
0000
,
0001
0001
0001
0000
,
1000
1000
1000
0000
,
0010
0010
0010
0000
,
0100
0100
0100
0000
,
0001
0000
0001
0000
,
0100
0000
0100
0000
,
1000
0000
1000
0000
,
0010
0000
0010
0000
,
0001
0000
0010
0000
,
1000
0000
0010
0000
,
0001
0000
0100
0000
,
1000
0000
0100
0000
,
0001
0001
0001
0000
,
1000
1000
1000
0000
,
0100
0100
0100
0000
,
0010
0010
0010
0000
,
0001
0000
0100
0000
,
0010
0000
1000
0000
,
0100
0100
0100
0000
,
0001
0001
0001
0000
,
1000
1000
1000
1000
,
1000
0000
1001
0000
,
0000
0000
0000
0000
;
#NOTES:
     dance-single:
     :
     Easy:
     6:
     :
0000
0000
0000
0000
,
0000
0000
0000
0000
,
0000
0000
0000
0000
,
0000
0000
0000
0000
,
0000
0000
0000
0000
,
0000
1000
0000
0010
0000
0001
0000
0010
,
0000
1000
0000
0100
0000
0001
0000
0100
,
0000
0010
0000
1000
0000
0100
0000
0010
,
0000
0001
0000
0100
0000
0010
0000
0000
,
2000
0010
0010
3010
,
0001
0100
0010
1000
,
0002
0010
0010
0013
,
1000
0100
0010
0001
,
1000
0001
1000
0000
0100
0000
0100
0000
,
0001
1000
0001
0000
0100
0000
0100
0000
,
1000
0001
1000
0000
0100
0000
0100
0000
,
0001
1000
0001
0000
0000
0000
2000
0000
,
3000
0020
0030
1000
,
0100
0010
0001
2000
,
3000
0200
0300
1000
,
0010
0100
0001
0020
,
0030
0002
0003
1000
,
0001
0100
0010
0200
,
0300
0002
0003
1000
,
0100
0010
0001
2000
,
0010
0010
3010
0002
,
0103
2000
3100
0002
,
0010
0010
0013
2000
,
3100
0002
0103
1000
,
0100
0000
0010
0010
0010
0000
0001
0000
,
0100
0000
0010
0010
0010
0000
1000
0000
,
0010
0100
0001
0010
,
0001
1000
0000
0020
,
0000
0000
0030
0200
,
0300
0002
0003
2000
,
0000
0000
3000
0200
,
0300
0020
0030
0001
,
0100
1000
0010
0001
,
0100
1000
0010
0200
,
0000
0000
0300
0000
,
1001
0010
1000
0010
,
1001
0100
0001
0100
,
1001
0010
0001
0010
,
1001
0100
1000
0100
,
1002
0010
0100
0013
,
2001
0010
0100
3010
,
0001
0010
1000
0100
,
1000
0010
0001
1000
,
0002
0000
0000
0013
,
2000
0000
0000
3010
,
0002
0000
0000
0103
,
2000
0000
0000
3100
,
0020
0000
0000
0130
,
0200
0000
0000
0310
,
2000
0000
0000
3001
,
0020
0000
0000
0030
,
0001
0100
0010
1000
,
0001
0010
0100
1000
,
0002
0103
2000
3100
,
0002
0103
2000
3100
,
0001
0010
1000
0010
,
0001
0100
1000
0100
,
0001
0001
0001
0010
,
1000
1000
1000
0010
,
0001
0001
0001
0010
,
1000
0001
0220
0000
,
0000
0000
0000
0330
,
0000
0000
0000
0000
;
#NOTES:
     dance-single:
     :
     Medium:
     9:
     :
0000
0000
0000
0000
,
0000
0000
0000
0000
,
0000
0000
0000
0000
,
0000
0000
0000
0000
,
0000
0000
0000
0000
,
0000
0001
0100
0010
0000
1000
0001
0100
,
0000
0010
1000
0100
0000
0010
0001
0100
,
0000
0010
1000
0001
0000
0100
0001
1000
,
0000
0010
0100
0001
1000
0010
0100
0000
,
0002
0010
1000
0010
,
1003
0100
0010
0001
,
2000
0010
0001
0010
,
3001
0100
0010
1000
,
0001
0000
0010
0000
0010
0000
0000
0000
0100
0000
0000
0100
0000
0000
0100
0000
,
1000
0000
0010
0000
0010
0000
0000
0000
0100
0000
0000
0100
0000
0000
0100
0000
,
0001
0000
0010
0000
0010
0000
0000
0000
0100
0000
0000
0100
0000
0000
0100
0000
,
1000
0010
0010
0000
0000
0000
2000
0000
,
0000
3200
0000
0010
,
0010
1000
1300
0002
,
0000
0023
0000
0001
,
0001
0100
0130
2000
,
0000
3020
0000
0100
,
0100
1000
1030
0002
,
0000
0203
0000
0001
,
0001
0010
0310
1000
,
0110
0000
0001
1000
0100
0000
2000
0000
,
0010
3200
0010
1300
,
0110
0000
1000
0001
0100
0000
0002
0000
,
0010
0000
0203
0000
0010
0000
0301
1000
,
0100
0000
0010
0001
0100
0000
0010
1000
,
0001
0000
0100
0010
0100
0000
0010
1000
,
0010
1000
0010
1000
0010
0000
0100
0001
,
0100
0001
0100
0000
0000
0000
0002
0000
,
0000
0000
0000
0023
,
0000
0230
0000
2300
,
0000
0000
0000
3002
,
0000
0203
0000
0310
,
1000
0100
0001
0010
,
1000
0000
0100
0000
0001
0000
0010
0100
,
0010
0100
0010
0100
0010
0100
0000
0000
,
0010
0000
0001
0100
0010
1000
0001
0000
,
1000
0000
0100
0010
0001
1000
0010
0000
,
0100
0000
0001
1000
0100
0010
0001
0000
,
1000
0000
0001
1000
0010
0100
0001
0000
,
1001
0000
0100
0010
0001
0010
0100
0000
,
1001
0000
0010
0100
0001
0100
0010
0000
,
1001
0000
0110
0000
1000
0001
0100
0000
,
0001
0010
0001
0010
0100
1000
0100
0000
,
0020
0000
0000
0001
0000
0000
0001
0000
0000
0031
0000
0000
1000
0000
0000
0000
,
0020
0000
0000
1000
0000
0000
1000
0000
0000
1030
0000
0000
0001
0000
0000
0000
,
0200
0000
0000
0001
0000
0000
0001
0000
0000
0301
0000
0000
1000
0000
0000
0000
,
0200
0000
0000
1000
0000
0000
1000
0000
0000
1300
0000
0000
0001
0000
0000
0000
,
1000
0000
0000
0010
0000
0000
0001
0000
0000
0010
0000
0000
1000
0000
0000
0000
,
0001
0000
0000
0010
0000
0000
1000
0000
0000
0010
0000
0000
0001
0000
0000
0000
,
1000
0000
0000
0100
0000
0000
0001
0000
0000
0100
0000
0000
1000
0000
0000
0000
,
0020
0000
0000
0030
,
1000
0100
0010
0001
,
1000
0010
0100
0001
,
2000
0010
3002
0010
,
2003
0010
3002
0010
,
1003
0100
0010
0000
0001
0100
0010
0000
,
1000
0010
0100
0000
0001
0010
0100
0000
,
1000
0100
1000
0100
1000
0100
0010
0000
,
0001
0100
0001
0100
0001
0100
0010
0000
,
1000
0001
1000
0001
1000
0001
1000
0000
,
0010
1000
0001
1000
0020
0000
0000
0000
,
0000
0000
0000
0030
,
0000
0000
0000
0000
;
#NOTES:
     dance-single:
     :
     Hard:
     12:
     :
0000
0000
0000
0000
,
0000
0000
0000
0000
,
0000
0000
0000
0000
,
0000
0010
0001
0100
0010
1000
0100
0010
,
0001
0000
1000
0001
0010
0100
1000
0001
,
0000
1000
0100
0010
0100
0010
0001
0100
,
0010
0100
0010
1000
0100
0010
0001
0100
,
0000
0001
0100
0010
0010
0100
0001
1000
,
0000
0100
0010
0001
1000
0100
0010
0000
,
0002
0010
2003
0010
,
3001
0100
0010
1000
,
0002
0100
2003
0100
,
3001
0100
0010
1000
,
0100
0000
0010
0000
0001
1000
0001
0000
0010
0000
0000
0010
0000
0000
0010
0000
,
0001
0000
1000
0000
0010
0100
0010
0000
1000
0000
0000
1000
0000
0000
1000
0000
,
0010
0000
0100
0000
0001
1000
0001
0000
0100
0000
0000
0100
0000
0000
0100
0000
,
0001
0000
1000
0000
0100
1000
0100
0000
0000
0000
0000
0000
2000
0000
0000
0000
,
3000
0000
0100
0010
0200
0000
0000
0000
0000
0000
0000
0000
0001
0000
0000
0000
,
0010
1000
1300
0002
,
0003
0000
0100
0010
0200
0000
0000
0000
0000
0000
0000
0000
1000
0000
0000
0000
,
0010
0001
0301
2000
,
3000
0000
0010
0100
0020
0000
0000
0000
0000
0000
0000
0000
0001
0000
0000
0000
,
0100
1000
1030
0002
,
0003
0000
0010
0100
0020
0000
0000
0000
0000
0000
0000
0000
1000
0000
0000
0000
,
0100
0000
0001
0000
0031
0000
0010
0001
,
0010
0100
0010
1000
0010
0100
0010
0001
,
0010
0001
0100
0010
1000
1000
0010
1000
,
0010
0100
0010
0001
0010
0100
0010
1000
,
0010
1000
0100
0010
0001
0000
0100
0010
,
1000
0000
0001
0000
0100
0000
0010
0000
1000
0000
0001
1000
0001
0000
1000
0000
,
0100
0000
0010
0000
0001
0000
1000
0000
0100
0000
0010
0001
0010
0000
0001
0000
,
1000
0000
0010
0000
1000
0000
0001
0000
0010
0000
0100
0010
0100
0000
1000
0000
,
0001
0100
0010
0100
0010
0100
0002
0000
,
0000
0000
0000
0200
,
0003
0020
0300
2000
,
0000
0000
0030
0200
,
3000
0000
0020
0000
0300
0000
0031
1000
,
0010
0000
0100
0001
1000
0000
0001
0010
,
1000
0000
0001
0100
1000
0000
0001
0100
,
0010
1000
0100
0010
0001
0100
0000
0000
,
0110
0000
0000
0000
0001
0000
1000
0010
1000
0000
0001
0000
1000
0000
0000
0000
,
0110
0000
0000
0000
1000
0000
0001
0010
0001
0000
1000
0000
0001
0000
0000
0000
,
0110
0000
0000
0000
0001
0000
1000
0100
1000
0000
0001
0000
1000
0000
0000
0000
,
0110
0000
0000
0000
1000
0000
0001
0100
0001
0000
1000
0000
0001
0000
0000
0000
,
1100
0000
0000
0000
0001
0000
0010
0100
0010
0000
0001
0000
1000
0000
0000
0000
,
0101
0000
0000
0000
1000
0000
0010
0100
0010
0000
1000
0000
0001
0000
0000
0000
,
0010
0000
0001
0000
1000
0000
0100
0000
0010
0100
0010
0000
0001
0000
0000
0000
,
1000
0000
0010
0000
0100
0000
0001
0000
1000
0001
1000
0000
0100
0000
0000
0000
,
0010
0000
0000
1001
0000
0000
0101
0000
0000
0010
1000
0000
0100
0000
0000
0000
,
0010
0000
0000
1001
0000
0000
1100
0000
0000
0010
0001
0000
0100
0000
0000
0000
,
0010
0000
0000
0101
0000
0000
1001
0000
0000
0100
0010
0000
0001
0000
0000
0000
,
0010
0000
0000
1100
0000
0000
1001
0000
0000
0100
0010
0000
1000
0000
0000
0000
,
0210
0000
0000
1000
0000
0000
0310
0000
0000
0001
1000
0000
0100
0000
0000
0000
,
0210
0000
0000
0001
0000
0000
0310
0000
0000
1000
0001
0000
0100
0000
0000
0000
,
0120
0000
0000
0001
0000
0000
0130
0000
0000
0001
1000
0000
0100
0000
0000
0000
,
0020
0000
0000
0030
,
0001
1000
0100
0000
0010
0001
0100
0000
,
0001
1000
0010
0000
0100
0001
0010
0000
,
0100
1000
0001
0000
0100
0010
1000
0000
,
0001
0010
0100
0000
1000
0001
0100
0000
,
0001
0100
0010
0100
1000
0100
1000
0100
,
0001
0100
0010
0100
1000
0100
1000
0100
,
0001
0000
0100
0000
0010
0000
1000
0000
0001
0000
0010
0000
0100
0010
0100
0000
,
1000
0100
0010
0001
1000
0010
0100
0001
,
1000
0100
0001
0100
1000
0010
0001
0010
,
1000
0001
1000
0001
0220
0000
0000
0000
,
0000
0000
0000
0330
,
0000
0000
0000
0000
;
#NOTES:
     dance-single:
     :
     Challenge:
     11:
     :
0000
0000
0000
0000
,
0000
0000
0000
0000
,
0000
0000
0000
0000
,
0000
0000
0000
0000
,
0000
0000
0000
0000
,
0000
0010
1000
0001
0000
0100
0100
1000
,
0000
0010
1000
0010
0000
0100
0100
0001
,
0000
0010
0001
0010
0000
0100
0000
1100
,
0000
1000
0001
1000
0001
1000
1000
0010
,
0010
1000
0010
0000
0100
0010
0100
0000
,
0100
0001
0100
0001
1000
0001
1000
0000
,
0010
0000
1000
0000
0100
0010
0100
0000
,
0001
0000
0000
0000
0001
1000
0001
0000
,
0110
0000
0010
0001
,
0100
0000
1000
0000
0010
0001
0010
0000
,
0110
0000
0000
0000
1000
0001
1000
0000
,
0010
0001
0001
0010
,
0000
1000
0001
0000
0100
0000
0110
0000
,
1001
0110
1001
0100
,
0000
0010
1000
0001
0000
0000
0010
0100
,
0001
1000
0010
0100
1001
0000
1000
0000
,
0000
0010
0100
0001
0000
0000
0010
0000
,
0100
0000
0001
0010
1000
0100
0010
0000
,
0000
0100
0010
1000
0000
0000
0100
0000
,
1001
0000
0010
0000
1001
0000
0010
0100
,
0010
0000
0001
1000
0010
1000
0010
0001
,
0010
0000
1000
1000
0001
1000
0010
0100
,
0010
0000
0001
0001
1000
1000
0010
0100
,
0010
0000
0001
1000
0010
1000
0010
0001
,
0010
0000
1000
1000
0001
1000
0010
0100
,
0010
0000
0001
1000
0100
0001
1000
0001
,
1000
0000
0010
0010
0001
1000
0010
0100
,
0010
0000
1000
1000
0001
0001
0010
1000
,
0001
0000
1000
0100
0010
0000
0010
0001
,
1000
0000
0001
0100
0010
0000
0010
0001
,
0100
0000
1000
0100
0010
0000
0010
0001
,
1000
0010
0100
0001
0100
0100
0100
0000
,
1000
0000
0100
0001
0100
0000
0010
1000
,
0001
0010
0100
1000
0100
0100
0100
0000
,
0010
0000
0010
1000
0010
0000
1000
0000
,
0010
0001
0010
0001
1000
0010
1000
0010
,
0001
0010
0001
1000
0010
0001
0100
1000
,
0001
0010
0010
0001
1000
0010
1000
0010
,
0001
0010
0001
0010
1000
0100
0001
0010
,
0010
1000
0010
1000
0001
0010
0001
0010
,
1000
0010
1000
0001
0010
1000
0100
0001
,
1000
0010
0010
1000
0001
0010
0001
0010
,
1000
0010
1000
0010
0001
0100
1000
0010
,
1001
0011
0101
1100
,
0000
1000
0001
0100
1000
0001
0010
0100
,
1000
0001
0000
0000
1000
0001
0000
0011
,
0000
1100
0000
0001
0100
0001
1000
0100
,
1001
1100
0101
0011
,
0000
0001
1000
0100
0001
1000
0010
0100
,
0001
1000
0000
0000
0001
1000
0000
0000
,
0020
0000
0000
0030
,
0010
0000
0100
1001
,
0011
0000
0001
0010
0100
1000
0100
0000
,
0100
0001
1000
0000
1000
0100
0010
0000
,
0001
0001
0001
0001
0001
0000
0100
0000
,
1010
0000
0100
1001
,
0110
0000
1001
0000
0010
1000
0010
0000
,
1000
0100
1000
0000
0100
0001
0100
0000
,
0001
0010
0001
0000
0010
0000
1001
0000
,
1000
0001
0100
0000
1000
0001
0010
0000
,
0010
1001
0110
0000
,
0000
0000
0000
0000
;
#NOTES:
     dance-double:
     :
     Easy:
     6:
     :
00000000
00000000
00000000
00000000
,
00000000
00000000
00000000
00000000
,
00000000
00000000
00000000
00000000
,
00000000
00000000
00000000
00000000
,
00000000
00000000
00000000
00000000
,
00000000
10000000
00000000
01000000
00000000
00010000
00000000
00010000
,
00000000
00100000
00000000
00001000
00000000
00010000
00000000
00010000
,
00000000
00001000
00000000
00001000
00000000
00000010
00000000
00000010
,
00000000
00000001
00000000
00000001
00000000
00000100
00000100
00000000
,
00000001
00000100
00001000
00000100
,
00000010
00001000
00001000
00000000
,
00000100
00010000
00001000
00010000
,
00100000
00100000
01000000
00000000
,
00010000
10000000
01000000
00010000
,
00002000
00013000
00020000
00031000
,
00000010
00000001
00000010
00000100
,
00001000
00001001
00000000
00000002
,
00000000
00000203
00000000
00001300
,
00010000
00011000
00000000
00020000
,
00000000
00230000
00000000
20300000
,
30010000
00020000
10030000
20000000
,
00000000
32000000
00000000
03010000
,
00001000
00011000
00000000
00002000
,
00000000
00003200
00000000
00000301
,
00000001
00000010
00000010
00000001
,
00000001
00001000
00001000
00000001
,
00000100
00001000
00000000
00010000
,
00010000
00001000
00001000
00010000
,
00100000
10000000
00100000
00010000
,
00010000
00001000
00001000
00010000
,
00000010
00000100
00000000
00000001
,
00000001
00000100
00000100
00000010
,
00000001
00000010
00001000
00000002
,
00000000
00000103
00000000
00000200
,
00000000
00001300
00000000
00002000
,
00000000
00013000
00000000
00020000
,
00000000
00130000
00000000
10000000
,
10000000
00010000
00010000
01000000
,
01000000
01000000
01000000
00100000
,
00100000
10000000
10010000
00000000
,
10000000
01000000
00010000
01000000
,
00100000
00001000
00010000
00001000
,
00000100
00000001
00000100
00001000
,
00010000
00001000
00010000
01000000
,
10000000
01000000
00100000
00010000
,
00100000
00100000
00001000
00010000
,
00100000
00010000
00001000
00000100
,
00000001
00000010
00000100
00001000
,
00000002
00001000
00001003
00000000
,
00000001
00000101
00001000
00001100
,
00000001
00000100
00001000
00000000
,
00010000
00011000
00001000
00011000
,
00010000
00100000
10000000
00100000
,
01000000
00010000
01000000
00100000
,
10000000
01000000
00010000
00001000
,
00000020
00000000
00000000
00000030
,
00000001
00000001
00001000
00001000
,
00000010
00000010
00000100
00000100
,
00001000
00001000
00010000
00010000
,
00100000
00100000
01000000
01000000
,
00010000
10000000
01000000
00100000
,
00001000
00010000
00001000
00000100
,
00000001
00001000
00000100
00000010
,
00000001
00000010
00001000
00010000
,
01000000
01000000
00100000
00100000
,
00001000
00010000
00001000
00000000
00022000
00000000
00000000
00000000
,
00000000
00000000
00000000
00033000
,
00000000
00000000
00000000
00000000
;
#NOTES:
     dance-double:
     :
     Medium:
     9:
     :
00000000
00000000
00000000
00000000
,
00000000
00000000
00000000
00000000
,
00000000
00000000
00000000
00000000
,
00000000
00000000
00000000
00000000
,
00000000
00000000
00000000
00000000
,
00000000
10000000
00100000
01000000
00000000
00010000
00000000
00100000
,
00000000
00001000
00010000
00001000
00000000
00000100
00000001
00001000
,
00000000
00000001
00000001
00000100
00000000
00001000
00001000
00000100
,
00000000
00000001
00000100
00001000
00000000
00010000
00100000
00000000
,
01000000
01000000
00100000
00100000
,
10000000
10000000
01000000
01000000
,
00010000
00010000
00001000
00001000
,
00000010
00000010
00000100
00000100
,
00000001
00001000
00000001
00000000
00000010
00000000
00000110
00000000
,
00001000
00000001
00001000
00000000
00000100
00000000
00010100
00000000
,
00010000
00001000
00010000
00000000
01000000
00100000
01000000
00000000
,
10000000
00010000
10000000
00010000
00000000
00000000
10000000
01000000
,
00100000
00000000
00010000
00100000
01000000
00000000
00010000
00000000
,
00010000
00000000
00001000
00000000
00001000
00000000
00000100
00000010
,
00000001
00000000
00001000
00000100
00000010
00000000
00010000
00000000
,
00001000
00100000
01000000
20000000
,
00100000
00000000
00100000
00000000
30100000
00000000
01000000
00001000
,
00010000
00000000
00001000
00010000
00000100
00000000
00000002
00000000
,
00000100
00000000
00000100
00000000
00000103
00000000
00001000
00000010
,
00001000
00011000
00000000
00010000
,
01000000
00000000
10000000
00000000
01000000
00000000
00100000
00001000
,
00010000
00000000
00001000
00010000
00000100
00000000
00001000
00000000
,
00000010
00000000
00000001
00000000
00000010
00000000
00001000
00000100
,
00010000
00000000
00001000
00010000
00100000
00000000
10000000
00000000
,
00100000
00000000
00010000
00000000
00100000
00000000
10000000
01000000
,
00100000
00000000
00001000
00100000
00010000
00000000
00001000
00000000
,
00000100
00000000
00000001
00000000
00000100
00000000
00010000
00001000
,
00010000
00000000
00001000
00010000
00001000
00000000
00020000
00000000
,
00000000
00000000
00000000
00230000
,
00000000
00000000
00000000
20300000
,
00000000
00000000
00000000
30020000
,
00000000
00000000
00030000
10010000
,
01000000
10010000
00100000
10010000
,
00110000
00000000
01100000
00000000
11000000
00000000
10000000
00010000
,
10000000
00010000
10000000
00010000
10000000
00010000
00000000
00000000
,
10000000
01000000
00100000
00010000
00100000
00000000
00101000
00000000
,
00010000
00001000
00010000
00000000
00001100
00000000
00000110
00000000
,
00000001
00001000
00000100
00000010
00000001
00000000
00000011
00000000
,
00000001
00000100
00001000
00000000
00010000
00001000
00010000
00000000
,
00100000
10000000
00100000
00000000
01100000
00000000
01010000
00000000
,
00100000
00001000
00010000
00000000
00011000
00000000
00010100
00000000
,
00000100
00000010
00000001
00000000
00001000
00000100
00000010
00000000
,
00000001
00000100
00001000
00000000
00010000
01000000
10000000
00000000
,
01000000
00000000
01000000
00000000
01000000
00100000
00010000
00100000
,
00001000
00010000
00001000
00000000
00000200
00000000
00000310
00000000
,
00001000
00000001
00000010
00000000
00001000
00010000
00001000
00000000
,
00010000
00100000
10000000
00000000
01100000
00000000
10010000
00000000
,
10000000
01000000
00010000
00000000
00001000
00100000
00010000
00000000
,
00001000
00000100
00000010
00000000
00000001
00001000
00000100
00000000
,
00000010
00000010
00000100
00000100
,
00000020
00000000
00000000
00000030
,
00000001
00000100
00000010
00001000
,
00000100
00000000
00000010
00000000
00000100
00000100
00000100
00000000
,
00010000
00001000
00010000
00100000
,
10000000
00000000
00010000
00000000
01000000
01000000
01000000
00000000
,
20000000
31000000
00020000
00130000
,
02000000
03100000
00002000
00013000
,
00010000
00001000
00010000
00001000
00000100
00000010
00000100
00000000
,
00000001
00001000
00000001
00001000
00000100
00000010
00000100
00000000
,
00001000
00000001
00001000
00000001
00001000
00000000
00001001
00000000
,
00000001
00000100
00001000
00020000
00002000
00000000
00000000
00000000
,
00000000
00000000
00000000
00033000
,
00000000
00000000
00000000
00000000
;
#NOTES:
     dance-double:
     :
     Hard:
     12:
     :
00000000
00000000
00000000
00000000
,
00000000
00000000
00000000
00000000
,
00000000
00000000
00000000
00000000
,
00000000
10000000
00100000
01000000
00010000
00100000
00001000
00010000
,
00000000
00000000
00001000
00000100
00000001
00000010
00000100
00001000
,
00000000
00000011
00000000
00001010
00000000
00000000
00010000
00001000
,
00010000
00100000
00100000
01000000
01000000
00010000
10000000
01000000
,
00000000
00000000
00100000
00000000
01000000
00000000
10000000
00000000
00010000
00000000
01000000
00010000
01000000
00000000
00100000
00000000
,
00000000
00010000
00001000
00000100
00000010
00001000
00000001
00000000
,
00000010
00000010
00000010
00000010
,
00000100
00000100
00000100
00000100
,
00010000
00010000
00010000
00010000
,
00001000
00010000
00100000
01000000
,
00100000
00000000
10000000
00000000
00010000
01000000
00010000
00000000
10000000
00000000
00000000
01000000
00000000
00000000
00100000
00000000
,
00001000
00000000
00010000
00000000
00001000
00100000
00001000
00000000
00010000
00000000
00000000
00001000
00000000
00000000
00000100
00000000
,
00000010
00000000
00000100
00000000
00000001
00001000
00000001
00000000
00000010
00000000
00000000
00000100
00000000
00000000
00001000
00000000
,
00000001
00000000
00001000
00000000
00000100
00000010
00000100
00000000
00001000
00000000
00000000
00000000
00000001
00000000
00000010
00000000
,
00000100
00001000
00000001
00000100
00000010
00001000
00000001
00000100
,
00001000
00010000
00100000
10000000
00010000
00000000
10000000
01000000
,
00100000
00010000
10000000
00100000
01000000
00010000
10000000
00100000
,
00010000
00001000
00000100
00000001
00001000
00000000
00000001
00000010
,
00001000
00000010
00000001
00000100
00001000
00010000
00001000
00000010
,
00001000
00010000
00100000
00010000
00001000
00000000
00010000
01000000
,
10000000
01000000
00100000
00001000
00010000
00001000
00000100
00000001
,
00000100
00001000
00010000
00001000
00000010
00000000
00000000
00000011
,
00000000
00000000
00000110
00000000
00000000
00000000
00001100
00000000
00000000
00000000
00001001
00000000
00000000
00000001
00000100
00000000
,
00000000
00000100
00001000
00000000
00000000
00001000
00010000
00000000
00000000
00010000
00100000
00000000
00000000
00000000
10100000
00000000
,
00000000
00000000
01100000
00000000
00000000
00000000
01010000
00000000
00000000
00000000
10010000
00000000
00000000
10000000
01000000
00000000
,
00000000
01000000
00010000
00000000
00000000
00010000
00001000
00000000
00000000
00001000
00000010
00000000
00000000
00000000
00000011
00000000
,
00000000
00000000
00000110
00000000
00000000
00000000
00001100
00000000
00000000
00000000
00001001
00000000
00000000
00000001
00000010
00000000
,
00000000
00000010
00001000
00000000
00000000
00001000
00010000
00000000
00000000
00010000
01000000
00000000
00000000
00000000
11000000
00000000
,
00000000
00000000
01100000
00000000
00000000
00000000
00110000
00000000
00000000
00000000
10010000
00000000
00000000
10000000
00100000
00000000
,
00000000
00100000
00010000
00000000
00001000
00000000
00010000
00000000
00001000
00000000
00000100
00000000
00000002
00000000
00000000
00000000
,
00000000
00000000
00000000
00000203
,
00000000
00000000
00000000
00002300
,
00000000
00000000
00000000
00023000
,
00000000
00000000
00000000
00130000
,
00100000
00000000
01000000
00000000
01000000
00000000
00010000
00100000
,
00020000
00000000
10030000
01000000
20000000
00000000
31000000
00100000
,
00010000
00100000
00001000
00010000
00001000
00000010
00000000
00000000
,
00000010
00000001
00001000
00000001
00000100
00001000
00010000
00100000
,
10000000
00100000
01000000
00010000
00100000
00001000
00010000
00001000
,
00000100
00000010
00000100
00000001
00000010
00000100
00001000
00000100
,
00000010
00001000
00010000
01000000
00100000
00010000
10000000
00100000
,
01000000
00010000
10000000
00100000
00010000
00001000
00000100
00000001
,
00001000
00000010
00000100
00001000
00010000
01000000
00100000
00010000
,
00002000
00000100
00000001
00000010
,
00023000
01000000
10000000
00130000
,
00000000
00000000
00100000
01000000
10000000
00010000
01000000
00100000
,
10000000
00100000
00010000
00001000
00000200
00000000
00000301
00000000
,
00000001
00000010
00001000
00010000
00000010
00001000
00010000
01000000
,
00100000
10000000
00010000
00100000
01100000
00000000
10010000
00000000
,
10000000
01000000
00010000
01000000
00100000
00001000
00010000
00001000
,
00000100
00000010
00000100
00000001
00001000
00000100
00000010
00000000
,
00000001
00000100
00000010
00001000
00010000
01000000
00100000
10000000
,
00200000
00000000
00000000
00300000
,
10000000
00010000
01000000
00000000
00100000
01000000
00010000
00000000
,
00100000
00001000
00010000
00000000
00001000
00000100
00000010
00000000
,
00001000
00000001
00001000
00000001
00000100
00001000
00010000
00000000
,
00001000
00010000
00001000
00010000
00100000
01000000
00010000
00000000
,
10000000
01000000
00010000
01000000
00100000
00001000
00010000
00001000
,
00000100
00000001
00000100
00001000
00010000
00001000
00000010
00000001
,
00000010
00000000
00000100
00000000
00001000
00000000
00000100
00000000
00000010
00000000
00000001
00000000
00001000
00000100
00001000
00000000
,
00000001
00000000
00000100
00000000
00001000
00000000
00010000
00000000
00001000
00000000
00000010
00000000
00001000
00010000
00001000
00000000
,
00100000
00010000
00100000
00000000
00010000
01000000
00010000
00000000
10000000
00100000
10000000
00100000
10000000
00000000
10100000
00000000
,
00010000
10000000
01000000
00010000
00022000
00000000
00000000
00000000
,
00000000
00000000
00000000
00033000
,
00000000
00000000
00000000
00000000
;
#NOTES:
     dance-double:
     :
     Challenge:
     11:
     :
00000000
00000000
00000000
00000000
,
00000000
00000000
00000000
00000000
,
00000000
00000000
00000000
00000000
,
00000000
00000000
00000000
00000000
,
00000000
00000000
00000000
00000000
,
00000000
00100000
10000000
00010000
01000000
00001000
00010000
00000010
,
00000100
00000001
00001000
00000010
00000100
00000010
00001000
00000001
,
00000100
00000010
00000001
00001000
00000100
00010000
00001000
00100000
,
01000000
10000000
00010000
00100000
01000000
00100000
00010000
10000000
,
01000000
00000000
00000000
00000000
00100000
10000000
01000000
00000000
,
00100000
10000000
01000000
00010000
00000010
00001000
00000100
00000000
,
00000001
00000100
00001000
00010000
,
00100000
00000000
00100000
00000000
00100000
10000000
00010000
00000000
,
01000000
00000000
00000000
00000000
00100000
10000000
01000000
00000000
,
00100000
10000000
01000000
00010000
00001000
00000100
00000001
00000000
,
00001000
00000000
00000000
00000000
00000010
00001000
00000100
00000000
,
00000010
00000001
00000100
00001000
00010000
00000000
00100000
00000000
,
00000000
10000000
00010000
00010000
00000000
00000000
01000000
00000000
,
00001000
00010000
00000100
00000010
,
00000000
00000001
00000100
00000100
00000000
00000000
00000001
00000000
,
00000100
00001000
00010000
01000000
,
00000000
10000000
00100000
00100000
00000000
00000000
10010000
00000000
,
01000000
00001000
00000100
00000010
,
00000000
00001000
00001000
00000000
00000000
00000000
00001001
00000000
,
00000100
00000000
00010000
00000000
01000000
00000000
00010000
10000000
,
00010000
00000000
00100000
00010000
00100000
00010000
10000000
00010000
,
01000000
00000000
00001000
00010000
00001000
00010000
00000100
00001000
,
00000010
00000000
00001000
00000001
00000010
00000100
00000010
00000001
,
00001000
00000000
00000010
00000001
00001000
00000100
00000010
00000001
,
00001000
00000000
00000010
00000001
00001000
00000100
00001000
00010000
,
00001000
00000000
00010000
01000000
00100000
10000000
01000000
00010000
,
10000000
00000000
00010000
01000000
00100000
10000000
00010000
10000000
,
00010000
00000000
10000000
00010000
00100000
00010000
00100000
00010000
,
01000000
00000000
00001000
00010000
00000100
00000000
00000010
00000001
,
00000100
00000000
00001000
00100000
01000000
00000000
00010000
10000000
,
01000000
00000000
00010000
01000000
00100000
00000000
00100000
01000000
,
00010000
00001000
00000100
00000010
00000001
00000001
00000001
00000000
,
00001000
00000000
00000001
00001000
00000100
00000000
00000010
00000100
,
00001000
00010000
01000000
00100000
10000000
10000000
10000000
00000000
,
00100000
00000000
00100000
00010000
00100000
00000000
00010000
00000000
,
00010000
00000000
01000000
00000000
00100000
10000000
01000000
00010000
,
01000000
10000000
00100000
00010000
00001000
00000010
00000001
00000000
,
00000000
00001000
00000001
00000000
00000000
00000001
00000000
00000100
,
00000000
00001000
00000000
00010000
00000000
00010000
10000000
00000000
,
01100000
00000000
10010000
00000000
00100000
00010000
10000000
01000000
,
00100000
00001000
00010000
00000100
00000010
00000001
00000100
00000000
,
00000000
00001000
00000100
00000000
00000000
00000001
00000000
00000100
,
00000000
00001000
00000000
00010000
00000000
01000000
10000000
00000000
,
10010000
00011000
00001100
00000101
,
00000000
00000001
00001000
00000100
00001000
00000001
00000010
00000100
,
00001000
00000001
00000000
00000000
00010000
00001000
00000000
00011000
,
00000000
01010000
00000000
10000000
01000000
10000000
00010000
01000000
,
10010000
01010000
11000000
10100000
,
00000000
10000000
00010000
01000000
00010000
10000000
00100000
01000000
,
00010000
10000000
00000000
00000000
00001000
00010000
00000000
00000000
,
00000020
00000000
00000000
00000030
,
00000100
00000000
00000010
00001001
,
00010100
00000000
00001000
00100000
00010000
10000000
01000000
00000000
,
00100000
00001000
00010000
00000000
00000010
00001000
00000001
00000000
,
00000100
00000100
00000100
00000100
00000100
00000000
00000010
00000000
,
00001001
00000000
00010000
00101000
,
10010000
00000000
01100000
00000000
00010000
01000000
00001000
00000000
,
00010000
00000010
00010000
00000000
00001000
01000000
00001000
00000000
,
10000000
00100000
10000000
00000000
00010000
00000000
00101000
00000000
,
01000000
10000000
00010000
01000000
10010000
10010000
10010000
01000000
,
00100000
00010000
00001000
00000100
00000001
00000000
00000000
00000000
,
00000000
00000000
00000000
00000000
;
