
//----- song ID: oneg -----//
#TITLE:おねがいダーリン;
#ARTIST:松下;
#TITLETRANSLIT:Onegai darling;
#ARTISTTRANSLIT:Matsushita;
#BANNER:Onegai darling.png;
#BACKGROUND:Onegai darling-bg.png;
#CDTITLE:./CDTitles/DDR A.png;
#MUSIC:Onegai darling.ogg;
#SAMPLESTART:51.989;
#SAMPLELENGTH:15;
#BPMS:0=180;
#NOTES:
     dance-single:
     :
     Beginner:
     2:
     :
0000
0000
0000
0000
,
0000
0000
0000
0000
,
0000
0000
0000
0000
,
0000
0000
0000
0000
,
0000
0000
0000
0000
,
1000
0000
0000
0000
,
0001
0000
0000
0000
,
1000
0000
0000
0000
,
0000
0000
0000
0000
,
0001
0000
0000
0000
,
0000
0000
0000
0000
,
1000
0000
0000
0000
,
0000
0000
0000
0000
,
0001
0000
0000
0000
,
0000
0000
0000
0000
,
2000
0000
0000
0000
,
3000
0000
0000
0000
,
0002
0000
0000
0000
,
0003
0000
0000
0000
,
2000
0000
0000
0000
,
3000
0000
0000
0000
,
0002
0000
0000
0000
,
0003
0000
0000
0000
,
0010
0000
0000
0000
,
0010
0000
0000
0000
,
0001
0000
0000
0000
,
0000
0000
0000
0000
,
0010
0000
0000
0000
,
0010
0000
0000
0000
,
1000
0000
0000
0000
,
0000
0000
0000
0000
,
0100
0000
0000
0000
,
0100
0000
0000
0000
,
0001
0000
0000
0000
,
0001
0000
0000
0000
,
1000
0000
0000
0000
,
0001
0000
0000
0000
,
1000
0000
0000
0000
,
0000
0000
0000
0000
,
0001
0000
0000
0000
,
0001
0000
0000
0000
,
1000
0000
0000
0000
,
1000
0000
0000
0000
,
0001
0000
0000
0000
,
0001
0000
0000
0000
,
1000
0000
0000
0000
,
1000
0000
0000
0000
,
0010
0000
0000
0000
,
0100
0000
0000
0000
,
0010
0000
0000
0000
,
0000
0000
0000
0000
,
1001
0000
0000
0000
,
0000
0000
0000
0000
,
1000
0000
0000
0000
,
0001
0000
0000
0000
,
1000
0000
0000
0000
,
0000
0000
0000
0000
,
0001
0000
0001
0000
,
0001
0000
0000
0000
,
0010
0000
0000
0000
,
0010
0000
0000
0000
,
0100
0000
0000
0000
,
0100
0000
0000
0000
,
0001
0000
0000
0000
,
1000
0000
0000
0000
,
0001
0000
0000
0000
,
0000
0000
0000
0000
,
0000
0000
0000
0000
,
1000
0000
0000
0000
,
0001
0000
0000
0000
,
1000
0000
0000
0000
,
0001
0000
0000
0000
,
0010
0000
0000
0000
,
0100
0000
0000
0000
,
0010
0000
0000
0000
,
0100
0000
0000
0000
,
1000
0000
0000
0000
,
0001
0000
0000
0000
,
1000
0000
0000
0000
,
0000
0000
0000
0000
,
1001
0000
0000
0000
,
0000
0000
0000
0000
,
0000
0000
0000
0000
,
1000
0000
0000
0000
,
0001
0000
0000
0000
,
0001
0000
0000
0000
,
1000
0000
0000
0000
,
0010
0000
0010
0000
,
0010
0000
0000
0000
,
0000
0000
0000
0000
;
#NOTES:
     dance-single:
     :
     Easy:
     3:
     :
0000
0000
0000
0000
,
0000
0000
0000
0000
,
0000
0000
0000
0000
,
0000
0000
0000
0000
,
0000
0000
0000
0000
,
0001
0000
1000
0000
,
0010
0000
1000
0000
,
0001
0000
1000
0000
,
0001
0000
0000
0000
,
1000
0000
0001
0000
,
1000
0000
0100
0000
,
1000
0000
0001
0000
,
1000
0000
0000
0000
,
1001
0000
0000
0000
,
1001
0000
0000
0000
,
0001
0000
0001
0000
,
1000
0000
0000
0000
,
0001
0000
1000
0000
,
1000
0000
0000
0000
,
0001
0000
1000
0000
,
0100
0000
0000
0000
,
0100
0000
0100
0000
,
1000
0000
0000
0000
,
0000
0001
0000
0001
,
0000
1000
0000
1000
,
0000
0001
0000
1000
,
0000
0001
0000
1000
,
0002
0000
0000
0003
,
0200
0000
0000
0300
,
0001
0000
1000
0000
,
0001
0000
0000
0000
,
1000
0000
1000
0000
,
1000
0000
0000
0000
,
0001
0000
0001
0000
,
0001
0000
0000
0000
,
0100
0000
0001
0000
,
0100
0000
0001
0000
,
2000
0000
0000
3000
,
0001
0000
0000
0000
,
0001
0000
1000
0000
,
0001
0000
0001
0000
,
1000
0000
0001
0000
,
1000
0000
0000
0000
,
1000
0000
0001
0000
,
1000
0000
1000
0000
,
0001
0000
1000
0000
,
0001
0000
0000
0000
,
1000
0000
0000
0000
,
0100
0000
0000
0000
,
1001
0000
0000
0000
,
0000
0000
0000
0000
,
0200
0000
0000
0300
,
0000
0000
0000
0000
,
0001
0000
0001
0000
,
1000
0000
1000
0000
,
0010
0000
0000
0000
,
0100
0000
0000
0000
,
1001
0000
0000
0000
,
1001
0000
0000
0000
,
0001
0000
0001
0000
,
0001
0000
0000
0000
,
1000
0000
1000
0000
,
1000
0000
0000
0000
,
0100
0000
1000
0000
,
0100
0000
1000
0000
,
0002
0000
0000
0003
,
1000
0000
0000
0000
,
0001
0000
0000
0000
,
1000
0000
0001
0000
,
1000
0000
1000
0000
,
0001
0000
1000
0000
,
0001
0000
0000
0000
,
0001
0000
1000
0000
,
0001
0000
0001
0000
,
1000
0000
0001
0000
,
1000
0000
0000
0000
,
0001
0000
0000
0000
,
0010
0000
0000
0000
,
0001
0000
1000
0000
,
0001
0000
1000
0000
,
2002
0000
3003
0000
,
1000
0000
0000
0000
,
0001
0000
0000
0000
,
1000
0000
0010
0000
,
1000
0000
0010
0000
,
0001
0000
0001
0000
,
1000
0000
1000
0000
,
0001
0000
1000
0000
,
1001
0000
0000
0000
,
0000
0000
0000
0000
;
#NOTES:
     dance-single:
     :
     Medium:
     8:
     :
0000
0000
0000
0000
,
0000
0000
0000
0000
,
0000
0000
0000
0000
,
0000
0000
0000
0000
,
0000
0000
0000
0000
,
0001
0100
0001
0000
1000
0100
1000
0000
,
0010
0000
1000
0000
0000
0001
0001
0000
,
0100
0001
1000
0000
,
0010
1000
0001
0000
,
0010
0100
1000
0000
,
0010
0000
0100
0000
0001
1000
0001
0000
,
1000
0010
0100
0000
,
0001
1000
0010
0000
,
0100
0000
0000
0001
1000
0000
0000
0100
,
0010
0000
0000
0001
0000
0000
0000
0000
,
0001
0010
0100
1000
,
0010
0100
0001
1000
,
0100
0010
0001
0100
,
0001
1000
0001
1000
,
0100
0001
0100
1000
,
0001
0100
1000
0100
,
0001
0100
0010
1000
,
0010
0100
0010
0100
,
0000
0001
0000
1000
,
0000
0001
0000
1000
,
0001
0100
0010
0000
1000
0000
0001
0000
,
0010
0100
1000
0000
0010
0000
0100
0000
,
0002
0000
0000
0000
,
2003
0000
0000
0000
,
3010
0000
1000
0000
0001
0000
0100
0001
,
0000
1000
0000
0100
0000
0010
0000
0000
,
1000
0001
0100
0000
,
0100
0001
1000
0000
,
1000
0100
1000
0000
,
1000
0001
0100
0000
,
1000
0000
0000
0001
0000
0000
0000
0010
,
0000
0000
0000
0100
0000
1000
0001
0100
,
0002
0000
0000
0000
,
1003
0010
0100
0001
,
0100
0000
0010
0000
1000
0100
1000
0000
,
0001
0100
0001
0000
,
1000
0000
0100
0000
1000
0001
0100
0000
,
0001
1000
0100
2000
0000
0000
0000
0000
,
3001
0000
0010
0000
0100
1000
0100
0000
,
1000
0010
0100
0000
,
0001
0000
0010
0000
0001
0100
0010
0000
,
1000
0100
1000
0200
0000
0000
0000
0000
,
1300
1000
0100
0100
,
0001
0001
0010
0010
,
1000
0100
0000
1000
0000
0001
0000
0100
,
0000
0010
0100
0010
0000
0000
0000
0000
,
1000
0100
0001
0100
,
1000
0001
0010
0100
,
1000
1000
0010
0010
,
0100
0001
0100
0001
0000
1000
0000
0000
,
0001
0100
0001
1000
,
0010
1000
0001
1000
,
0001
0000
0000
0010
0100
0000
0000
1000
,
0010
0000
0000
0100
0000
0000
0000
0000
,
0001
1000
0100
0000
,
0100
1000
0001
0000
,
0001
0100
0001
0000
,
0001
1000
0100
0000
,
0001
0000
0000
1000
0000
0000
0000
0010
,
0000
0000
0000
0100
0000
0001
1000
0100
,
2000
0000
0000
0000
,
3001
0010
0100
1000
,
0010
0100
0001
1000
,
0100
0000
0010
0000
0001
0100
0001
0000
,
1000
0100
1000
0000
,
0001
0000
0100
0000
0001
1000
0100
0000
,
1000
0001
0100
0001
0000
0010
0001
0000
,
1000
0000
0010
0000
0100
0001
0100
0000
,
0001
0010
0100
0000
,
1000
0000
0010
0000
1000
0100
0010
0000
,
0001
0100
0001
0100
0000
0000
0000
0000
,
0001
0001
0100
0100
,
1000
1000
0010
0010
,
0001
0100
0000
0001
0000
1000
0000
0100
,
0000
0010
0100
0010
0000
0001
1000
0002
,
0000
0000
0000
0000
,
0200
0000
0000
0000
,
0000
0000
0000
0303
,
0010
0000
1000
0000
0001
0100
0001
0000
,
0010
0000
0001
0000
0000
1000
0100
0000
,
0010
0001
0100
0000
0001
0000
1000
0000
,
0010
1000
0100
0000
1000
0000
0001
0000
,
1000
0000
0000
0010
0100
0000
0000
0001
,
1000
0000
0000
0100
0000
0000
0000
0000
,
0000
0000
0000
0000
;
#NOTES:
     dance-single:
     :
     Hard:
     11:
     :
0000
0000
0000
0000
,
0000
0000
0000
0000
,
0000
0000
0000
0000
,
0000
0000
0000
0000
,
0000
0000
0000
0000
,
0010
0001
0010
0001
1000
0100
1000
0100
,
1000
0001
1000
0010
0000
0110
0000
0000
,
0001
0100
0000
0100
0001
0100
0000
0010
,
0000
0100
0000
0001
1000
0100
1000
0000
,
1000
0100
0000
0100
1000
0100
0000
0010
,
0000
0100
0000
1000
0001
0100
0001
0000
,
1000
0100
0000
0001
0100
1000
0000
0100
,
0000
0001
0000
0100
1000
0001
1000
0000
,
0001
0000
0000
0010
0000
0000
0001
0000
1000
0000
0000
0100
0000
0000
1000
0000
,
0010
0000
0000
0100
0000
0000
0010
0000
0000
0000
0000
0000
0000
0000
0000
0000
,
0001
0100
0001
0000
1000
0100
1000
0000
,
0001
0010
0100
1000
0100
0010
0001
0000
,
1000
0010
1000
0000
0001
0010
0001
0000
,
1000
0010
0100
0001
0100
0010
1000
0000
,
0010
0100
0010
0000
1000
0001
1000
0000
,
0010
0100
0001
1000
0100
0010
0001
0000
,
2000
0000
3002
0000
0013
0100
0010
0000
,
0001
1000
0010
0100
0001
0000
1000
0000
,
0000
0001
0000
0001
,
0000
0010
0000
0010
,
0100
0001
1000
0000
0010
0100
0001
0000
,
1000
0000
0100
0000
0010
0100
0010
0000
,
0002
1000
0000
1003
,
0200
0010
0000
0310
,
1000
0100
1000
0100
0001
0100
1000
0001
,
0000
1000
0100
1000
0000
0010
0000
0000
,
1000
0000
1000
0000
1000
0100
0010
0001
,
0000
0001
0100
0000
0010
0000
1000
0000
,
0001
0000
0001
0000
0001
0100
0010
1000
,
0000
1000
0010
0000
0100
0000
0001
0000
,
0001
0100
0001
0100
0000
0010
0100
0010
,
0000
1000
0100
1000
0000
0100
0010
0100
,
2000
0000
0000
0000
,
3001
0010
0100
1000
,
0001
0100
0001
0100
0001
0000
1000
0000
,
0100
1000
0010
0000
0110
0000
0001
0010
,
0100
1000
0100
0000
1000
0100
0010
0000
,
0001
0100
0001
0200
0000
0000
0300
0000
,
1000
0100
1000
0100
1000
0000
0001
0000
,
0100
0001
0010
0000
0110
0000
1000
0010
,
0100
0001
0100
0000
0001
0100
0010
0000
,
1000
0100
1000
0100
0000
0010
0001
0100
,
0002
0103
2000
3100
,
1000
0100
0001
0200
0000
0000
0000
0000
,
1300
0001
0000
0101
0000
1100
0000
0010
,
0000
0001
0010
0001
0010
1000
0010
0001
,
2000
0100
0000
0100
,
3002
0100
0000
0103
,
1000
1000
0100
0100
,
0001
0100
0001
0010
0000
0002
0000
0000
,
0103
0001
0000
0010
0100
1000
0100
1000
,
0000
0010
0000
0100
0001
0010
0100
0000
,
1000
0000
0000
0010
0000
0000
1000
0000
0001
0000
0000
0100
0000
0000
0001
0000
,
0100
0000
0000
0010
0000
0000
0100
0000
0000
0000
0000
0000
0000
0000
0000
0000
,
0001
0000
0001
0000
0001
0010
0100
1000
,
0000
1000
0100
0000
0010
0000
0001
0000
,
1000
0000
1000
0000
1000
0010
0100
0001
,
0000
0001
0010
0000
0100
0000
1000
0000
,
1000
0100
1000
0100
0000
0010
0100
0010
,
0000
0001
0100
0001
0000
0100
0010
0100
,
0002
0000
0000
0000
,
1003
0010
0100
0001
,
1001
0100
1001
0010
,
1000
0100
1000
0100
1000
0000
0001
0000
,
0100
0001
0010
0000
0110
0000
1000
0010
,
0100
0001
0100
0000
0001
0100
0010
0000
,
1000
0100
1000
0100
0000
0100
0100
0000
,
0001
0100
0001
0100
0001
0000
1000
0000
,
0100
1000
0010
0000
0110
0000
0001
0010
,
0100
1000
0100
0000
1000
0100
0010
0000
,
0001
0100
0001
0100
0000
0010
1000
0100
,
2000
3100
0002
0103
,
0001
0100
1000
0200
0000
0000
0000
0000
,
0301
1000
0000
1100
0000
0101
0000
0010
,
0000
1000
0010
1000
0010
0001
0010
2000
,
0000
0000
0000
3000
,
0001
0010
0001
0010
0000
0010
0001
1000
,
0000
0010
1000
0010
0000
1000
1000
0000
,
0001
1000
0001
1000
0010
0100
0010
0100
,
0001
1000
0001
0010
0000
0110
0000
0000
,
0001
0100
0000
0100
0001
0100
0000
0010
,
0000
0100
0000
0001
1000
0100
1000
0000
,
0001
0000
0000
1000
0000
0000
0010
0000
0010
0000
0000
0001
0000
0000
0100
0000
,
0100
0000
0000
1000
0000
0000
0010
0000
0000
0000
0000
0000
0000
0000
0000
0000
,
0000
0000
0000
0000
;
#NOTES:
     dance-double:
     :
     Easy:
     3:
     :
00000000
00000000
00000000
00000000
,
00000000
00000000
00000000
00000000
,
00000000
00000000
00000000
00000000
,
00000000
00000000
00000000
00000000
,
00000000
00000000
00000000
00000000
,
00000010
00000000
00001000
00000000
,
00000100
00000000
00010000
00000000
,
00001000
00000000
00000000
00000000
,
00010000
00000000
00000000
00000000
,
00001000
00000000
00000000
00000000
,
01000000
00000000
00010000
00000000
,
10000000
00000000
00000000
00000000
,
00010000
00000000
00000000
00000000
,
10010000
00000000
00000000
00000000
,
10010000
00000000
00000000
00000000
,
00010000
00000000
10000000
00000000
,
00010000
00000000
00000000
00000000
,
01000000
00000000
00001000
00000000
,
00010000
00000000
00000000
00000000
,
00001000
00000000
00010000
00000000
,
00001000
00000000
00000000
00000000
,
00010000
00000000
00000100
00000000
,
00001000
00000000
00000000
00000000
,
00000000
00000010
00000000
00000010
,
00000000
00000100
00000000
00000100
,
00000000
00000001
00000000
00001000
,
00000000
00000001
00000000
00001000
,
00000002
00000000
00000000
00000003
,
00002000
00000000
00000000
00003000
,
00000001
00000000
00000001
00000000
,
00000001
00000000
00000000
00000000
,
00001000
00000000
00000001
00000000
,
00000100
00000000
00000000
00000000
,
00000001
00000000
00001000
00000000
,
00000100
00000000
00000000
00000000
,
00010000
00000000
00001000
00000000
,
00010000
00000000
00001000
00000000
,
00020000
00000000
00000000
00030000
,
00001000
00000000
00000000
00000000
,
00100000
00000000
00010000
00000000
,
01000000
00000000
01000000
00000000
,
00010000
00000000
10000000
00000000
,
00010000
00000000
00000000
00000000
,
00010000
00000000
10000000
00000000
,
00010000
00000000
00010000
00000000
,
00100000
00000000
00001000
00000000
,
00010000
00000000
00000000
00000000
,
00001000
00000000
00000000
00000000
,
00000100
00000000
00000000
00000000
,
00001001
00000000
00000000
00000000
,
00000000
00000000
00000000
00000000
,
00000020
00000000
00000000
00000030
,
00000000
00000000
00000000
00000000
,
00000001
00000000
00000001
00000000
,
00001000
00000000
00001000
00000000
,
00000010
00000000
00000000
00000000
,
00001000
00000000
00000000
00000000
,
00011000
00000000
00000000
00000000
,
00011000
00000000
00000000
00000000
,
00010000
00000000
00001000
00000000
,
00001000
00000000
00000000
00000000
,
01000000
00000000
00010000
00000000
,
00010000
00000000
00000000
00000000
,
10000000
00000000
00010000
00000000
,
10000000
00000000
00010000
00000000
,
02000000
00000000
00000000
03000000
,
00010000
00000000
00000000
00000000
,
10000000
00000000
00010000
00000000
,
00100000
00000000
00001000
00000000
,
00010000
00000000
00001000
00000000
,
00010000
00000000
00000100
00000000
,
00001000
00000000
00000000
00000000
,
00000001
00000000
00000010
00000000
,
00000001
00000000
00001000
00000000
,
00001000
00000000
00000001
00000000
,
00000100
00000000
00000000
00000000
,
00000010
00000000
00000000
00000000
,
00001000
00000000
00000000
00000000
,
00000100
00000000
00000000
00000000
,
00010000
00000000
00000000
00000000
,
00011000
00000000
00000000
00000000
,
00001000
00000000
00000000
00000000
,
01000000
00000000
00000000
00000000
,
00010000
00000000
00010000
00000000
,
00010000
00000000
00010000
00000000
,
10000000
00000000
10000000
00000000
,
00010000
00000000
00000000
00000000
,
01000000
00000000
00100000
00000000
,
01000000
00000000
00000000
00000000
,
00000000
00000000
00000000
00000000
;
#NOTES:
     dance-double:
     :
     Medium:
     8:
     :
00000000
00000000
00000000
00000000
,
00000000
00000000
00000000
00000000
,
00000000
00000000
00000000
00000000
,
00000000
00000000
00000000
00000000
,
00000000
00000000
00000000
00000000
,
00001000
00010000
00001000
00000000
00010000
00001000
00010000
00000000
,
00000100
00000000
00001000
00000000
00000000
00000010
00000000
00000000
,
00001000
00000001
00000100
00000000
,
00000010
00000001
00001000
00000000
,
00000010
00001000
00000100
00000000
,
00010000
00000000
00001000
00000000
00100000
00010000
00100000
00000000
,
00010000
01000000
00100000
00000000
,
10000000
10000000
00100000
00000000
,
01000000
00000000
00000000
00010000
00100000
00000000
00000000
00001000
,
00010000
00000000
00000000
00001000
00000000
00000000
00000000
00000000
,
00000010
00000001
00000010
00000001
,
00000100
00000010
00000100
00000010
,
00001000
00000100
00001000
00000100
,
00010000
00001000
00010000
00001000
,
01000000
00010000
01000000
00010000
,
10000000
01000000
10000000
01000000
,
00010000
01000000
10000000
01000000
,
00100000
00001000
00010000
00000100
,
00000000
00001000
00000000
00000001
,
00000000
00001000
00000000
00000001
,
00001000
00000010
00000100
00000000
00000001
00000000
00001000
00000000
,
00000010
00000100
00000001
00000000
00001000
00000000
00000100
00000000
,
00020000
00000000
00000000
00000000
,
00032000
00000000
00000000
00000000
,
00103000
00000000
00010000
00000000
01000000
00000000
00010000
10000000
,
00000000
00100000
00000000
01000000
00000000
00010000
00000000
00000000
,
10000000
10000000
01000000
00000000
,
01000000
01000000
00010000
00000000
,
00100000
00100000
10000000
00000000
,
10000000
10000000
00010000
00000000
,
00100000
00000000
00000000
00001000
00000000
00000000
00000000
00010000
,
00000000
00000000
00000000
00000100
00000000
00000010
00000100
00000010
,
00000002
00000000
00000000
00000000
,
00001003
00000100
00000010
00000001
,
00000010
00000000
00000100
00000000
00001000
00000100
00001000
00000000
,
00000010
00000100
00000010
00000000
,
00001000
00000001
00000100
00000010
,
00001000
00000100
00010000
00002000
00000000
00000000
00000000
00000000
,
00103000
00100000
01000000
01000000
,
10000000
00010000
10000000
00000000
,
00100000
01000000
00100000
00100000
,
10000000
01000000
10000000
02000000
00000000
00000000
00000000
00000000
,
13000000
10000000
00010000
00010000
,
00100000
00100000
00001000
00001000
,
00010000
00001000
00000000
00010000
00000000
00000100
00000000
00001000
,
00000000
00000010
00000100
00000010
00000000
00000000
00000000
00000000
,
00000100
00000001
00001000
00000001
,
00000100
00001000
00000100
00000001
,
00000010
00000010
00000100
00000100
,
00001000
00000100
00001000
00000100
00000000
00010000
00000000
00000000
,
00001000
00010000
00001000
00100000
,
00010000
01000000
00010000
10000000
,
00010000
00000000
00000000
10000000
01000000
00000000
00000000
00100000
,
01000000
00000000
00000000
10000000
00000000
00000000
00000000
00000000
,
10000000
00010000
00010000
00000000
,
01000000
00010000
10000000
00000000
,
01000000
00010000
00001000
00000000
,
00010000
00001000
00010000
00000000
,
00001000
00000000
00000000
00000100
00000000
00000000
00000000
00000010
,
00000000
00000000
00000000
00001000
00000000
00000001
00000100
00000001
,
00000200
00000000
00000000
00000000
,
00000301
00000100
00000010
00001000
,
00000100
00010000
00001000
01000000
,
00100000
00000000
01000000
00000000
00010000
01000000
00010000
00000000
,
00100000
01000000
00100000
00000000
,
00010000
00000000
10000000
00000000
01000000
00100000
00010000
00000000
,
01000000
00001000
00010000
00002000
00000000
00000000
00000000
00000000
,
00013000
00000000
00000010
00000000
00000100
00000010
00000100
00000000
,
00000001
00001000
00000001
00000000
,
00000010
00000000
00000100
00000000
00000010
00000001
00000010
00000000
,
00000001
00000100
00000001
00000200
00000000
00000000
00000000
00000000
,
00000301
00000001
00001000
00001000
,
00000010
00000010
00010000
00010000
,
00001000
00010000
00000000
00001000
00000000
01000000
00000000
00010000
,
00000000
00100000
01000000
00100000
00010000
00000000
00000000
00000000
,
20000000
00000000
00000000
00000000
,
02000000
00000000
00000000
00000000
,
00000000
00000000
00000000
33000000
,
00100000
00000000
00010000
00000000
00100000
00010000
00100000
00000000
,
00010000
00000000
01000000
00000000
00000000
00001000
00000000
00000000
,
00001000
00010000
00001000
00000100
,
00000001
00001000
00000010
00000100
,
00000001
00000000
00000000
00001000
00000100
00000000
00000000
00000010
,
00000001
00000000
00000000
00001000
00000000
00000000
00000000
00000000
,
00000000
00000000
00000000
00000000
;
#NOTES:
     dance-double:
     :
     Hard:
     11:
     :
00000000
00000000
00000000
00000000
,
00000000
00000000
00000000
00000000
,
00000000
00000000
00000000
00000000
,
00000000
00000000
00000000
00000000
,
00000000
00000000
00000000
00000000
,
00001000
00010000
00001000
00000000
00100000
00010000
00100000
00000000
,
00010000
00100000
00010000
01000000
00000000
00100000
00000000
00000000
,
10000000
01000000
00000000
01000000
10000000
00100000
00000000
01000000
,
00000000
00010000
00000000
01000000
00010000
01000000
00001000
00000000
,
00010000
00001000
00000000
00001000
00010000
00000100
00000000
00001000
,
00000000
00000010
00000000
00000100
00000001
00000100
00000001
00000100
,
00001000
00000100
00000000
00000010
00000100
00000001
00000000
00001000
,
00000000
00000001
00000000
00001000
00000100
00001000
00001000
00000000
,
00000010
00000000
00000000
00001000
00000000
00000000
00000100
00000000
00010000
00000000
00000000
00001000
00000000
00000000
00010000
00000000
,
00001000
00000000
00000000
00100000
00000000
00000000
00010000
00000000
00000000
00000000
00000000
00000000
00000000
00000000
00000000
00000000
,
10000000
00010000
10000000
00000000
00100000
00000000
01000000
00000000
,
00010000
00100000
01000000
00000000
00100000
00000000
00010000
00000000
,
10000000
00100000
01000000
00000000
00010000
01000000
00001000
00000000
,
00010000
00001000
00100000
00001000
00010000
00000100
00010000
00000000
,
00000010
00001000
00000010
00000000
00001000
00000000
00000001
00000000
,
00000010
00000100
00001000
00000000
00000001
00000000
00001000
00000000
,
00000002
00000000
00000203
00000000
00000301
00000100
00000010
00000000
,
00001000
00000100
00010000
00001000
00100000
00000000
00010000
00000000
,
00000000
10000000
00000000
10000000
,
00000000
00100000
00000000
00100000
,
00010000
10000000
00010000
00000000
00100000
00000000
00010000
00000000
,
01000000
00001000
00010000
00001000
00010000
00000100
00001000
00000000
,
00000200
00000010
00000000
00000310
,
00000002
00001000
00000000
00001003
,
00001000
00000010
00000100
00000001
00000100
00000010
00001000
00000100
,
00000000
00000010
00000100
00000010
00000000
00000001
00000000
00000000
,
00001000
00000000
00000100
00000000
00010000
00001000
00010000
00001000
,
00000000
00001000
00010000
00000000
01000000
00000000
10000000
00000000
,
00010000
00000000
01000000
00000000
00001000
00010000
00001000
00010000
,
00000000
00000100
00000010
00000000
00000100
00000000
00001000
00000000
,
00000001
00000100
00000001
00000100
00000000
00000010
00000100
00000010
,
00000000
00001000
00000100
00001000
00000000
00000100
00000010
00000100
,
00002000
00000000
00000000
00000000
,
00003100
00010000
00001000
00100000
,
00010000
00100000
00010000
01000000
00100000
00000000
10000000
00000000
,
01000000
10000000
00100000
00000000
00100000
00000000
00010000
00100000
,
00010000
00100000
00001000
00000000
00010000
00001000
00010000
00000000
,
00000100
00001000
00000100
00002000
00000000
00000000
00003000
00000000
,
00000001
00000100
00000001
00000010
00000001
00000000
00001000
00000000
,
00000100
00001000
00000010
00000000
00000010
00000000
00000100
00000010
,
00000100
00001000
00000100
00000000
00001000
00010000
00100000
00000000
,
00010000
00001000
00010000
00002000
00000000
00000000
00013000
00000000
,
00002000
00103000
00020000
10030000
,
00010000
00100000
01000000
20000000
00000000
00000000
00000000
00000000
,
30100000
01000000
00000000
01010000
00000000
00110000
00000000
00001000
,
00000000
00010000
00001000
00010000
00000010
00001000
00000010
00001000
,
00000002
00000100
00000000
00000100
,
00002003
00000100
00000000
00003100
,
00000010
00000001
00000100
00000000
00000001
00000100
00000001
00000000
,
00001000
00000100
00001000
00000100
00000000
00020000
00000000
00000000
,
00031000
00010000
00000000
00001000
00100000
01000000
00100000
00010000
,
00000000
10000000
00000000
00100000
10000000
01000000
10000000
00000000
,
00010000
00000000
00000000
00100000
00000000
00000000
00010000
00000000
00100000
00000000
00000000
01000000
00000000
00000000
00100000
00000000
,
01000000
00000000
00000000
10000000
00000000
00000000
01000000
00000000
00000000
00000000
00000000
00000000
00000000
00000000
00000000
00000000
,
00010000
00000000
01000000
00000000
00001000
00010000
00001000
00010000
,
00000000
00010000
00001000
00000000
00000100
00000000
00000001
00000000
,
00001000
00000000
00000100
00000000
00010000
00001000
00010000
00001000
,
00000000
01000000
00100000
00000000
01000000
00000000
00010000
00000000
,
10000000
01000000
10000000
01000000
00000000
00100000
01000000
00100000
,
00000000
00001000
00010000
00001000
00000000
01000000
00100000
01000000
,
00020000
00000000
00000000
00000000
,
01030000
00001000
00010000
00000100
,
00000110
00001000
00000110
00000001
,
00001000
00000100
00000010
00000100
00001000
00000000
00000001
00000000
,
00000100
00000010
00001000
00000000
00001000
00000000
00010000
00001000
,
00100000
00010000
01000000
00000000
00010000
00100000
01000000
00000000
,
10000000
01000000
10000000
01000000
00000000
00010000
00010000
00000000
,
00100000
00010000
10000000
00010000
00100000
00000000
00001000
00000000
,
00010000
00001000
00010000
00000000
00000010
00000000
00001000
00000010
,
00000100
00000010
00001000
00000000
00000001
00000100
00000001
00000000
,
00001000
00000100
00000001
00000100
00000000
00000010
00000001
00001000
,
00000200
00010300
00002000
00103000
,
00010000
00100000
10000000
00200000
00000000
00000000
00000000
00000000
,
00310000
10000000
00000000
00110000
00000000
10100000
00000000
01000000
,
00000000
00100000
00010000
10000000
01000000
00010000
00001000
00020000
,
00000000
00000000
00000000
00030000
,
00001000
00010000
00000010
00001000
00000000
00000001
00000100
00000010
,
00000000
00001000
00000100
00000010
00000000
00000001
00000100
00000000
,
00000001
00001000
00000001
00000000
00000010
00000100
00001000
00000000
,
00000001
00000100
00000010
00001000
00000000
00000010
00000000
00000000
,
00000001
00000100
00000000
00000100
00000010
00000100
00000000
00001000
,
00000000
00010000
00000000
00001000
00010000
00001000
01000000
00000000
,
00010000
00000000
00000000
00100000
00000000
00000000
10000000
00000000
00100000
00000000
00000000
00010000
00000000
00000000
01000000
00000000
,
00001000
00000000
00000000
00010000
00000000
00000000
00000100
00000000
00000000
00000000
00000000
00000000
00000000
00000000
00000000
00000000
,
00000000
00000000
00000000
00000000
;
