
//----- song ID: obor -----//
#TITLE:朧;
#ARTIST:HHH×MM×ST;
#TITLETRANSLIT:Oboro;
#BANNER:Oboro.png;
#BACKGROUND:Oboro-bg.png;
#CDTITLE:./CDTitles/pnm 20 fantasia.png;
#MUSIC:Oboro.ogg;
#SAMPLESTART:59.177;
#SAMPLELENGTH:15;
#BPMS:0=149;
#NOTES:
     dance-single:
     :
     Beginner:
     3:
     :
0000
0000
0000
0000
,
0000
0000
0000
0000
,
0000
0000
0000
0000
,
0000
0000
0000
0000
,
0000
0000
0000
0000
,
0000
0000
0000
0001
,
0000
0000
0000
1000
,
0000
0000
0000
0010
,
0000
0000
0000
0100
,
0000
0001
0000
0001
,
0000
1000
0000
1000
,
0000
0010
0000
0010
,
0000
0100
0000
0100
,
0000
0000
0010
0010
,
0010
0000
0000
0000
,
0000
0000
0000
1000
,
0000
0000
0000
0100
,
0000
0000
0000
0010
,
0000
0000
0000
0001
,
0000
0000
0000
0000
,
0000
0010
0000
0010
,
0000
1000
1000
0000
,
0000
0100
0000
0100
,
0000
0001
0001
0000
,
0000
0100
0000
0100
,
0000
0010
0010
0000
,
0000
0001
0000
0001
,
0000
1000
1000
0000
,
0000
0000
0000
0001
,
0000
0000
0000
0100
,
0000
0000
0000
1000
,
0000
0000
0000
0010
,
0000
1000
0000
1000
,
0000
0010
0000
0010
,
0000
0001
0000
0001
,
0000
0100
0000
0100
,
0000
0000
0000
0000
,
0000
0000
0010
0010
,
0000
0000
1000
1000
,
0000
0001
0000
0001
,
0000
0100
0000
0100
,
0000
0000
0010
0010
,
0000
0000
0001
0001
,
0000
1000
0000
1000
,
0000
0100
0000
0100
,
0000
0000
0010
0010
,
0010
0000
0000
0000
,
0000
0000
0000
1000
,
0000
0000
0000
1000
,
0000
0000
0000
0001
,
0000
0000
0000
0001
,
0000
0000
0000
0100
,
0000
0010
0010
0000
,
0000
0000
0000
0001
,
0000
0000
0000
1000
,
0000
0000
0000
0010
,
0000
0000
0000
0100
,
0000
0001
0000
0001
,
0000
1000
0000
1000
,
0000
0010
0000
0010
,
0000
0000
0000
1001
,
0000
0000
0010
0010
,
0000
0000
1000
1000
,
0000
0001
0000
0001
,
0000
0100
0000
0100
,
0000
0000
0010
0010
,
0000
0000
0001
0001
,
0000
1000
0000
1000
,
0000
0100
0000
0100
,
0000
0000
0010
0010
,
0010
0000
0000
0000
,
0000
0000
0001
0001
,
0001
0000
0000
0000
,
0000
0000
0000
0000
;
#NOTES:
     dance-single:
     :
     Easy:
     6:
     :
0000
0000
0000
0000
,
0000
0000
0000
0000
,
0000
0000
0000
0000
,
0000
0000
0000
0000
,
0000
0000
0000
0000
,
0000
0001
0000
0001
,
0000
1000
0000
1000
,
0000
0010
0000
0010
,
0100
0100
0100
0000
,
0002
0010
0000
0013
,
2000
0010
0000
3010
,
0002
0100
0000
0103
,
2100
0100
0100
3100
,
0002
0000
1000
1003
,
0200
0000
0000
0310
,
1000
0100
1000
0100
,
0010
0001
0010
0001
,
0100
0010
0100
0010
,
1000
0001
1000
0001
,
0200
0000
0000
0300
,
0001
0010
0100
1000
,
0100
1000
0002
0003
,
1000
0100
0010
0001
,
0100
0010
2000
3000
,
0001
1000
0010
0100
,
0001
1000
0020
0030
,
1000
0000
0001
0000
,
1000
0001
0200
0300
,
0010
0010
0010
1000
,
0001
0001
0100
0000
,
1000
0000
0001
0100
,
1000
0100
0010
0000
,
0010
0010
0010
0001
,
1000
1000
0100
0000
,
0001
0001
1000
1000
,
0200
0000
0000
0000
0000
0000
0000
0000
0000
0000
0000
0000
0000
0000
0000
0000
0000
0000
0000
0000
0000
0000
0000
0000
0000
0000
0000
0000
0000
0000
0000
0000
0000
0000
0000
0000
0000
0000
0000
0000
0000
0000
0000
0000
0000
0000
0000
0000
0320
0000
0000
0000
0000
0000
0000
0000
0000
0000
0000
0000
0000
0000
0000
0000
0000
0000
0000
0000
0000
0000
0000
0000
0000
0000
0000
0000
0000
0000
0000
0000
0000
0000
0000
0000
0000
0000
0000
0000
0000
0000
0000
0000
0000
0000
0000
0000
0032
0000
0000
0000
0000
0000
0000
0000
0000
0000
0000
0000
0000
0000
0000
0000
0000
0000
0000
0000
0000
0000
0000
0000
0000
0000
0000
0000
0000
0000
0000
0000
0000
0000
0000
0000
0000
0000
0000
0000
0000
0000
0000
0000
0000
0000
0000
0000
0000
0000
0000
0000
0000
0000
0000
0000
0000
0000
0000
0000
0000
0000
0000
0000
0000
0000
0000
0000
0000
0000
0000
0000
0000
0000
0000
0000
0000
0000
0000
0000
0000
0000
0000
0000
0000
0000
0000
0000
0000
0000
0000
0000
0000
0000
0000
0003
,
0000
0000
0000
0000
,
0010
0001
0010
0000
,
0100
1000
0100
0000
,
0010
0010
0100
0100
,
1000
0001
1000
0000
,
0010
1000
0010
0000
,
0100
0001
0100
0000
,
0010
0010
0100
0100
,
0001
1000
0001
0000
,
0020
0000
0100
0130
,
0002
0000
0000
1003
,
0000
0000
0000
0001
,
0000
0000
0000
1000
,
0000
0001
0000
0100
,
0000
0010
0000
1000
,
0000
0001
0000
0001
,
0000
0100
0100
0000
,
0000
0001
0000
0001
,
0000
1000
0000
1000
,
0000
0010
0000
0010
,
0000
0100
0000
0100
,
0002
0010
0000
0013
,
2000
0010
0000
3010
,
0002
0100
0000
0103
,
2000
0100
3100
0000
,
0010
0001
0010
1001
,
0100
1000
0100
1001
,
0010
0010
0100
0100
,
1000
0001
1000
0000
,
0010
1000
0010
1001
,
0100
0001
0100
1001
,
0010
0010
0100
0100
,
0001
1000
0001
0000
,
0020
0000
0100
0130
,
0002
0000
0000
1003
,
0200
0000
0010
0310
,
2000
0000
0000
0000
,
0002
0000
0000
0000
,
0000
0000
0000
3003
,
0000
0000
0000
0000
;
#NOTES:
     dance-single:
     :
     Medium:
     8:
     :
0000
0000
0000
0000
,
0000
0000
0000
0000
,
0000
0000
0000
0000
,
0000
0000
0000
0000
,
0000
0000
0000
0000
,
2000
0010
0000
3010
,
0002
0010
0000
0013
,
2000
0100
0000
3100
,
0001
0100
1100
0000
,
2000
3010
0002
0013
,
2000
3100
0002
0103
,
2000
3010
0002
0013
,
2000
3100
0002
0103
,
0020
0000
0030
0000
1000
0100
0010
0001
,
2000
0000
0000
3000
,
0001
0100
0010
0000
1000
0000
0001
0000
,
1000
0010
0100
0000
0001
0000
1000
0000
,
0001
0000
0000
1000
0000
0000
0010
0000
0000
0000
0100
0000
0010
0000
0000
0000
,
1000
0000
0000
1100
0000
0000
0101
0000
,
0002
0000
0000
0003
,
1000
0010
0100
0001
,
0001
0100
1100
0000
,
0001
0010
0100
1000
,
1100
0110
0101
0000
,
0010
0001
1000
0100
,
0011
1100
0010
0001
,
0001
1000
0010
0100
,
0101
0000
1010
0000
0001
1000
0001
0000
,
2000
0010
0001
3020
,
0230
0001
0010
0302
,
2003
3100
0002
0103
,
0020
1000
0100
1030
,
0001
0000
0010
0000
0100
1000
0001
0000
,
1000
0000
0100
0000
0010
0001
1000
0000
,
0001
1000
0001
0000
1000
0001
1100
0000
,
0020
2030
3200
0000
,
0310
0000
0000
0001
0000
0000
1000
0000
0200
0000
0000
0000
0310
0000
0000
0000
,
0001
0100
0010
0000
1000
0000
0101
0000
,
1000
0100
0010
0000
0001
0000
1100
0000
,
0001
0100
0010
0000
1000
0100
0010
0000
,
0001
0100
0010
0000
1000
0000
1000
0000
,
1000
0010
0100
0000
0001
0000
1010
0000
,
0001
0010
0100
0000
1000
0000
0011
0000
,
1000
0010
0100
0000
0001
0010
0100
0000
,
1000
0010
0100
0000
0001
0000
1000
0000
,
0002
0000
0000
0000
0013
0100
1000
0010
,
0200
0000
0300
1001
,
2000
0010
0000
0010
,
0000
0010
0000
3010
,
0200
0001
0000
0301
,
0020
0100
0000
0130
,
1000
0000
0000
0001
0000
0000
0100
0000
0000
0000
0000
0000
0010
0000
0000
0000
,
1000
0000
0000
0100
0000
0000
0010
0000
0001
0000
0000
0000
0000
0000
0000
0000
,
1000
0000
0010
0000
1000
0100
0010
0000
,
0001
0000
0010
0000
0001
0100
0010
0000
,
1000
0000
0010
0000
1000
0001
0010
0000
,
0011
0110
1100
0010
,
1000
1100
0001
0101
,
0010
1010
0001
0011
,
0100
0010
1000
0000
0100
0010
0001
0000
,
0100
0010
1000
0100
0010
0000
1001
0000
,
0001
0100
0010
0000
1000
0000
0101
0000
,
1000
0100
0010
0000
0001
0000
1100
0000
,
0001
0010
1000
0010
,
0001
0100
0010
0000
1000
0000
0001
0000
,
1000
0010
0100
0000
0001
0000
1010
0000
,
0001
0010
0100
0000
1000
0000
0010
0000
,
1000
0010
0100
0000
0001
0010
0100
0000
,
1000
0010
0100
0000
0001
0000
1010
0000
,
0002
0003
2000
3020
,
0230
0000
0000
0300
,
0002
0003
2000
3200
,
0320
0000
0000
0000
,
0002
0000
0000
0000
,
0000
0000
0000
0033
,
0000
0000
0000
0000
;
#NOTES:
     dance-single:
     :
     Hard:
     11:
     :
0000
0000
0000
0000
,
0000
0000
0000
0000
,
0000
0000
0000
0000
,
0000
0000
0000
0000
,
0000
0000
0000
0000
,
1000
0100
0010
0000
0101
0000
0010
0000
,
0001
0100
0010
0000
1100
0000
0010
0000
,
1000
0001
0100
0000
0010
1000
0100
0000
,
0001
1000
0010
0000
0010
0000
0010
0000
,
0001
0100
0010
0000
1100
0000
0010
0000
,
1000
0100
0010
0000
0101
0000
0010
0000
,
0001
1000
0100
0000
0010
0001
0100
0000
,
0001
0001
1000
0000
,
0200
0000
0300
0000
0001
0010
0100
1000
,
0020
0000
0130
1001
,
1000
0100
0010
0001
0100
0000
1010
0000
,
0001
0010
0100
1000
0100
0000
1000
0000
,
1000
0000
0000
0100
0000
0000
0010
0000
0000
0001
0000
0000
0110
0000
0000
0000
,
0001
0000
0000
0010
0000
0000
1000
0000
0100
0000
1000
0000
0100
0000
0000
0000
,
0200
0010
0010
0310
,
0001
0010
0100
1000
0100
1000
0001
0000
,
0011
0110
2100
3001
,
1000
0100
0010
0001
0010
0001
1000
0000
,
1100
0000
0110
0000
0010
1000
0001
1000
,
0010
1000
0100
0010
0001
0010
0100
0000
,
1100
0110
0021
0130
,
1000
0100
1000
0001
0100
0001
0010
0000
,
0011
0110
2100
3010
,
1000
0100
0010
0000
0001
0100
0010
0000
,
1000
0100
1000
0000
0001
0000
1100
0000
,
1000
0001
0010
0000
0001
0100
0010
0000
,
1100
0110
0011
0110
,
0001
0100
0010
0000
1000
0100
0010
0000
,
0001
0100
0001
0000
1000
0000
0101
0000
,
0001
1000
0010
0100
0001
0100
0010
0000
,
0101
0110
1010
0000
,
1000
0000
0000
0001
0100
0000
0010
0000
2000
0000
0000
0000
3001
0000
0010
0000
,
0100
1000
0100
0010
0002
0000
0103
0000
,
1000
0100
1000
0001
0200
0000
0310
0000
,
0010
1000
0001
0010
0100
0010
0001
0100
,
0010
1000
0001
0010
0001
0000
1001
0000
,
0100
0001
0100
0010
2000
0000
3100
0000
,
0001
0100
0001
1000
0200
0000
0310
0000
,
0010
0001
1000
0010
0100
0010
1000
0100
,
0010
0001
1000
0010
0100
0001
0010
0001
,
2000
0000
3200
0000
0310
0001
0010
0100
,
2000
0000
3001
0110
,
2000
3100
0002
0103
,
2000
3100
0002
0103
,
2000
3200
0320
0031
,
0002
0203
0320
1030
,
2000
0000
0000
3001
0000
0000
0100
0000
0020
0000
0000
0000
1030
0000
0000
0000
,
0200
0000
0000
0310
0000
0000
0002
0000
2000
0000
0000
0000
3003
0000
0000
0000
,
0100
1000
0100
0010
0002
0000
0103
0000
,
1000
0100
1000
0001
0200
0000
0310
0000
,
0010
1000
0001
0010
0100
0010
0001
0100
,
0010
1000
0001
0010
0001
0000
1001
0000
,
0100
0011
2000
3100
,
0001
0100
0001
0000
0200
0000
0310
0000
,
0010
0000
0000
0000
1000
0000
0100
0010
0000
0000
0100
0000
1000
0000
0100
0000
,
0010
0001
1000
0010
0000
0000
1001
0000
,
0100
1000
0100
0010
0002
0000
0103
0000
,
1000
0100
1000
0001
0200
0000
0310
0000
,
0010
1000
0001
0010
0100
0010
0001
0100
,
0010
1000
0001
0010
0001
0000
1001
0000
,
0100
0001
0100
0010
2000
0000
3100
0000
,
0001
0100
0001
1000
0200
0000
0310
0000
,
0010
0001
1000
0010
0100
0010
1000
0100
,
0010
0001
1000
0010
0100
0001
0010
0001
,
2000
0000
3200
0000
0310
0001
0010
0100
,
2000
0000
3001
0110
,
0020
0000
0032
0000
0103
1000
0100
0010
,
2000
0100
0001
3010
,
0200
0000
0000
0000
,
0000
0000
0000
0300
,
0000
0000
0000
0000
;
#NOTES:
     dance-single:
     :
     Challenge:
     13:
     :
0000
0000
0000
0000
,
0000
0000
0000
0000
,
0000
0000
0000
0000
,
0000
0000
0000
0000
,
0000
0000
0000
0000
0000
0000
0001
1000
,
0100
0000
0000
0000
0010
0000
0001
0010
0000
0000
0000
0000
1000
0000
0001
0000
,
0100
0000
0000
0000
0010
0000
1000
0010
0000
0000
0000
0000
0100
0000
0001
0000
,
0010
0000
0000
0000
0100
0000
1000
0001
0000
0000
0100
0000
0010
0000
1000
0000
,
0010
0000
0100
0000
0001
0000
0100
0010
0000
0000
0000
0000
1000
0000
0001
0000
,
0010
0000
0000
0000
0100
0000
1000
0100
0000
0000
0000
0000
0001
0000
1000
0000
,
0010
0000
0000
0000
0100
0000
0001
0100
0000
0000
0000
0000
0010
0000
1000
0000
,
0100
0000
0010
0000
0001
0000
1000
0100
0000
0000
0010
0000
0001
0000
0010
0000
,
0100
0000
1000
0000
0010
0000
0100
0001
0000
0000
0100
0000
0010
0000
1000
0000
,
1001
0000
0000
0000
0110
0001
0010
0100
,
2002
0000
0000
3003
,
1000
0100
1000
0000
0001
0000
0100
0000
0010
0000
1000
0000
0100
0000
0010
0000
,
0001
0010
0100
0000
1000
0000
0010
0000
0100
0000
0001
0000
0100
0000
0010
0000
,
1000
0000
0000
1000
0000
0000
1000
0000
0000
0010
0100
0010
0100
0000
0001
0000
,
1000
0000
0000
0001
0000
0000
1000
0000
0000
0100
0010
0100
0010
0000
0000
0000
,
2002
0000
0000
3003
,
1000
0000
0001
0010
0001
0000
0010
0000
0100
0000
1000
0100
1000
0000
0100
0000
,
0020
0000
0001
0000
1000
0000
0031
0100
,
0010
0000
1000
0000
0100
0000
0001
0000
0100
0000
1000
0001
0100
0000
0010
0000
,
0011
0000
0110
0000
1010
1000
0010
0100
,
0001
0000
0100
1000
0100
0000
0001
0000
0010
0000
1000
0010
1000
0000
0010
0000
,
0200
0000
0001
0000
1000
0000
0310
0001
,
1000
0000
0000
0000
0110
0000
0000
0000
1001
0000
0010
0100
0010
0000
0100
0000
,
2002
0000
0000
3003
,
0001
0000
0100
0000
1000
0000
0100
0000
0001
0000
0100
0010
1000
0000
0010
0000
,
0100
0000
0001
0000
0100
0000
1000
0000
0100
0000
0001
0100
0010
0000
1000
0000
,
0010
0001
0010
1000
0100
0001
0100
1000
,
0100
0000
0010
0000
0100
0000
0010
0000
0001
1000
0001
1000
0001
0000
1000
0001
,
1000
0000
0100
0000
0001
0000
0100
0000
1000
0000
0100
0010
0001
0000
0010
0000
,
0001
0000
0100
0000
1000
0000
0100
0000
0001
0100
0001
0100
0010
0000
1000
0000
,
0010
0100
0010
0100
0001
1000
0001
1000
,
1100
0000
0000
0110
0000
0000
0011
0000
0001
1000
0000
0000
0001
0000
0100
0000
,
0110
0000
0000
0110
0000
0000
1001
0000
1001
0000
0000
0000
0001
0000
0100
0000
,
0010
0000
1000
0000
0001
0000
0100
0010
0000
0000
1000
0000
0001
0000
0010
0000
,
0100
0000
1000
0000
0100
0000
0010
0001
0000
0000
0010
0000
0100
0000
1000
0000
,
0001
0000
0100
0000
0010
0000
1000
0010
0000
0100
0001
0000
1000
0000
0001
0000
,
0010
0000
0100
0000
1000
0000
0100
0010
0000
0000
0000
0000
0001
0000
1000
0000
,
0001
0000
0100
0000
0010
0000
1000
0001
0000
0000
0010
0000
0100
0000
1000
0000
,
0001
0000
1000
0000
0010
0000
0100
0001
0000
0000
1000
0000
0001
0000
0010
0000
,
0100
0000
1000
0000
0100
0000
0010
0001
0000
1000
0100
0000
0001
0000
0100
0000
,
0010
0000
0001
0000
0010
0000
0100
1000
0000
0000
0001
0000
0100
0000
0010
0000
,
1001
0000
0000
0000
0110
0001
1000
0010
,
0110
0000
0000
0000
0000
0000
0000
0000
1000
0001
1000
0001
1000
0000
0001
1000
,
0002
0000
0000
0000
,
0000
0000
0000
0000
,
2000
0000
0000
0003
,
0020
0000
0000
3000
,
0230
0000
0000
0001
0000
0000
1000
0000
0020
0000
0000
0000
0330
0000
0000
0000
,
2002
0000
3003
0000
,
1000
0100
1000
0100
1000
0100
1000
1000
,
0100
0010
0100
0010
0100
0010
0100
0100
,
0010
0001
0010
0001
1000
0100
0010
0001
,
0100
0010
0100
0010
1000
0000
0001
0000
0010
0100
0010
0100
1000
0000
0001
0000
,
0000
0101
0000
1010
,
0000
0110
0000
1001
,
0001
0000
0010
0000
0100
0000
1000
0001
0000
0000
1000
0000
0001
0000
0100
0000
,
0010
0000
1000
0000
0001
0000
1000
0001
0000
0000
0000
0000
1000
0000
0010
0000
,
0100
0000
0001
0000
1000
0000
0010
0100
0000
0000
0001
0000
1000
0000
0100
0000
,
0010
0000
0001
0000
0010
0000
0100
1000
0000
0000
0100
0000
0010
0000
0001
0000
,
1000
0000
0010
0000
0100
0000
0001
0100
0000
0010
1000
0000
0001
0000
1000
0000
,
0100
0000
0010
0000
0001
0000
0010
0100
0000
0000
0000
0000
1000
0000
0001
0000
,
1000
0000
0010
0000
0100
0000
0001
1000
0000
0000
0100
0000
0010
0000
0001
0000
,
1000
0000
0001
0000
0100
0000
0010
1000
0000
0000
0001
0000
1000
0000
0100
0000
,
0010
0000
0001
0000
0010
0000
0100
1000
0000
0001
0010
0000
1000
0000
0010
0000
,
0100
0000
1000
0000
0100
0000
0010
0001
0000
0000
1000
0000
0010
0000
0100
0000
,
1001
0000
0000
0000
0110
1000
0001
0100
,
0110
0000
1010
0000
1001
0001
0010
0100
,
1100
0000
0000
0000
0000
0000
0000
0000
0001
0000
1000
0001
1000
0000
0001
0000
,
2002
0000
0000
0000
,
0000
0000
0000
0000
,
0000
0000
0000
3003
,
0000
0000
0000
0000
;
#NOTES:
     dance-double:
     :
     Easy:
     6:
     :
00000000
00000000
00000000
00000000
,
00000000
00000000
00000000
00000000
,
00000000
00000000
00000000
00000000
,
00000000
00000000
00000000
00000000
,
00000000
00000000
00000000
00000000
,
00000000
00010000
00000000
00010000
,
00000000
00001000
00000000
00001000
,
00000000
00000010
00000000
00000001
,
00000000
00000100
00000000
00001000
,
00020000
00130000
00000000
10000000
,
02000000
03100000
00000000
00010000
,
01000000
00100000
00010000
00001000
,
00000010
00000001
00000100
00000000
,
00000020
00000030
00000100
00001000
,
00020000
00000000
00000000
00030000
,
01000000
10000000
01000000
10000000
,
00100000
00010000
00001000
00000010
,
00000001
00001000
00000001
00001000
,
00000001
00000000
00001000
00000000
,
00200000
00000000
00000000
00300000
,
10000000
01000000
00010000
00001000
,
00000100
00000001
00000110
00000000
,
00000001
00000100
00001000
00000100
,
00001000
00010000
01100000
00000000
,
00010000
00100000
01000000
00010000
,
00001000
00000100
00001001
00000000
,
00001000
00000010
00000100
00001000
,
00010000
01000000
10010000
00000000
,
10000000
10000000
01000000
01000000
,
00100000
00100000
00001000
00001000
,
00010000
00001000
00000100
00000010
,
00001000
00000100
00001000
00000100
,
00000001
00000001
00000100
00000100
,
00000010
00000010
00010000
00010000
,
00001000
00010000
01000000
00100000
,
00010000
00001000
00010000
00002000
,
00010000
00000000
00000000
00013000
,
00100000
10000000
01000000
10010000
,
01000000
00100000
00001000
00010000
,
00000010
00000010
00001000
00000001
,
00000010
00000001
00001001
00000000
,
00000010
00000001
00000100
00001001
,
00000100
00000010
00010000
00001000
,
00100000
00100000
10000000
00010000
,
00100000
00010000
10000000
00000000
,
02000000
00000000
10000000
13000000
,
00020000
00000000
00030000
01100000
,
00000000
00000000
00000000
10000000
,
00000000
00000000
00000000
01000000
,
00000000
00010000
00000000
00010000
,
00000000
00001000
00000000
00001000
,
00000000
00000100
00000000
00000001
,
00000010
00001000
00010000
00000000
,
00000000
00100000
00000000
10000000
,
00000000
00010000
00000000
01000000
,
00000000
00100000
00000000
00010000
,
00000000
00001000
00000000
00000010
,
00000002
00000100
00000000
00000103
,
00000020
00001000
00000000
00001030
,
00000110
00000000
00011000
00000000
,
00010000
00001000
00010000
00000000
,
00100000
10000000
01000000
10010000
,
01000000
00100000
00001000
00010000
,
00000010
00000010
00000001
00000001
,
00000010
00001000
00000100
00000000
,
00000010
00000001
00000100
00001001
,
00000100
00000010
00010000
00001000
,
00100000
00100000
10000000
10000000
,
00100000
00010000
10000000
00010000
,
02000000
00000000
00100000
03100000
,
00020000
00000000
00031000
00000100
,
00000020
00000000
00000031
00000100
,
00000020
00000000
00000000
00000000
,
00002000
00000000
00000000
00000000
,
00000000
00000000
00000000
00003030
,
00000000
00000000
00000000
00000000
;
#NOTES:
     dance-double:
     :
     Medium:
     10:
     :
00000000
00000000
00000000
00000000
,
00000000
00000000
00000000
00000000
,
00000000
00000000
00000000
00000000
,
00000000
00000000
00000000
00000000
,
00000000
00000000
00000000
00000000
,
00000020
00000001
00000000
00000031
,
00000200
00001000
00000000
00001300
,
00020000
01000000
00000000
01030000
,
20000000
00100000
00000000
30100000
,
00020000
00031000
00000020
00000130
,
00002000
00003100
00000020
00001030
,
00020000
00130000
20000000
31000000
,
00200000
00310000
02000000
03100000
,
00020000
00000000
00030000
00000000
00001000
00000010
00000001
00000100
,
00000020
00000000
00000000
00000030
,
00001000
00000010
00000100
00000000
00001000
00000000
00010000
00000000
,
00001000
00000000
00010000
00000000
01000000
00000000
00010000
00001000
,
00010000
00000000
00000000
00001000
00000000
00000000
00010000
00000000
00000000
00000000
00001000
00000000
00000100
00000000
00000000
00000000
,
00000001
00000000
00000000
00001000
00000000
00000000
00000011
00000000
,
00000020
00000000
00000000
00000030
,
00000001
00000010
00000001
00000010
,
00001100
00011000
00110000
00000000
,
10000000
01000000
10000000
01000000
,
00100000
00000000
00001000
00000000
00010000
00001000
00010000
00001000
,
00000010
00000001
00000100
00000010
,
00001010
00011000
01010000
00000000
,
01000000
00001000
00010000
00001000
,
00011000
00001100
00000110
00000000
,
00000002
00000010
00001000
00000023
,
00000230
00001000
00000010
00002300
,
00003020
00000130
00002000
00013000
,
02000000
10000000
00100000
13000000
,
00010000
00000000
00100000
00000000
01000000
00010000
00001000
00000000
,
00000100
00000000
00000001
00000000
00000010
00000001
00000100
00000000
,
00001000
00010000
00001000
00000000
00010000
00100000
01000000
00000000
,
00020000
00230000
02300000
00000000
,
13000000
00000000
00000000
00100000
00000000
00000000
00010000
00000000
00002000
00000000
00000000
00000000
00003000
00000000
00000000
00000000
,
00000010
00000001
00000100
00000000
00000010
00000000
00000100
00000000
,
00000010
00001000
00000100
00000000
00000010
00000000
00000101
00000000
,
00000100
00001000
00010000
00000000
01000000
10000000
00010000
00000000
,
00100000
00001000
00010000
00001000
00010000
00000000
00001000
00000100
,
00000010
00001000
00000100
00000000
00000010
00000000
00000001
00000000
,
00000010
00000001
00000100
00000000
00000010
00000000
00001001
00000000
,
00000100
00001000
00010000
00100000
01000000
00010000
00100000
10000000
,
00100000
01000000
10000000
00000000
01000000
00010000
00001000
00000000
,
00000020
00000000
00000000
00000000
00000031
00000100
00001000
00010000
,
00002000
00000000
00003000
00011000
,
00020000
00001000
00000000
00031000
,
00002000
00010000
00000000
00013000
,
00200000
10000000
00000000
10300000
,
02000000
00100000
00000000
03100000
,
00010000
00000000
00000000
01000000
00000000
00000000
00100000
00000000
00000000
00000000
00000000
00000000
00010000
00000000
00000000
00000000
,
00001000
00000000
00000000
00000010
00000000
00000000
00000001
00000000
00000100
00000000
00000000
00000000
00000000
00000000
00000000
00000000
,
00000010
00000001
00000100
00000000
00000010
00000000
00000000
00000000
,
00000010
00001000
00000100
00000000
00000010
00000000
00000000
00000000
,
00000001
00000100
00001000
00010000
,
00100000
01000000
00010000
01000000
00001000
00000000
00010000
00001000
,
00010000
00001000
00000100
00000000
00000000
00000000
00000001
00000000
,
00000010
00000001
00000100
00000000
00000000
00000000
00000010
00000000
,
00000100
00001000
00010000
00100000
01000000
00010000
00100000
10000000
,
00100000
01000000
10000000
00000000
01000000
00010000
00001000
00000000
,
00000020
00000000
00000000
00000000
00000031
00000100
00001000
00010000
,
00000010
00001000
00000100
00000000
00000010
00000000
00001001
00000000
,
00000100
00001000
00010000
00000000
01000000
10000000
00010000
00000000
,
00100000
01000000
00010000
00000000
00001000
00000000
00011000
00000000
,
00000010
00000001
00000100
00000000
00000010
00000000
00001001
00000000
,
00000010
00001000
00000100
00000000
00000010
00000000
00001001
00000000
,
00000100
00001000
00010000
00000000
01000000
10000000
00010000
00000000
,
00100000
01000000
00010000
00000000
00001000
00000000
00011000
00000000
,
00020000
00030000
00001000
00000010
,
00000002
00000000
00000000
00000003
,
00000200
00000300
00001000
00010000
,
02000000
00000000
00000000
00000000
,
20000000
00000000
00000000
00000000
,
00000000
00000000
00000000
33000000
,
00000000
00000000
00000000
00000000
;
#NOTES:
     dance-double:
     :
     Hard:
     12:
     :
00000000
00000000
00000000
00000000
,
00000000
00000000
00000000
00000000
,
00000000
00000000
00000000
00000000
,
00000000
00000000
00000000
00000000
,
00000000
00000000
00000000
00000000
,
00100000
10000000
01000000
00000000
00100000
00000000
01000000
00000000
,
00010000
00001000
00000100
00000000
00000010
00000000
00000100
00000000
,
00000010
00001000
00000001
00000000
00000010
00000001
00000010
00000000
,
00000100
00010000
00000100
00010000
00001000
00000000
00001000
00000000
,
00000010
00000001
00000100
00000000
00000010
00000000
00000100
00000000
,
00001000
00010000
01000000
00000000
00100000
00000000
01000000
00000000
,
00100000
00010000
10000000
00000000
00100000
10000000
00100000
00000000
,
01000000
00001000
01000000
00001000
00010000
00000000
01000000
00000000
,
00200000
00000000
01300000
00000000
10000000
00100000
01000000
00001000
,
00020000
00000000
00000000
00031000
,
00000010
00000001
00000100
00000010
00001000
00000000
00001000
00000000
,
00000010
00001000
00000001
00000100
00001000
00000000
00010000
00000000
,
00100000
00000000
00000000
11000000
00000000
00000000
00110000
00000000
00000000
10000000
00000000
00000000
01000000
00000000
00000000
00000000
,
00100000
00010000
10000000
01000000
00010000
00000000
00001000
00000000
,
00000020
00000001
00000001
00000031
,
00000100
00000010
00001000
00000001
00000100
00001000
00010000
00000000
,
00110000
10100000
12000000
03100000
,
00010000
00100000
01000000
10000000
00100000
00010000
00001000
00000000
,
00001100
00000101
00000021
00000130
,
00001000
00000010
00000100
00000001
00000010
00001000
00010000
00000000
,
00110000
11000000
10200000
01300000
,
00010000
01000000
00100000
10000000
01000000
00010000
00001000
00000000
,
00001010
00000011
00000201
00000310
,
00001000
00000100
00000010
00000000
00000001
00000100
00001000
00000000
,
00010000
00100000
10000000
00000000
11000000
00000000
01010000
00000000
,
10000000
01000000
00010000
00000000
00001000
00000100
00000001
00000000
,
00000001
00000100
00000001
00001000
00000100
00001000
00000001
00000000
,
00001000
00000100
00000010
00000000
00000001
00000100
00001000
00000000
,
00010000
00100000
10000000
00000000
00100000
01000000
00010000
00000000
,
00100000
01000000
10000000
01000000
00010000
00001000
00000100
00000010
,
00000001
00000010
00001000
00000000
00000001
00000000
00000001
00000000
,
00000010
00000000
00000000
00000001
00000100
00000000
00001000
00000000
00020000
00000000
00000000
00000000
00130000
00000000
10000000
00000000
,
01000000
10000000
01000000
00100000
00020000
00000000
01030000
00100000
,
10000000
01000000
00010000
00001000
00000200
00000000
00000301
00000010
,
00000100
00000000
00001000
00000000
00000001
00000000
00001000
00000100
00000010
00000000
00000001
00000000
00000100
00000000
00001000
00000000
,
00010000
00001000
00010000
00100000
20000000
00000000
30010000
10000000
,
01000000
10000000
01000000
00100000
00020000
00000000
01030000
00100000
,
10000000
01000000
00010000
00001000
00000200
00000000
00000301
00000010
,
00000100
00000000
00001000
00000000
00000001
00000000
00001000
00000100
00000010
00000000
00000001
00000000
00000100
00000000
00001000
00000000
,
00010000
00001000
00010000
00100000
10000000
00010000
10000000
01000000
,
00020000
00000000
00032000
00000000
00003010
00000001
00000100
00000010
,
00002000
00000000
00003001
00000110
,
00000002
00000103
00002000
00013000
,
00020000
00130000
20000000
31000000
,
02000000
03200000
00320000
10030000
,
20000000
30020000
02030000
03100000
,
00200000
00000000
00000000
00310000
00000000
00000000
00001000
00000000
00000020
00000000
00000000
00000000
00000031
00000000
00000000
00000000
,
00000200
00000000
00000000
00001300
00000000
00000000
00020000
00000000
00002000
00000000
00000000
00000000
00033000
00000000
00000000
00000000
,
00100000
10000000
01000000
00000000
00100000
00000000
01000000
00000000
,
00010000
00001000
00000100
00000000
00000010
00000000
00000100
00000000
,
00000010
00001000
00000001
00000000
00000010
00000000
00000011
00000000
,
00000100
00001000
00000100
00010000
00001000
00010000
00100000
00000000
,
01000000
00000000
10010000
00000000
01000000
00100000
00010000
00000000
,
01000000
00000000
01010000
00000000
00001000
00010000
00001000
00000000
,
00000010
00000000
00000000
00000000
00000001
00000000
00000100
00000010
00000000
00000000
00000100
00000000
00000001
00000000
00000100
00000000
,
00000010
00001000
00000100
00010000
00000000
00000000
00001000
00010000
,
01000000
10000000
01000000
00100000
00020000
00000000
01030000
00100000
,
10000000
01000000
00010000
00001000
00000200
00000000
00000301
00000010
,
00000100
00000000
00001000
00000000
00000001
00000000
00001000
00000100
00000010
00000000
00000001
00000000
00000100
00000000
00001000
00000000
,
00010000
00001000
00010000
00100000
20000000
00000000
30010000
10000000
,
01000000
10000000
01000000
00100000
00020000
00000000
01030000
00100000
,
10000000
01000000
00010000
00001000
00000200
00000000
00000301
00000010
,
00000100
00000000
00001000
00000000
00000001
00000000
00001000
00000100
00000010
00000000
00000001
00000000
00000100
00000000
00001000
00000000
,
00010000
00001000
00010000
00100000
10000000
00010000
10000000
01000000
,
00020000
00000000
00032000
00000000
00003010
00000001
00000100
00000010
,
00020000
00000000
00031000
00011000
,
00020000
00000000
00032000
00000000
00003100
00000001
00000100
00000010
,
00002000
00000100
00000001
00000010
,
00020000
00000000
00000000
00000000
,
00000000
00000000
00000000
00033000
,
00000000
00000000
00000000
00000000
;
#NOTES:
     dance-double:
     :
     Challenge:
     14:
     :
00000000
00000000
00000000
00000000
,
00000000
00000000
00000000
00000000
,
00000000
00000000
00000000
00000000
,
00000000
00000000
00000000
00000000
,
00000000
00000000
00000000
00000000
00000000
00000000
00000001
00001000
,
00001100
00000000
00000000
00000000
00010000
00000000
00001000
00010000
00000000
00000000
00000000
00000000
10000000
00000000
00010000
00000000
,
01010000
00000000
00000000
00000000
00001000
00000000
00010000
00001000
00000000
00000000
00000000
00000000
00000010
00000000
00000001
00000000
,
00000100
00000000
00000000
00000000
00000001
00000000
00000010
00001000
00000000
00000000
00010000
00000000
00100000
00000000
10000000
00000000
,
01000000
00000000
00010000
00000000
00001000
00000000
00010000
00100000
00000000
00000000
00000000
00000000
10000000
00000000
00010000
00000000
,
00110000
00000000
00000000
00000000
00001000
00000000
00010000
00001000
00000000
00000000
00000000
00000000
00000001
00000000
00001000
00000000
,
00001010
00000000
00000000
00000000
00010000
00000000
00001000
00010000
00000000
00000000
00000000
00000000
00100000
00000000
10000000
00000000
,
01000000
00000000
00100000
00000000
00010000
00000000
00001000
00000100
00000000
00000000
00000010
00000000
00000001
00000000
00000100
00000000
,
00000001
00000000
00000010
00000000
00001000
00000000
00010000
00100000
00000000
00000000
10000000
00000000
00010000
00000000
00100000
00000000
,
01000000
00000000
00000000
00000000
00000000
00000000
00000000
00000000
00010000
00001000
00010000
00000000
00001000
00000010
00001000
00000000
,
00000022
00000000
00000000
00000033
,
00001000
00000100
00000010
00000000
00000001
00000000
00000100
00000000
00000010
00000000
00001000
00000000
00000001
00000000
00000100
00000000
,
00001000
00010000
00100000
00000000
10000000
00000000
00010000
00000000
01000000
00000000
00100000
00000000
00010000
00000000
00001000
00000000
,
00010000
00000000
00000000
00100000
00000000
00000000
10000000
00000000
00000000
01000000
00100000
01000000
00100000
00000000
00001000
00000000
,
00010000
00000000
00000000
00001000
00000000
00000000
00000100
00000000
00000000
00000010
00001000
00000001
00000100
00000000
00000000
00000000
,
00002002
00000000
00000000
00003003
,
00001000
00000000
00000001
00000010
00000001
00000000
00000100
00000000
00001000
00000000
00010000
00001000
00010000
00000000
00100000
00000000
,
10200000
00000000
01000000
00000000
00310000
00100000
10000000
00010000
,
10000000
01000000
10000000
00000000
01000000
00000000
00010000
00000000
00001000
00010000
00001000
00000000
00000010
00000000
00000001
00000000
,
00002001
00000000
00000000
00000000
00000010
00000000
00000000
00000000
00013000
00000000
00001000
00000010
00000100
00000000
00000010
00000000
,
00000001
00000000
00000010
00001000
00000010
00000000
00000100
00000000
00000001
00000000
00000100
00001000
00000100
00000000
00001000
00000000
,
00012000
00000000
00000100
00000000
00013000
00100000
10000000
00010000
,
10000000
01000000
00000000
00000000
01000000
00010000
00000000
00000000
00011000
00000000
00000010
00000100
00000010
00000000
00000001
00000000
,
00000022
00000000
00000000
00000033
,
00000001
00000000
00000100
00000000
00001000
00000000
00000100
00000001
00000100
00000000
00000010
00000000
00001000
00000000
00010000
00001000
,
00010000
00000000
01000000
00000000
10000000
00000000
01000000
00010000
01000000
00000000
00100000
00000000
10000000
00000000
00010000
00000000
,
10000000
00000000
01000000
00000000
01000000
00000000
00010000
00000000
00010000
00000000
00001000
00010000
00001000
00000000
00001000
00000000
,
00000100
00000000
00000001
00000000
00000100
00000000
00000010
00000000
00001000
00000001
00001000
00000001
00001000
00000000
00000001
00001000
,
00000001
00000000
00000010
00000000
00001000
00000000
00000010
00000001
00000010
00000000
00001000
00000000
00010000
00000000
00001000
00010000
,
00001000
00000000
00100000
00000000
00010000
00000000
00100000
10000000
00100000
00000000
01000000
00000000
10000000
00000000
01000000
00000000
,
00100000
00010000
00001000
00000100
00000010
00000001
00000100
00001000
,
00010000
00000000
00000000
00001000
00000000
00000000
00000010
00000000
00000100
00001000
00000000
00000000
00000001
00000000
00000100
00000000
,
00000110
00000000
00000000
00000110
00000000
00000000
00001001
00000000
00001001
00000000
00000000
00000000
00000001
00000000
00000100
00000000
,
00000010
00000000
00001000
00000000
00000001
00000000
00000010
00000100
00000000
00001000
00000001
00000000
00000100
00000000
00001000
00000000
,
00010000
00000000
00100000
00000000
10000000
00000000
00100000
01000000
00000000
00010000
10000000
00000000
01000000
00000000
00100000
00000000
,
00001000
00000000
00010000
00000000
01000000
00000000
10000000
01000000
00000000
00100000
00010000
00000000
00001000
00000000
00010000
00000000
,
00000010
00000000
00001000
00000000
00010000
00000000
00001000
00000100
00000000
00000000
00000000
00000000
00000001
00000000
00001000
00000000
,
00000010
00000000
00000100
00000000
00000001
00000000
00000010
00000100
00000000
00000001
00000100
00000000
00010000
00000000
00001000
00000000
,
00010000
00000000
00100000
00000000
01000000
00000000
00001000
00010000
00000000
00100000
10000000
00000000
00010000
00000000
00100000
00000000
,
01000000
00000000
00010000
00000000
00001000
00000000
00100000
00010000
00000000
00001000
00000100
00000000
00000010
00000000
00000001
00000000
,
00000010
00000000
00001000
00000000
00000001
00000100
00001000
00000100
00000000
00000000
00000010
00000000
00000100
00000000
00000010
00000000
,
00002002
00000000
00000000
00000000
00003003
00000000
00000000
00000000
00000001
00000100
00000001
00000000
00000100
00001000
00000100
00000000
,
00011000
00000000
00000000
00000000
00000000
00000000
00000000
00000000
00001000
00010000
00001000
00010000
00001000
00000000
00010000
00001000
,
00020000
00000000
00000000
00000000
,
00000000
00000000
00000000
00000000
,
00002000
00000000
00000000
00030000
,
00200000
00000000
00000000
00003000
,
02000000
00300000
20000000
03000000
,
00020000
00000000
30030000
00000000
,
00010000
00000000
10000000
00000000
01000000
00000000
00100000
00010000
00000000
00100000
00010000
00000000
00001000
00000000
00000100
00000000
,
00000010
00000000
00000001
00000000
00001000
00000000
00000010
00000100
00000000
00000010
00000100
00000000
00000001
00000000
00000100
00000000
,
00001000
00010000
00001000
00010000
00100000
01000000
00100000
01000000
,
00100000
00010000
00100000
00000000
00010000
00001000
00010000
00000000
00000100
00001000
00000100
00000000
00000010
00000001
00000010
00000000
,
00000000
00000011
00000000
00001010
,
00000000
00011000
00000000
00110000
,
10000000
00000000
00100000
00000000
01000000
00000000
00100000
00010000
00000000
00001000
00000000
00010000
00100000
00000000
01000000
00000000
,
00010000
00000000
10000000
00000000
01000000
00000000
00100000
00010000
00000000
00000000
00000000
00000000
10000000
00000000
00100000
00000000
,
01000000
00000000
00010000
00000000
10000000
00000000
01000000
00100000
00000000
00010000
10000000
00000000
00100000
00000000
00010000
00000000
,
00001000
00000000
00000100
00000000
00000001
00000000
00000100
00000010
00000000
00001000
00000001
00000000
00000010
00000000
00000100
00000000
,
00010000
00000000
00001000
00000000
00000010
00000000
00000001
00000010
00000000
00000100
00001000
00000000
00010000
00000000
00001000
00000000
,
01000000
00000000
00010000
00000000
00001000
00000000
00010000
00100000
00000000
00000000
00000000
00000000
10000000
00000000
00010000
00000000
,
01000000
00000000
00100000
00000000
10000000
00000000
01000000
00100000
00000000
10000000
00100000
00000000
00001000
00000000
00010000
00000000
,
00001000
00000000
00000100
00000000
00000010
00000000
00010000
00001000
00000000
00000100
00000001
00000000
00001000
00000000
00000100
00000000
,
00000010
00000000
00001000
00000000
00010000
00000000
00000100
00001000
00000000
00010000
00100000
00000000
01000000
00000000
10000000
00000000
,
01000000
00000000
00010000
00000000
10000000
00100000
00010000
00100000
00000000
00000000
01000000
00000000
00100000
00000000
01000000
00000000
,
20020000
00000000
00000000
00000000
30030000
00000000
00000000
00000000
10000000
00100000
10000000
00000000
00100000
00010000
00100000
00000000
,
00011000
00000000
00000000
00000000
00000000
00000010
00000001
00000010
,
00000110
00000000
00000000
00000000
00000000
00000000
00000000
00000000
00001000
00000000
00000100
00010000
00001000
00000000
00100000
00002000
,
00020000
00000000
00000000
00000000
,
00000000
00000000
00000000
00000000
,
00000000
00000000
00000000
00033000
,
00000000
00000000
00000000
00000000
;
