
//----- song ID: nofn -----//
#TITLE:ナイト・オブ・ナイツ;
#ARTIST:ビートまりお(COOL&CREATE);
#TITLETRANSLIT:Night of knights;
#ARTISTTRANSLIT:beatMARIO (COOL&CREATE);
#BANNER:Night of knights.png;
#BACKGROUND:Night of knights-bg.png;
#CDTITLE:./CDTitles/SOUND VOLTEX BOOTH.png;
#MUSIC:Night of knights.ogg;
#SAMPLESTART:33.333;
#SAMPLELENGTH:15;
#BPMS:0=180;
#NOTES:
     dance-single:
     :
     Beginner:
     3:
     :
0000
0000
0000
0000
,
0000
0000
0000
0000
,
0000
0000
0000
0000
,
0000
0000
0000
0000
,
0000
0000
0000
0000
,
0100
0000
0000
0000
,
0000
0000
0000
0000
,
0001
0000
0000
0000
,
0000
0000
0000
0000
,
0010
0000
0000
0000
,
0000
0000
0000
0000
,
0001
0000
0000
0000
,
0000
0000
0000
0000
,
0100
0000
0000
0000
,
0000
0000
0000
0000
,
1000
0000
0000
0000
,
0000
0000
0000
0000
,
0010
0000
0000
0000
,
0010
0000
0000
0000
,
0001
0000
0000
0000
,
0001
0000
0000
0000
,
0100
0000
0000
0000
,
0100
0000
0000
0000
,
1000
0000
0000
0000
,
1000
0000
0000
0000
,
0010
0000
0000
0000
,
0010
0000
0000
0000
,
1000
0000
0000
0000
,
1000
0000
0000
0000
,
0100
0000
0000
0000
,
0100
0000
0000
0000
,
0001
0000
0000
0000
,
0001
0000
0000
0000
,
0100
0000
0000
0000
,
0001
0000
0000
0000
,
0100
0000
0000
0000
,
0010
0000
0000
0000
,
0100
0000
0000
0000
,
1000
0000
0000
0000
,
0100
0000
0000
0000
,
0010
0000
0000
0000
,
0100
0000
0000
0000
,
1000
0000
0000
0000
,
0100
0000
0000
0000
,
0010
0000
0000
0000
,
0100
0000
0000
0000
,
0001
0000
0000
0000
,
0100
0000
0000
0000
,
0010
0000
0000
0000
,
0001
0000
0000
0000
,
0001
0000
0000
0000
,
0100
0000
0000
0000
,
0100
0000
0000
0000
,
0010
0000
0000
0000
,
0010
0000
0000
0000
,
1000
0000
1000
0000
,
0001
0000
0001
0000
,
1000
0000
0000
0000
,
1000
0000
0000
0000
,
0100
0000
0000
0000
,
0100
0000
0000
0000
,
0010
0000
0000
0000
,
0010
0000
0000
0000
,
0001
0000
0001
0000
,
1000
0000
1000
0000
,
0010
0000
0000
0000
,
0010
0000
0000
0000
,
0001
0000
0000
0000
,
0001
0000
0000
0000
,
0100
0000
0000
0000
,
0100
0000
0000
0000
,
1000
0000
1000
0000
,
0001
0000
0001
0000
,
0010
0000
0000
0000
,
0010
0000
0000
0000
,
1000
0000
0000
0000
,
1000
0000
0000
0000
,
0100
0000
0000
0000
,
0100
0000
0000
0000
,
0001
0000
0001
0000
,
1001
0000
0000
0000
,
0010
0000
0000
0000
,
0000
0000
0000
0000
;
#NOTES:
     dance-single:
     :
     Easy:
     7:
     :
0000
0000
0000
0000
,
0000
0000
0000
0000
,
0000
0000
0000
0000
,
0000
0000
0000
0000
,
0000
0000
0000
0000
,
0010
0000
0000
0000
,
0100
0000
0000
0000
,
0001
0000
1000
0000
,
0100
0010
0001
1000
,
1000
0100
0001
0100
,
1000
0100
0001
0100
,
1000
0000
0001
0000
,
0010
0010
0001
0001
,
0100
0100
1000
1000
,
0100
0100
0010
0010
,
0001
0000
0010
0000
,
1000
0010
0001
0000
,
1000
0010
1000
0100
,
0010
0000
0001
0000
,
0001
0010
0001
0100
,
0010
0000
0100
0000
,
0001
0010
0001
0100
,
0010
0000
1000
0000
,
0010
0000
1001
0000
,
1001
0110
1001
0000
,
0001
0010
0001
0100
,
0010
0000
1000
0000
,
1000
0010
1000
0100
,
0010
0000
0100
0000
,
1000
0010
1000
0100
,
0010
0000
0001
0000
,
0010
0000
1000
0000
,
0100
0001
0010
1000
,
0010
0000
0010
0000
,
0100
0010
0001
0000
,
1000
0000
0010
0000
,
0100
0010
0001
0010
,
1000
0000
1000
0000
,
0010
0000
0010
0000
,
0001
0000
0100
0000
,
1000
0001
1000
0001
,
1000
0100
0010
0001
,
0100
0000
0100
0000
,
0001
0100
0010
1000
,
0100
0000
1000
0000
,
0010
0001
0100
1000
,
0100
0001
0010
0000
,
0010
0000
0010
0000
,
1001
0110
1001
0000
,
0001
0000
0000
0000
,
0100
0000
0000
0000
,
1000
0000
0000
0000
,
0100
0000
0000
0000
,
0001
0000
0000
0000
,
0100
0000
0000
0000
,
1000
0000
0100
0000
,
1001
0110
1001
0000
,
0100
0010
1000
0100
,
0000
0001
0100
0001
,
0010
0010
0001
0000
,
0010
0001
0100
1000
,
1000
0000
0000
0000
,
0001
0010
0001
0100
,
1000
1000
0100
0100
,
0001
0000
0001
0000
,
0001
0010
0001
0100
,
0010
0000
1000
0000
,
1000
0010
1000
0100
,
0010
0000
0100
0000
,
1000
0010
1000
0100
,
0010
0000
0001
0000
,
0010
0000
1000
0000
,
0100
0001
0010
0000
,
0001
0010
0001
0100
,
0010
1000
1000
1000
,
1000
0010
1000
0100
,
0010
0000
0100
0000
,
1000
0000
0100
0000
,
0001
0000
0010
0000
,
0010
0000
1000
0000
,
0001
1000
0001
1000
,
0000
0000
0000
0000
;
#NOTES:
     dance-single:
     :
     Medium:
     11:
     :
0000
0000
0000
0000
,
0000
0000
0000
0000
,
0000
0000
0000
0000
,
0000
0000
0000
0000
,
0000
0000
0000
0000
,
0100
0000
0010
0000
0001
1000
0100
0000
,
0010
0000
0001
0000
0100
0010
1000
0000
,
0100
0010
0001
0000
0100
0010
1000
0000
,
0100
0000
0010
0000
0001
0100
0001
0000
,
1000
0010
0100
0001
,
0010
0000
0100
0000
1000
0001
0100
0000
,
0010
1000
0100
0010
,
0001
0000
0100
0000
0010
1000
0001
0000
,
0100
0000
0010
0000
1000
0001
0100
0000
,
0010
0000
1000
0000
0100
0010
0001
0000
,
0100
0010
1000
0000
0100
0010
0001
0000
,
1100
0011
1100
0011
,
0001
0100
0010
0000
1000
0100
0010
0000
,
0001
0100
0010
0000
1000
0000
1000
0000
,
0001
0010
0100
0000
1000
0010
0100
0000
,
0001
0010
0100
0000
1000
0000
0101
0000
,
1000
0100
0010
0000
0001
0100
0010
0000
,
1000
0100
0010
0000
0001
0010
0001
0000
,
1100
0000
0000
0010
0100
0000
0000
0001
,
0010
0100
1001
0000
,
1000
0100
0010
0000
0001
0100
0010
0000
,
1000
0100
0010
0000
0001
0000
0101
0000
,
1000
0010
0100
0000
0001
0010
0100
0000
,
1000
0010
0100
0000
0101
0000
1100
0000
,
0101
0000
0010
0000
1000
0100
0010
0000
,
0001
0100
0010
0000
1000
0000
1000
0000
,
0110
0000
0000
0010
0100
1000
0010
0100
,
0002
0000
0000
0003
,
1000
0100
0010
0001
0100
0000
0010
0000
,
1000
0100
1000
0001
1000
0000
0010
0000
,
0100
0001
0010
0100
1000
0000
0001
0000
,
0100
0010
1000
0100
0010
0000
0001
0000
,
0100
0010
1000
0001
1000
0001
1000
0100
,
0010
1000
0100
0010
0001
0100
0010
0000
,
1001
0000
1001
0010
,
1001
0010
1001
1000
,
0001
0100
0010
1000
0100
0000
0101
0000
,
0001
0100
0010
1000
0001
0000
0010
0000
,
0100
1000
0010
0100
0001
0000
1100
0000
,
0100
0010
0001
0100
0010
0000
1000
0000
,
0110
0000
0001
1000
0100
1000
0100
1000
,
0100
1000
0100
0010
1000
0100
1000
0000
,
1001
0100
1001
0010
,
1001
1100
0011
0001
,
0010
0100
1000
0000
0010
0000
0100
0001
,
0000
0001
1000
0000
0100
0000
0010
0001
,
0100
0010
1000
0000
0100
0000
0010
0001
,
0000
0001
0100
0000
0010
0000
1000
0100
,
0010
0001
0100
0000
0010
0000
1000
0100
,
0000
0010
0001
0100
,
1010
0001
0011
0100
,
1100
0011
1100
0110
,
0010
0100
0001
0000
0010
0000
0100
1000
,
0000
0000
0001
0000
0100
0000
0010
1000
,
0100
0010
0001
0000
0100
0010
1000
0100
,
0000
0100
0010
0000
0001
0000
0100
0010
,
1000
0100
0010
0000
0001
0000
0100
0000
,
0110
0000
0100
0010
0100
0000
0010
0001
,
0010
0000
0010
0100
0010
0000
0010
0100
,
0010
1100
0011
0000
,
0001
0100
0010
0000
1000
0100
0010
0000
,
0001
0100
0010
0000
1000
0000
0101
0000
,
0001
0010
0100
0000
1000
0010
0100
0000
,
0001
0010
0100
0000
1000
0000
0101
0000
,
1000
0100
0010
0000
0001
0100
0010
0000
,
1000
0100
0010
0000
0001
0000
1100
0000
,
1001
0000
0000
0010
0100
0000
0000
0001
,
0010
0100
1001
0000
,
1000
0100
0010
0000
0001
0100
0010
0000
,
1000
0100
0010
0000
0001
0000
0001
0000
,
1000
0010
0100
0000
0001
0010
0100
0000
,
1000
0010
0100
0000
0001
0010
0100
1000
,
0001
0000
0000
0100
0010
1000
0100
0010
,
0000
0010
0001
0100
0010
1000
0100
0010
,
0001
0000
0000
0100
0010
1000
0100
0010
,
0002
1000
1000
1000
,
1003
0000
0000
0000
,
0000
0000
0000
0000
;
#NOTES:
     dance-single:
     :
     Hard:
     15:
     :
0000
0000
0000
0000
,
0000
0000
0000
0000
,
0000
0000
0000
0000
,
0000
0000
0000
0000
,
0000
0000
0000
0000
,
1000
0000
0001
0000
0010
0001
0000
0010
0000
0001
0000
1000
0100
1000
0100
0000
,
1000
0100
1000
0000
0010
0001
0000
0010
0000
0001
0000
0000
1000
0000
0100
0000
,
0001
0000
1000
0000
0010
1000
0000
0010
0000
1000
0000
0001
0100
0001
0100
0000
,
0101
0000
0110
0000
1010
0000
0011
0100
,
1000
0000
0001
0000
0100
0001
0000
0100
0000
0001
0000
1000
0010
1000
0010
0000
,
1000
0010
1000
0000
0100
0001
0000
0100
0000
0001
0000
0000
1000
0000
0010
0000
,
0001
0000
1000
0000
0100
1000
0000
0100
0000
1000
0000
0001
0010
0001
0010
0000
,
0001
0000
1000
0000
0100
1000
0000
0100
0000
1000
0000
0001
0010
0001
0010
0000
,
0001
0010
0001
0000
0100
1000
0000
0100
0000
1000
0000
0000
0010
0100
0010
0000
,
1000
0000
0001
0000
0100
0001
0000
0100
0000
0001
0000
1000
0010
1000
0010
0000
,
1000
0100
1000
0001
0100
0010
1000
0001
,
0100
0001
0010
0100
1000
0100
1000
0000
,
0001
0000
0100
0000
0010
1000
0010
0000
1000
0000
0100
0000
0010
0100
0010
0000
,
0001
0000
0100
0000
0010
0100
0010
0000
1000
0000
0010
0000
1000
0000
0001
0000
,
1000
0000
0100
0000
0010
0001
0010
0000
0001
0000
0100
0000
0010
0100
0010
0000
,
1000
0100
0001
0100
1000
0010
0001
0010
,
0100
0000
0000
0000
0100
0001
0010
0000
0001
0000
0100
0000
0010
0100
0010
0000
,
1000
0000
0100
0000
0010
0100
0010
0000
0001
0000
0010
0000
0001
0000
0010
0000
,
0011
0000
0000
0000
0010
1000
0010
0000
1010
0000
0000
0000
0010
0100
0010
0000
,
0110
0011
0120
0130
,
1000
0000
0100
0000
0010
0001
0010
0000
0001
0000
0100
0000
0010
0100
0010
0000
,
1000
0000
0100
0000
0010
0100
0010
0000
0001
0000
0010
0000
0001
0000
1000
0000
,
0001
0000
0100
0000
0010
1000
0010
0000
1000
0000
0100
0000
0010
0100
0010
0000
,
0001
0100
1000
0100
0001
0010
1000
0010
,
0100
0000
0000
0000
0100
1000
0010
0000
1000
0000
0100
0000
0010
0100
0010
0000
,
0001
0000
0100
0000
0010
0100
0010
0000
1000
0000
0010
0000
1000
0000
0010
0000
,
1010
0000
0000
0000
0000
0000
0010
0000
0001
0000
0010
0000
0100
0010
0100
0000
,
0110
0011
0120
0130
,
1000
0000
0100
0000
0010
0100
0010
0000
0100
0000
1000
0000
0010
0000
0001
0000
,
0010
0000
0100
0000
0010
0100
0010
0000
1000
0000
0001
0000
1000
0000
0100
0000
,
1000
0000
0001
0000
0010
0100
0010
0000
1000
0000
0100
0000
0001
0010
0001
0000
,
0100
0000
0010
0000
1000
0100
1000
0000
0010
0000
0100
0010
0100
0000
0001
0000
,
0100
0010
1000
0001
0100
0001
0100
0001
,
0010
1000
0010
0001
0010
0001
0010
0001
,
0011
0100
1001
0110
,
1001
0000
0101
0000
0010
0100
1000
0000
,
0001
0000
0100
0000
0010
1000
0001
0000
0100
0000
0010
0000
0100
0001
0100
0000
,
0001
0000
0100
0000
0010
0001
0010
0001
1000
0000
0000
0000
0100
0000
0000
0000
,
1000
0000
0100
0000
0010
0001
1000
0000
0100
0000
0010
0000
0100
1000
0100
0000
,
1000
0000
0100
0000
0010
0001
0010
0001
1000
0000
0100
0010
0100
0000
0010
0000
,
0100
0010
1000
0001
0100
0001
1000
0100
,
0010
0001
0100
0010
1000
0100
0010
0001
,
0001
0000
0010
0000
0001
0010
0001
0000
1000
0000
0010
0000
1000
0001
1000
0000
,
1001
1100
0011
0001
,
0010
0100
1000
0000
0010
0000
0100
0002
,
0000
0000
1003
0000
0100
0000
0010
0001
,
0100
0010
1000
0000
0100
0000
0010
0002
,
0000
0000
0103
0000
0010
0000
1000
0100
,
0010
0001
0100
0000
0010
0000
1000
0200
,
0000
0000
0310
0000
0001
0000
0100
0010
,
1010
0000
0001
0000
0110
0000
0100
1000
,
1100
0000
0110
0000
0100
0001
0100
0001
,
0010
0100
0001
0000
0010
0000
0100
1000
,
0001
0010
0001
0000
0100
0000
0010
1000
,
0100
0010
0001
0000
0100
0010
1000
1010
,
0000
0000
0110
0000
0101
0000
0100
0010
,
1000
0100
0010
0000
0001
0000
0100
0010
,
0110
0000
1000
0000
0100
0000
0010
0001
,
1000
0100
0010
0100
1000
0001
0010
0100
,
0000
0000
1000
0001
0020
0000
0100
0030
,
1000
0000
0100
0000
0010
0001
0010
0000
0001
0000
0100
0000
0010
0100
0010
0000
,
1000
0000
0100
0000
0010
0100
0010
0000
0001
0000
0010
0000
0001
0000
1000
0000
,
0001
0000
0100
0000
0010
1000
0010
0000
1000
0000
0100
0000
0010
0100
0010
0000
,
0001
0100
1000
0100
0001
0010
1000
0010
,
0100
0000
0000
0000
0100
1000
0010
0000
1000
0000
0100
0000
0010
0100
0010
0000
,
0001
0000
0100
0000
0010
0100
0010
0000
1000
0000
0010
0000
1000
0000
0010
0000
,
1010
0010
0011
0100
,
0110
1010
0120
0130
,
1000
0000
0100
0000
0010
0001
0010
0000
0001
0000
0100
0000
0010
0100
0010
0000
,
1000
0000
0100
0000
0010
0100
0010
0000
0001
0000
0010
0000
0001
0000
1000
0000
,
0001
0000
0100
0000
0010
1000
0010
0000
1000
0000
0100
0000
0010
0100
0010
0000
,
0001
0100
1000
0100
0001
0010
1000
0010
,
0200
0000
0000
0000
0000
0000
0300
0000
1000
0000
0100
0000
0010
0100
0010
0000
,
0001
0000
0100
0000
0010
0100
0010
0000
1000
0000
0010
0000
1000
0000
0010
0000
,
1010
0000
0000
0000
0000
0000
0010
0000
0001
0000
0010
0000
0100
0010
0100
0000
,
0110
0011
0120
0130
,
1000
0000
0101
0000
0100
0001
0000
0010
,
0000
0100
1000
1000
,
0001
0000
0010
0000
0100
1000
0000
0010
,
0000
0100
0001
0001
,
2002
0000
0000
0000
0000
0000
0000
3003
,
0000
0000
0000
0000
;
#NOTES:
     dance-single:
     :
     Challenge:
     16:
     :
0000
0000
0000
0000
,
0000
0000
0000
0000
,
0000
0000
0000
0000
,
0000
0000
0000
0000
,
0000
0000
0000
0000
,
1001
0000
0000
0110
,
1001
0000
0000
0110
,
1001
0000
0110
0000
,
1001
0000
0000
0000
0110
0000
0000
0000
1001
0000
1000
0001
0100
0000
0010
1000
,
0001
0000
0010
0000
0001
1000
0000
0100
0000
0010
0000
0100
0010
0001
0010
0001
,
0000
1000
0100
0000
0001
0100
0000
1000
0000
0100
0000
0010
0001
0000
0100
0000
,
0001
0000
0010
0000
0001
1000
0000
0010
0000
0100
0000
0001
1000
0010
1000
0010
,
0000
0001
0010
0000
1000
0010
0000
1000
0000
0100
0000
1000
0001
0000
0100
0000
,
0001
0000
0010
0000
0001
1000
0000
0100
0000
0010
0000
0100
0010
0001
0010
0001
,
0000
1000
0100
0000
0001
0100
0000
1000
0000
0100
0000
0010
0001
0000
0010
0000
,
0001
0000
0100
0000
0010
1000
0000
0010
0000
0100
0000
0001
1000
0010
1000
0010
,
0000
0001
0010
0000
1000
0010
0000
0100
0000
0001
0000
1000
0001
0100
0010
0100
,
0001
0000
1000
0000
0010
0100
0010
0100
0010
0000
1000
0000
0001
0010
0001
0010
,
0001
0000
1000
0000
0100
0010
0100
0010
0100
0000
0010
0000
0001
0000
1000
0000
,
0010
0000
0100
0000
0001
0010
0001
0010
0001
0000
1000
0000
0010
0100
0010
0100
,
0010
0000
1000
0000
0001
0100
0001
0100
0001
0000
1000
0000
0010
0000
0100
0000
,
0001
0000
1000
0000
0010
1000
0010
1000
0010
0000
0100
0000
0001
1000
0001
1000
,
0001
0000
0000
0000
0000
0000
0010
0000
0000
0000
0000
0000
0100
0000
0000
1000
0000
0000
0100
0000
0000
1000
0000
0000
0100
0000
0000
0000
0000
0000
0010
0000
0001
0000
0010
0000
0001
0000
0000
0000
0000
0000
0100
0000
0000
0000
0000
0000
,
0102
0000
0000
1000
0203
0000
0000
0010
,
0301
0000
1000
0100
1000
0000
0001
0000
0021
0000
0000
0000
0130
0000
0000
0000
,
1000
0000
0001
0000
0100
0010
0100
0010
0100
0000
0001
0000
1000
0100
1000
0100
,
1000
0000
0001
0000
0010
0100
0010
0100
0010
0000
0100
0000
1000
0000
0001
0000
,
0100
0000
0010
0000
1000
0100
1000
0100
1000
0000
0001
0000
0100
0010
0100
0010
,
0100
0000
0001
0000
1000
0010
1000
0010
1000
0000
0001
0000
0100
0000
0010
0000
,
1000
0000
0001
0000
0100
0001
0100
0001
0100
0000
0010
0000
1000
0001
1000
0001
,
1000
0000
0000
0000
0000
0000
0100
0000
0000
0000
0000
0000
0010
0000
0000
0001
0000
0000
0010
0000
0000
0001
0000
0000
0010
0000
0000
0000
0000
0000
0100
0000
1000
0000
0100
0000
1000
0000
0000
0000
0000
0000
0010
0000
0000
0000
0000
0000
,
0210
0000
0000
0000
0000
0000
0000
0000
0000
0301
0000
0000
1001
0000
0000
0001
0010
0001
0010
0000
0000
0100
0000
0000
,
1000
0000
0001
0010
0001
0000
1000
0010
1000
0000
0001
0010
0100
0000
0110
0000
,
1000
0000
0100
0000
0010
0001
1000
0000
0010
0000
0100
0000
0001
0010
0100
0000
,
1000
0000
0001
0000
0100
0010
1000
0000
0001
0000
0100
0000
1000
0000
0100
0000
,
0001
0000
0100
0000
0010
1000
0100
0000
0010
0000
0001
0000
0100
0010
1000
0000
,
0100
0000
0010
0000
0001
0100
0010
1000
0001
0000
0100
0000
0010
0000
0100
0000
,
0001
0000
1000
0100
1000
0000
0001
0000
0010
0000
1000
0000
0010
0000
0001
0000
,
1000
0100
0001
0100
1000
0001
0100
0010
,
1010
0001
1100
0001
0110
0001
1010
0001
,
1100
0000
0001
0000
0110
0000
0001
0000
1000
0000
0001
0100
0001
0000
1000
0000
,
0010
0000
1000
0000
0100
0010
0001
0000
1000
0000
0010
0000
0100
0001
0010
0000
,
0100
0000
1000
0000
0001
0100
0010
0000
1000
0000
0010
0000
0001
0000
0010
0000
,
1000
0000
0001
0000
0010
0100
1000
0000
0010
0000
0100
0000
0001
0010
0100
0000
,
1000
0000
0010
0000
1000
0100
0010
0001
0100
0000
0001
0000
0100
0000
0010
0000
,
1000
0000
0001
0100
0001
0000
1000
0000
0010
0000
0001
0000
0010
0000
1000
0000
,
0001
0100
1000
0100
0001
1000
0100
0010
,
0011
1000
0101
1000
0110
1000
0011
1000
,
0101
0000
1000
0000
0110
0000
1000
0000
0001
1000
0001
1000
0100
0000
0010
0000
,
0001
1000
0100
0010
0001
0100
0010
2000
,
0000
3001
0100
1000
0100
0001
0100
0010
,
1000
0100
0010
0000
0001
0000
0100
0000
1000
0000
0100
0000
0001
0000
2000
0000
,
0000
3001
0010
1000
0010
0001
0100
0010
,
1000
0100
0010
0000
0001
0000
0100
0000
0010
0000
0100
0000
0001
0000
0020
0000
,
0000
1030
0010
0001
0100
1000
0100
0001
,
0011
1000
0100
0000
1010
0001
0100
0000
,
1001
0000
0110
0000
1001
0010
0100
0001
,
1000
0100
1000
0000
0001
0000
1000
0000
0100
0000
0001
0000
0100
0000
2000
0000
,
0000
3001
0010
1000
0010
0001
1000
0010
,
0100
0001
0100
0000
0010
0000
1000
0000
0001
0000
0010
0000
0000
0000
0010
0000
,
0001
0100
1000
0100
0001
1000
0100
0010
,
0001
0010
1000
0010
0001
0010
1000
0010
,
0001
0100
1000
0100
0001
1000
0010
0100
,
0010
0100
0010
0100
0010
0000
1001
0000
0100
0010
0100
0010
0100
0000
1001
0000
,
0000
1001
0010
0100
0110
0000
1001
0000
,
0001
0000
0100
0000
0001
0100
0001
1000
0100
0000
1000
0000
0001
0100
0010
1000
,
0010
0000
0100
0000
0001
0010
0100
0010
0001
0000
1000
0000
0100
0000
0010
0000
,
0001
0000
0100
0000
0001
0010
0100
1000
0001
0000
1000
0000
0001
0100
0010
1000
,
0010
0000
0100
0000
0010
0100
0001
0100
0010
0000
1000
0000
0010
0000
0100
0000
,
0001
0000
1000
0000
0010
1000
0100
0010
0001
0000
0100
0000
0001
0100
0010
1000
,
0100
0000
0000
0000
0000
0000
0010
0000
0000
0000
0000
0000
0001
0000
0000
1000
0000
0000
0100
0000
0000
1000
0000
0000
0001
0000
0000
0000
0000
0000
0010
0000
0001
0000
0010
0000
0100
0000
0000
0000
0000
0000
1000
0000
0000
0000
0000
0000
,
1002
0000
0000
0010
0203
0000
0000
0001
,
0310
0000
1000
0001
1000
0000
0100
0000
0120
0000
0000
0000
0031
0000
0000
0000
,
1000
0000
0001
0000
0010
0100
1000
0001
0100
0000
0001
1000
0010
0100
0001
0100
,
0010
0000
1000
0001
1000
0100
0010
0001
0100
0000
0010
0000
1000
0000
0001
0000
,
0100
0000
0010
0000
1000
0100
0010
0001
1000
0000
0001
0010
0100
1000
0001
1000
,
0100
0000
0010
0001
1000
0001
0100
0010
1000
0000
0001
0000
0100
0000
0010
0000
,
1000
0100
1000
0100
0010
0000
0001
0000
0100
0010
0100
0010
1000
0000
0001
0000
,
1000
0100
1000
0100
1000
0001
1000
0001
0100
0010
0100
0010
1000
0100
1000
0100
,
0010
0001
1000
0010
0100
0000
0010
0000
1000
0001
1000
0001
0010
0000
0100
0000
,
0110
0000
0001
0000
0101
0000
1000
0000
1010
0000
0001
1000
0010
1000
0100
0010
,
0001
0000
0000
0000
,
0000
0000
0000
0000
;
#NOTES:
     dance-double:
     :
     Easy:
     7:
     :
00000000
00000000
00000000
00000000
,
00000000
00000000
00000000
00000000
,
00000000
00000000
00000000
00000000
,
00000000
00000000
00000000
00000000
,
00000000
00000000
00000000
00000000
,
00100000
10000000
01000000
00000000
,
00010000
00001000
00000100
00000000
,
00001000
00010000
00001000
00010000
,
00001000
00000100
00000001
00000010
,
00000010
00000001
00000100
00001000
,
00010000
01000000
00100000
00000000
,
00001000
00010000
00001000
00010000
,
00001000
00020000
01000000
00031000
,
00000010
00000001
00000010
00000001
,
00000100
00001000
00010000
00001000
,
00000100
00000001
00000010
00001000
,
00010000
01000000
00010000
10000000
,
00010000
01000000
10000000
00100000
,
00010000
00001000
00000010
00000001
,
00000100
00000010
00000100
00001000
,
00010000
00000000
00010000
00000000
,
01000000
10000000
01000000
10000000
,
10000000
00100000
10000000
00100000
,
00010000
00000000
00000100
00000000
,
00000110
00000010
00000011
00000000
,
00001000
00000100
00000001
00000010
,
00001000
00010000
00100000
10000000
,
01000000
00100000
01000000
00010000
,
00001000
00000000
00001000
00000000
,
00000100
00000001
00000100
00000001
,
00000001
00000010
00000001
00000010
,
00001000
00010000
00001000
00010000
,
00100000
01000000
10000000
01000000
,
00010000
00001000
00001000
00000000
,
00001000
00010000
01000000
10000000
,
01000000
00100000
01000000
00010000
,
00001000
00000100
00000010
00000000
,
00000001
00000000
00001000
00000000
,
00010000
00000000
10000000
00000000
,
01100000
00000000
01010000
00000000
,
00101000
00010000
00011000
00000000
,
00001000
00010000
00010000
00000000
,
00010000
00001000
00000100
00000001
,
00000100
00000010
00000100
00001000
,
00010000
01000000
00100000
00000000
,
10000000
00000000
00010000
00000000
,
00001000
00000000
00000001
00000000
,
00000110
00000000
00001100
00000000
,
00010000
00001000
00100000
01000000
,
00100000
00010000
01000000
00010000
,
10000000
01000000
00010000
00001000
,
00001000
00000010
00000001
00000001
,
00000001
00000000
00000100
00000000
,
00000010
00001000
00000100
00001000
,
00000001
00000100
00001000
00010000
,
00010000
00100000
10000000
10000000
,
10000000
00000000
01000000
00000000
,
00010000
00001000
00000100
00000010
,
00001000
00000010
00001000
00000100
,
00010000
00001000
00010000
00000000
,
00001000
00010000
00100000
10000000
,
01000000
00000000
00000000
00000000
,
00010000
00000000
00000000
00000000
,
00001000
00000000
00000100
00000001
,
00000010
00000001
00000100
00000000
,
00001000
00000100
00000001
00000010
,
00001000
00010000
00100000
10000000
,
01000000
00100000
01000000
00010000
,
00001000
00000000
00001000
00000000
,
00000100
00000001
00000100
00000001
,
00000001
00000010
00000001
00000010
,
00001000
00000000
00011000
00000000
,
00100000
01000000
10000000
00000000
,
00010000
01000000
10000000
01000000
,
00000000
00010000
01000000
10000000
,
01000000
00100000
01000000
00010000
,
00001000
00000100
00000010
00000000
,
00000001
00000000
00001000
00000000
,
00010000
00000000
10000000
00000000
,
01100000
00000000
01010000
00000000
,
00010000
00001000
00000100
00000010
,
00000100
00000001
00000010
00000000
,
00001000
00010000
01000000
00000000
,
00100000
00000000
00100000
00000000
,
00001000
00001000
00001000
00000000
,
00000000
00000000
00000000
00000000
;
#NOTES:
     dance-double:
     :
     Medium:
     11:
     :
00000000
00000000
00000000
00000000
,
00000000
00000000
00000000
00000000
,
00000000
00000000
00000000
00000000
,
00000000
00000000
00000000
00000000
,
00000000
00000000
00000000
00000000
,
01000000
00000000
00100000
00000000
00010000
10000000
01000000
00000000
,
00100000
00000000
00010000
00000000
01000000
00100000
10000000
00000000
,
01000000
00000000
00010000
00000000
,
00001000
00000000
00000010
00000000
00000001
00000100
00000001
00000000
,
00001000
00000010
00000100
00000001
,
00000010
00000000
00000100
00000000
00001000
00000001
00000100
00000000
,
00001000
00010000
01000000
00100000
,
00010000
00000000
01000000
00000000
00100000
10000000
00010000
00000000
,
00100000
00001000
00010000
00000100
,
00000010
00000001
00000100
00000001
,
00000010
00000100
00000010
00000000
00001000
00010000
00001000
00000000
,
00110000
01100000
11000000
01100000
,
00010000
01000000
00100000
00000000
10000000
01000000
00100000
00000000
,
00010000
00000000
00000100
00000000
,
00000001
00000010
00000100
00000000
00001000
00000010
00000100
00000000
,
00000001
00000100
00001000
00010000
,
00010000
01000000
00100000
00000000
00010000
01000000
00100000
00000000
,
10000000
00000000
00100000
00000000
,
11000000
00000000
00000000
01000000
00100000
00000000
00000000
00001000
,
00010000
00001100
00000101
00000000
,
00001000
00000100
00000010
00000000
00000001
00000100
00000010
00000000
,
00001000
00000000
01000000
00000000
,
10000000
00100000
01000000
00000000
00010000
00100000
01000000
00000000
,
10000000
01000000
00010000
00001000
,
00001000
00000100
00000010
00000000
00001000
00000100
00000010
00000000
,
00000001
00000000
00000010
00000000
,
00000101
00000000
00000000
00000100
00000010
00000100
00000000
00001000
,
00010000
00001000
00010000
00100000
,
10000000
01000000
00100000
00010000
01000000
00000000
00100000
00000000
,
10000000
01000000
00010000
00001000
,
00000100
00000001
00000010
00000100
00001000
00000000
00000001
00000000
,
00000100
00000010
00001000
00000100
00000010
00000000
00000001
00000000
,
00000010
00000000
00001000
00000000
00010000
00001000
00010000
01000000
,
00100000
01000000
10000000
00100000
,
10010000
00000000
00110000
00000000
,
00011000
00001100
00000110
00000000
,
00000001
00000010
00000100
00001000
00000010
00000000
00000100
00000000
,
00000001
00000010
00001000
00010000
,
00100000
10000000
01000000
00100000
00010000
00000000
10000000
00000000
,
00100000
01000000
00010000
00100000
01000000
00000000
10000000
00000000
,
01000000
00000000
00010000
00000000
00010000
00001000
00010000
00001000
,
00000100
00000010
00001000
00000100
,
00001100
00000000
00011000
00000000
,
00011000
00110000
01100000
00000000
,
00100000
01000000
10000000
00000000
00100000
00000000
01000000
00001000
,
00000000
00010000
00001000
00000000
00010000
00000000
00001000
00000100
,
00000001
00000010
00000001
00000000
00000100
00000000
00000010
00010000
,
00000000
00001000
00010000
00000000
00001000
00000000
00010000
00000000
,
01000000
10000000
01000000
00000000
00100000
00000000
00010000
01000000
,
00000000
00100000
10000000
01000000
,
00010000
00000000
00001000
00000000
,
00001100
00000011
00001100
00000000
,
00000010
00000100
00000001
00000000
00000010
00000000
00000100
00001000
,
00000000
00000001
00000100
00000010
,
00010000
00000000
00001000
00000000
01000000
00100000
00000000
10000000
,
00000000
01000000
00100000
00000000
00010000
00000000
01000000
00000000
,
10000000
01000000
00010000
00100000
,
00001000
00010000
00000100
00001000
,
00000001
00000000
00000010
00000001
00000010
00000000
00000100
00001000
,
00000100
00001100
00011000
00000000
,
00010000
01000000
00100000
00000000
10000000
01000000
00100000
00000000
,
00010000
00000000
00000100
00000000
,
00000001
00000010
00000100
00000000
00001000
00000010
00000100
00000000
,
00000001
00000100
00001000
00010000
,
00010000
01000000
00100000
00000000
00010000
01000000
00100000
00000000
,
10000000
00000000
00100000
00000000
,
11000000
00000000
00000000
01000000
00100000
00000000
00000000
00001000
,
00010000
00001100
00000101
00000000
,
00001000
00000100
00000010
00000000
00000001
00000100
00000010
00000000
,
00001000
00000000
01000000
00000000
,
10000000
00100000
01000000
00000000
00010000
00100000
01000000
00000000
,
10000000
01000000
00010000
00001000
,
00002000
00000000
00003100
00000020
,
00000031
00000000
00000100
00000000
,
00000101
00000000
00000000
00000100
00000010
00000100
00000000
00001000
,
00000100
00001100
00011000
00110000
,
01100000
00000000
00000000
00000000
,
00000000
00000000
00000000
00000000
;
#NOTES:
     dance-double:
     :
     Hard:
     15:
     :
00000000
00000000
00000000
00000000
,
00000000
00000000
00000000
00000000
,
00000000
00000000
00000000
00000000
,
00000000
00000000
00000000
00000000
,
00000000
00000000
00000000
00000000
,
00001000
00000000
00000001
00000000
00000010
00000001
00000000
00000010
00000000
00000001
00000000
00001000
00000100
00001000
00000100
00000000
,
00001000
00000100
00001000
00000000
00000010
00000001
00000000
00000010
00000000
00000001
00000000
00000000
00000100
00000000
00001000
00000000
,
00011000
00000000
01010000
00000000
,
11000000
00000000
01100000
00000000
10100000
00000000
10000000
01000000
,
10000000
00000000
00010000
00000000
01000000
00010000
00000000
01000000
00000000
00010000
00000000
10000000
00100000
10000000
00100000
00000000
,
10000000
00100000
10000000
00000000
01000000
00000000
00010000
00000000
00001000
00000000
00000010
00000000
00000001
00000000
00000000
00000000
,
00000001
00000000
00001000
00000000
00000100
00001000
00000000
00000100
00000000
00001000
00000000
00000001
00000010
00000001
00000010
00000000
,
00000001
00000000
00001000
00000000
00000100
00001000
00000000
00000100
00000000
00010000
00000000
00001000
00100000
00010000
00100000
00000000
,
00010000
00100000
00010000
00000000
01000000
10000000
00000000
01000000
00000000
10000000
00000000
00000000
00100000
01000000
00100000
00000000
,
10000000
00000000
00010000
00000000
01000000
00010000
00000000
01000000
00000000
00010000
00000000
10000000
00100000
10000000
00100000
00000000
,
10000000
01000000
00010000
00001000
00000100
00000010
00001000
00000001
,
00000100
00000001
00000010
00000100
00001000
00000100
00010000
00001000
,
00100000
00000000
01000000
00000000
00100000
00010000
00100000
00000000
00010000
00000000
01000000
00000000
00100000
01000000
00100000
00000000
,
10000000
01000000
00010000
00001000
00010000
00001000
00000100
00000001
,
00001000
00000000
00000100
00000000
00000010
00000001
00000010
00000000
00000001
00000000
00000100
00000000
00000010
00000100
00000010
00000000
,
00001000
00000100
00010000
00001000
00010000
00100000
01000000
00100000
,
10000000
00000000
01000000
00000000
00100000
00010000
00100000
00000000
00010000
00000000
01000000
00000000
00100000
01000000
00100000
00000000
,
10000000
00000000
01000000
00000000
00010000
00000000
00001000
00000000
00000100
00000000
00000001
00000010
00000001
00000000
00000010
00000000
,
00000011
00000000
00000010
00001000
,
00011000
00110000
00011000
00010000
,
00000010
00000000
00000100
00000000
00000010
00001000
00000010
00000000
00001000
00000000
00000100
00000000
00000010
00000100
00000010
00000000
,
00000001
00000100
00001000
00010000
00001000
00010000
01000000
10000000
,
00010000
00000000
01000000
00000000
00100000
10000000
00100000
00000000
10000000
00000000
01000000
00000000
00100000
01000000
00100000
00000000
,
00010000
01000000
00001000
00010000
00001000
00000010
00000100
00000010
,
00000001
00000000
00000100
00000000
00000010
00001000
00000010
00000000
00001000
00000000
00000100
00000000
00000010
00000100
00000010
00000000
,
00000001
00000000
00000100
00000000
00001000
00000000
00010000
00000000
01000000
00000000
10000000
00100000
10000000
00000000
00100000
00000000
,
01100000
00000000
00000000
00000000
00010000
00001000
00000100
00000010
,
00000110
00000011
00000101
00000110
,
00001000
00000000
00000100
00000000
00000010
00000100
00000010
00000000
00000100
00000000
00001000
00000000
00000010
00000000
00010000
00000000
,
00001000
00000000
01000000
00000000
00100000
01000000
00100000
00000000
10000000
00000000
00010000
00000000
10000000
00000000
01000000
00000000
,
00010000
00000000
00001000
00000000
00000100
00000010
00000100
00000000
00000001
00000000
00000100
00000000
00000001
00000010
00000001
00000000
,
00000100
00000000
00001000
00000000
00010000
00001000
00010000
00000000
00100000
00000000
01000000
00100000
01000000
00000000
00010000
00000000
,
01000000
00100000
10000000
00010000
01000000
00010000
00100000
01000000
,
00010000
00001000
00000010
00000100
00000010
00000001
00000010
00000001
,
00000011
00000100
00001100
00010000
,
01100000
01010000
00100000
10000000
,
00010000
00000000
01000000
00000000
00100000
01000000
00100000
00000000
01000000
00000000
00010000
00000000
00100000
00000000
00001000
00000000
,
00010000
00000000
00000100
00000000
00000010
00000100
00000010
00000000
00000001
00000000
00001000
00000000
00000001
00000000
00000100
00000000
,
00001000
00000000
00010000
00000000
01000000
00100000
01000000
00000000
10000000
00000000
01000000
00000000
10000000
00100000
10000000
00000000
,
01000000
00000000
00010000
00000000
00001000
00010000
00001000
00000000
00000010
00000000
00000100
00000010
00000100
00000000
00001000
00000000
,
00000100
00000010
00000001
00001000
00000100
00001000
00000010
00000100
,
00001000
00010000
00100000
01000000
00100000
10000000
00100000
10000000
,
10000000
00000000
00010000
00001000
,
00000110
00000000
00001100
00000000
00000010
00000100
00000001
00000000
,
00000001
00000010
00000100
00000000
00001000
00000000
00010000
00200000
,
00000000
00310000
01000000
00100000
,
01000000
00100000
10000000
00000000
01000000
00000000
00100000
00020000
,
00000000
00000000
00031000
00000000
00000010
00000000
00001000
00000010
,
00001000
00000000
00000001
00000000
00000100
00000000
00001000
00020000
,
00000000
00000000
00130000
00000000
10000000
00000000
01000000
00100000
,
01100000
00000000
00011000
00000000
,
00001100
00000000
00000110
00000000
00000100
00000001
00000100
00000001
,
00000001
00000010
00000100
00000000
00001000
00000000
00010000
00200000
,
00000000
00000000
00310000
00000000
01000000
00000000
00100000
01000000
,
00100000
00000000
10000000
00000000
01000000
00100000
00000000
00020000
,
00000000
00000000
00031000
00000000
00000010
00000000
00001000
00000100
,
00001000
00000000
00000001
00000000
00000100
00000000
00001000
00020000
,
00000000
00000000
00130000
00000000
10000000
00000000
01000000
00100000
,
01000000
00010000
00001000
00000100
00000010
00001000
00000010
00000100
,
00000000
00000000
00000010
00010000
00001000
00000000
00010000
00000000
,
00000010
00000000
00000100
00000000
00000010
00001000
00000010
00000000
00001000
00000000
00000100
00000000
00000010
00000100
00000010
00000000
,
00000001
00000100
00001000
00010000
00001000
00010000
01000000
10000000
,
00010000
00000000
01000000
00000000
00100000
10000000
00100000
00000000
10000000
00000000
01000000
00000000
00100000
01000000
00100000
00000000
,
00010000
01000000
00001000
00010000
00001000
00000010
00000100
00000010
,
00000001
00000000
00000100
00000000
00000010
00001000
00000010
00000000
00001000
00000000
00000100
00000000
00000010
00000100
00000010
00000000
,
00000001
00000000
00000100
00000000
00001000
00000000
00010000
00000000
01000000
00000000
10000000
00100000
10000000
00000000
00100000
00000000
,
10100000
00000000
00100000
00010000
,
00011000
00001010
00011000
00001000
,
00000010
00000000
00000100
00000000
00000010
00001000
00000010
00000000
00001000
00000000
00000100
00000000
00000010
00000100
00000010
00000000
,
00000001
00000100
00001000
00010000
00001000
00010000
01000000
10000000
,
00010000
00000000
01000000
00000000
00100000
10000000
00100000
00000000
10000000
00000000
01000000
00000000
00100000
01000000
00100000
00000000
,
00010000
01000000
00001000
00010000
00001000
00000010
00000100
00000010
,
00000002
00000000
00000000
00000000
00001003
00000000
00000100
00000010
,
00000001
00000000
00000100
00000000
00001000
00000000
00010000
00000000
01000000
00000000
10000000
00100000
10000000
00000000
00100000
00000000
,
10100000
00000000
00000000
00000000
00010000
00001000
00000100
00000010
,
00000110
00000011
00000101
00000110
,
00000001
00000000
00000100
00000000
00001000
00010000
00000000
00100000
,
00000000
01000000
00010000
10000000
,
00010000
00000000
00100000
00000000
00001000
00010000
00000000
00000100
,
00000000
00000010
00001000
00001000
,
00000002
00000000
00000000
00000003
,
00000000
00000000
00000000
00000000
;
#NOTES:
     dance-double:
     :
     Challenge:
     17:
     :
00000000
00000000
00000000
00000000
,
00000000
00000000
00000000
00000000
,
00000000
00000000
00000000
00000000
,
00000000
00000000
00000000
00000000
,
00000000
00000000
00000000
00000000
,
00001001
00000000
00000000
00000110
,
00011000
00000000
00000000
01100000
,
00011000
00000000
00001001
00000000
,
00011000
00000000
00000000
00000000
10010000
00000000
00000000
00000000
00011000
00000000
00010000
00000100
00001000
00000000
00000010
00001000
,
00000001
00000000
00000100
00000000
00000010
00000100
00000000
00000010
00000000
00001000
00000000
00000100
00010000
00001000
00010000
00001000
,
00000000
00100000
00010000
00000000
10000000
01000000
00000000
00100000
00000000
00010000
00000000
10000000
01000000
00000000
00100000
00000000
,
00001000
00000000
00010000
00000000
00000100
00010000
00000000
00000010
00000000
00001000
00000000
00000001
00001000
00000100
00001000
00000100
,
00000000
00000010
00000001
00000000
00001000
00000100
00000000
00010000
00000000
00001000
00000000
00100000
00010000
00000000
10000000
00000000
,
00010000
00000000
01000000
00000000
00100000
10000000
00000000
00100000
00000000
01000000
00000000
00001000
01000000
00010000
01000000
00010000
,
00000000
00100000
00001000
00000000
00010000
00000100
00000000
00001000
00000000
00000001
00000000
00000100
00000010
00000000
00001000
00000000
,
00000001
00000000
00000100
00000000
00000010
00000100
00000000
00000010
00000000
00001000
00000000
00000100
00010000
00001000
00010000
00001000
,
00000000
00100000
00010000
00000000
10000000
01000000
00000000
00100000
00000000
00010000
00000000
10000000
01000000
00100000
00010000
00100000
,
00001000
00000000
00010000
00000000
00000100
00001000
00000100
00001000
00000100
00000000
00000010
00000000
00000001
00000100
00000001
00000100
,
00000001
00000000
00000100
00000000
00001000
00010000
00001000
00010000
00001000
00000000
00010000
00000000
01000000
00000000
10000000
00000000
,
00100000
00000000
01000000
00000000
00001000
00010000
00001000
00010000
00001000
00000000
00000100
00000000
00000010
00001000
00000010
00001000
,
00000010
00000000
00000100
00000000
00000001
00001000
00000001
00001000
00000001
00000000
00000010
00000000
00001000
00000000
00010000
00000000
,
01000000
00000000
10000000
00000000
01000000
00100000
01000000
00100000
01000000
00000000
00010000
00000000
00000100
00001000
00000100
00001000
,
00000100
00000000
00000010
00000000
00000001
00001000
00000001
00001000
00000001
00000000
00001000
00000100
00001000
00000000
00000001
00000000
,
00000101
00001000
00010000
01000000
11000000
00100000
00010000
00001000
,
00001010
00000000
00000001
00000100
00000010
00000000
00000001
00000000
00001001
00000000
00000000
00000000
00000110
00000000
00000000
00000000
,
00001000
00000000
00000001
00000000
00000100
00000010
00000100
00000010
00000100
00000000
00001000
00000000
00100000
00001000
00100000
00001000
,
00100000
00000000
00010000
00000000
10000000
01000000
10000000
01000000
10000000
00000000
01000000
00000000
00010000
00000000
00001000
00000000
,
00000010
00000000
00000001
00000000
00001000
00000100
00001000
00000100
00001000
00000000
00000010
00000000
00010000
00001000
00010000
00001000
,
00010000
00000000
01000000
00000000
10000000
00010000
10000000
00010000
10000000
00000000
00100000
00000000
00010000
00000000
00001000
00000000
,
00000100
00000000
00000010
00000000
00001000
00000010
00001000
00000010
00001000
00000000
00000001
00000000
00000010
00000100
00000010
00000100
,
00000010
00000000
00001000
00000000
00010000
00001000
00010000
00001000
00010000
00000000
01000000
10000000
01000000
00000000
00010000
00000000
,
00001000
00000000
00000010
00000000
00000001
00000000
00001000
00000010
00001000
00000000
00000001
00000000
00000100
00000000
00001000
00000000
,
00010000
00000000
00100000
01000000
00010000
00000000
10000000
00010000
01000000
00000000
00100000
10000000
00010000
00000000
00100000
00000000
,
01000000
00000000
10000000
00000000
01000000
00010000
00001000
00000000
00000100
00000000
00000001
00000000
00001000
00000100
00000010
00000000
,
00000001
00000000
00000100
00000000
00001000
00010000
01000000
00000000
10000000
00000000
00010000
00000000
00100000
00000000
00010000
00000000
,
10000000
00000000
00100000
00000000
00010000
00001000
00000010
00000000
00000001
00000000
00000100
00000000
00000010
00001000
00000001
00000000
,
00001000
00000000
00000100
00000000
00010000
00001000
00100000
00001000
01000000
00000000
00010000
01000000
00100000
00000000
10000000
00000000
,
01000000
00000000
00010000
00001000
00010000
00000000
00001000
00000000
00000100
00000000
00001000
00000000
00010000
00000000
01000000
00000000
,
00010000
00001000
00000010
00000001
00000010
00001000
00100000
00010000
,
10000000
00100000
00010000
00001000
00000100
00010000
00001000
00000010
,
00000001
00000000
00001000
00000000
00000100
00000000
00000001
00000000
00000010
00000000
00000100
00000010
00000100
00000000
00001000
00000000
,
00000001
00000000
00000100
00000000
00001000
00010000
01000000
00000000
10000000
00000000
00010000
00000000
01000000
00100000
10000000
00000000
,
01000000
00000000
00010000
00000000
00001000
00000100
00000001
00000000
00000010
00000000
00000001
00000000
00001000
00000000
00000001
00000000
,
00000100
00000000
00001000
00000000
00010000
01000000
10000000
00000000
00010000
00000000
00100000
00000000
00001000
00010000
00000100
00000000
,
00001000
00000000
00000010
00000000
00000100
00000001
00001000
00000010
00001000
00000000
00000100
00001000
00000100
00000000
00010000
00000000
,
01000000
10000000
00100000
00010000
00001000
00000010
00001000
00010000
,
01000000
00010000
00001000
00000010
00001000
00010000
00100000
00010000
,
00000010
00000100
00001000
00010000
00000100
00001000
00010000
00100000
,
00001000
00010000
00100000
01000000
00010000
00100000
01000000
10000000
,
00010000
00100000
00010000
00000000
00100000
00000000
00001000
00000000
00010000
00000000
00000100
00000000
00001000
00000000
00000020
00000000
,
00000000
00001030
00000001
00000100
00000010
00001000
00000100
00010000
,
00001000
00100000
00010000
00000000
01000000
00000000
00100000
00000000
10000000
00000000
00100000
00000000
01000000
00000000
00002000
00000000
,
00000000
00013000
00001000
00000100
00000001
00000010
00000001
00001000
,
00000010
00000100
00000010
00000000
00010000
00000000
00001000
00000000
00100000
00000000
00010000
00000000
10000000
00000000
00020000
00000000
,
00000000
01030000
00100000
10000000
01000000
00010000
00001000
00000100
,
00000101
00001000
00000010
00000000
00011000
01000000
00010000
00000000
,
10010000
00000000
00000000
00000000
01100000
00000000
00000000
00000000
10010000
00000000
10000000
01000000
00100000
00000000
00001000
00000000
,
00010000
00001000
00010000
00000000
00000100
00000000
00000010
00000000
00000001
00000000
00001000
00000000
00000100
00000000
00000020
00000000
,
00000000
00000130
00010000
00001000
00010000
01000000
00100000
00001000
,
00010000
00001000
00100000
00000000
00010000
00000000
01000000
00000000
00001000
00000000
00010000
00000000
00001000
00000000
00000200
00000000
,
00000000
00000301
00001000
00000100
00000010
00001000
00010000
01000000
,
10000000
00100000
00010000
00001000
00000100
00001000
00010000
00100000
,
00010000
00001000
00000010
00001000
00010000
01000000
10000000
00010000
,
10000000
00010000
10000000
00010000
10000000
00000000
00100000
00000000
00010000
00001000
00010000
00001000
00010000
00000000
00000100
00000000
,
00000000
00000100
00000010
00000001
00000110
00000000
00001001
00000000
,
00000001
00000000
00000100
00000000
00000010
00001000
00000010
00001000
00000100
00000000
00010000
00000000
00001000
00100000
00001000
00100000
,
01000000
00000000
10000000
00000000
00010000
00100000
00010000
10000000
01000000
00000000
00100000
00000000
00010000
00000000
01000000
00000000
,
00001000
00000000
00010000
00000000
00000010
00001000
00000010
00001000
00000001
00000000
00000100
00000000
00001000
00010000
00001000
00010000
,
00100000
00000000
01000000
00000000
00010000
00100000
00010000
10000000
00100000
00000000
10000000
00000000
00010000
00000000
01000000
00000000
,
00010000
00000000
10000000
00000000
01000000
00100000
01000000
10000000
01000000
00000000
00100000
00000000
00001000
00010000
00001000
00010000
,
00000100
00000000
00000010
00000000
00000001
00001000
00000001
00000100
00000010
00000000
00001000
00000100
00001000
00000000
00000001
00000000
,
00000101
00001000
00010000
01000000
11000000
00100000
00010000
00001000
,
00001010
00000000
00000001
00000100
00000010
00000000
00000001
00000000
00002002
00000000
00003003
00000000
00000220
00000000
00000330
00000000
,
00000001
00000000
00001000
00000000
00000100
00010000
00001000
00100000
00010000
00000000
01000000
00000000
00100000
10000000
01000000
00010000
,
00001000
00000000
00010000
00000000
00001000
00010000
01000000
00100000
00010000
00000000
10000000
00000000
00010000
00000000
00100000
00000000
,
00001000
00000000
00100000
00000000
00001000
00010000
00000100
00001000
00000010
00000000
00000010
00000000
00001000
00000010
00000100
00001000
,
00010000
00000000
01000000
00000000
10000000
00010000
00100000
00001000
00010000
00000000
00000100
00000000
00000001
00000000
00000100
00000000
,
00001000
00000001
00001000
00000001
00000010
00000000
00000100
00000000
00010000
00001000
00010000
00001000
00100000
00000000
01000000
00000000
,
10000000
00010000
10000000
00010000
01000000
00001000
01000000
00001000
00010000
00000100
00010000
00000100
00001000
00000001
00001000
00000001
,
00000100
00000010
00000000
00000010
00001000
00000001
00000100
00001000
,
00010000
00000000
00000010
00001000
00000010
00000000
00010000
00001000
00010000
00000000
00001000
00100000
00010000
10000000
01000000
00100000
,
00010000
00000000
00000000
00000000
,
00000000
00000000
00000000
00000000
;
