
//----- song ID: newc -----//
#TITLE:New Century;
#ARTIST:Sota F.;
#BANNER:New Century.png;
#BACKGROUND:New Century-bg.png;
#CDTITLE:./CDTitles/DDR A.png;
#MUSIC:New Century.ogg;
#SAMPLESTART:7.059;
#SAMPLELENGTH:15;
#BPMS:0=97.5,12=195,140=97.5,148=195;
#NOTES:
     dance-single:
     :
     Beginner:
     4:
     :
0000
0000
0000
0000
,
0000
0000
0000
0000
,
0000
0000
0000
0000
,
0000
0010
0000
0010
,
0000
0000
0000
0010
,
0000
0100
0000
0100
,
0000
0000
0000
0100
,
0000
0010
0000
0010
,
0000
0000
0000
0010
,
0000
0100
0000
0100
,
0000
0000
0000
0100
,
0000
0001
0000
1000
,
1000
0000
0000
0001
,
0000
0010
0000
0001
,
0001
0000
0000
0001
,
0000
1000
0000
0010
,
0010
0000
0000
1000
,
0000
0001
0000
1000
,
0000
0000
0000
1001
,
0000
0000
0000
0010
,
0000
0001
0000
0010
,
0000
1000
0000
1000
,
0000
0001
0000
0001
,
0000
0000
0000
0100
,
0000
1000
0000
0100
,
0000
0001
0000
0000
,
0020
0000
0000
0030
,
0000
0000
0000
0001
,
0000
0000
0000
1000
,
0000
0010
0000
0100
,
0000
0000
0000
1001
,
0000
0000
0000
1000
,
0000
0000
0000
0001
,
0000
0100
0000
0010
,
0000
0000
0000
1001
,
0000
0010
0000
1000
,
0000
0001
0001
0001
,
0000
0000
0000
1000
,
1000
0000
0000
0010
,
0010
0000
0000
0001
,
0001
0001
0000
0100
,
0100
0000
0000
1000
,
1000
0000
0000
0010
,
0010
0000
0000
0001
,
0001
0000
0100
0000
,
2000
0000
3000
0002
,
0000
0000
0003
2000
,
0000
0000
3000
0002
,
0000
0000
0003
1001
,
0000
0010
0000
0010
,
0000
0010
0000
0010
,
0000
0100
0000
0100
,
0000
0100
0000
0100
,
0000
0001
0000
1000
,
0000
0001
0000
1000
,
0000
0010
0000
0010
,
0010
0000
0000
0010
,
0000
0100
0000
0100
,
0000
0100
0000
0100
,
0000
0010
0000
0010
,
0010
0000
0000
0010
,
0000
1000
0000
0001
,
0000
1000
0000
0001
,
0000
0010
0000
0010
,
0010
0000
0000
1001
,
0000
0000
0000
0010
,
0000
0000
0000
0010
,
0000
1000
0000
0010
,
0000
0001
0000
1000
,
0000
0000
1001
0000
,
0000
0000
0000
0100
,
0000
1000
0000
0100
,
0000
0001
0000
1000
,
2000
0000
0000
3000
,
0001
0000
1000
0000
,
0001
0001
0001
0002
,
0000
0000
0000
0000
,
0000
0000
0000
0000
,
0003
0000
0000
0000
,
0000
0000
0000
0000
;
#NOTES:
     dance-single:
     :
     Easy:
     9:
     :
0000
0000
0000
0000
,
0000
0000
0000
0000
,
0000
0000
0000
0000
,
0001
0010
0100
1001
,
1000
0010
0100
1001
,
0010
1000
0001
0100
,
0020
0000
0000
0030
,
1000
0100
0010
1001
,
0001
0100
0010
1001
,
0100
0001
1000
0010
,
2000
0000
0000
3010
,
0100
0000
0001
0000
0100
0010
0100
0000
,
0010
0000
1000
0000
0010
0100
0010
0000
,
0000
1001
0000
0110
,
1000
0200
0000
0310
,
0100
0000
1000
0000
0100
0010
0100
0000
,
0010
0100
0000
1001
,
0000
0110
0000
1001
,
0010
0200
0000
0310
,
1000
0002
0000
0013
,
0001
0000
1000
0000
0001
1000
0100
0000
,
0000
0110
0000
0000
0001
0000
0010
0000
,
0100
0000
0010
0000
0001
1000
0001
0000
,
0100
0020
0000
1030
,
0010
0000
1000
0000
0001
1000
0010
0000
,
0000
0110
0000
0000
0010
0000
1000
0000
,
0002
0000
0000
0000
0000
1003
0000
0000
,
0100
0000
1000
0000
0100
0000
1000
0010
,
1000
0000
0001
0000
1000
0000
0100
0010
,
0001
0010
0001
0000
1000
0010
1000
0000
,
0001
0100
0010
1001
,
0001
0000
0010
0000
0100
0000
0001
0100
,
0010
0000
0001
0000
0010
0000
0100
1000
,
0010
1000
0010
0000
0100
0001
0100
0000
,
0010
1000
0010
0110
,
1000
0100
0001
0000
0010
0100
0010
0000
,
0001
0010
1000
0000
0010
0001
1000
0000
,
1000
0010
0001
0010
,
1000
0100
0001
0100
,
1000
0010
0001
0010
,
1000
0100
0010
0000
0001
0100
0010
0000
,
0001
0010
1000
0100
,
0001
0100
1000
0010
,
0100
0001
0010
0100
,
1000
0010
0110
0000
,
0002
0000
0000
1003
,
0020
0000
0000
0130
,
0002
0000
0000
1003
,
0010
0100
0001
1001
,
0010
0000
0001
0000
1000
0001
0010
0000
,
0001
0100
0001
0000
1000
0100
1000
0000
,
0010
0000
1000
0000
0001
1000
0010
0000
,
1000
0100
1000
0000
0001
0100
0001
0000
,
0100
0110
0001
1001
,
0010
0110
0001
1001
,
0100
0001
1000
0000
0010
1000
0100
0000
,
0020
0000
0030
0110
,
0100
0000
1000
0000
0001
1000
0100
0000
,
1000
0010
1000
0000
0001
0010
0001
0000
,
0100
0000
0001
0000
1000
0001
0100
0000
,
0002
0000
0000
0003
,
0100
0110
0001
1001
,
0010
0110
0001
1001
,
0010
0100
1000
0000
0001
0010
0100
0000
,
0020
0000
0030
1001
,
0000
0000
0000
0010
,
0001
2000
0000
3010
,
1000
0000
0001
0000
1000
0001
0100
0000
,
0000
0110
0000
0000
1000
0001
1000
0000
,
0200
0000
0020
0330
2002
0000
3003
0000
,
0001
0020
0000
0031
,
0010
0000
0001
0000
1000
0001
0010
0000
,
0000
0110
0000
0000
1000
0010
0001
0000
,
2002
0000
3003
0000
,
0002
0003
0001
0000
2000
3000
1000
0000
,
0002
0003
0002
0003
0002
0003
0002
0000
,
0000
0000
0000
0000
,
0000
0000
0000
0000
,
0003
0000
0000
0000
,
0000
0000
0000
0000
;
#NOTES:
     dance-single:
     :
     Medium:
     14:
     :
0000
0000
0000
0000
,
0000
0000
0000
0000
,
0000
0000
0000
0000
,
1000
0010
0100
0000
0001
0010
0100
0000
,
1000
0100
0010
0001
0010
0100
1000
0000
,
0001
0010
0100
0000
1000
0010
0100
0000
,
0010
1000
0010
0200
0000
0000
0301
0000
,
0010
0100
1000
0000
0010
0100
0001
0000
,
1000
0100
0001
0100
1000
0002
0000
0000
,
0013
0001
1000
0000
1000
0100
0001
0000
,
0002
0023
2030
3002
0203
0000
0310
0000
,
0001
0010
0100
0010
0001
1000
0001
0010
,
0100
1000
0001
0100
0010
0100
0001
0000
,
1000
0010
1010
0000
0001
0010
0011
0000
,
0100
0000
1000
0010
0000
0000
0101
0000
,
0010
1000
0001
0100
0010
1000
0001
0000
,
0110
0000
1000
1000
0000
0101
0000
0010
,
1000
0100
0001
0000
0001
0100
1000
0000
,
0020
0032
2003
3200
0301
0000
0011
0000
,
0001
0010
0100
1000
0010
0100
0001
0010
,
0002
0023
0230
1300
,
0000
0101
0000
0010
1000
0100
0010
0001
,
0100
0010
0100
1000
0100
0001
0100
0001
,
0010
1000
0010
0100
0001
0100
1000
0010
,
0100
0010
0100
1000
0100
0001
1000
0000
,
0000
0110
0000
0001
1000
0001
0100
0010
,
2000
0000
0000
0000
0000
3100
0000
0000
,
1001
0000
0000
1001
0000
0000
0101
0000
0000
1100
0000
0000
1001
0000
0000
0000
,
0110
0000
0000
0110
0000
0000
1010
0000
0000
1001
0000
0000
0110
0000
0000
0000
,
1000
0001
0010
0001
1000
0001
0010
0000
,
0100
1000
0001
0100
0010
0000
1100
0000
,
1001
0000
0000
1001
0000
0000
1100
0000
0000
0101
0000
0000
1001
0000
0000
0000
,
0110
0000
0000
0110
0000
0000
0011
0000
0000
1001
0000
0000
0110
0000
0000
0000
,
0001
1000
0100
1000
0001
1000
0100
0000
,
0010
0100
0010
0001
1000
0000
1001
0000
,
0100
0000
1000
0001
1000
0000
0010
0000
0100
0001
1000
0010
0100
0000
1000
0100
,
1000
0000
0100
0001
0010
0000
0100
0000
1100
0000
0101
0000
2002
0000
3003
0000
,
0010
0000
0000
1000
0000
0000
0100
0000
0000
0010
0000
0000
0001
0000
0000
0000
,
0100
0000
0000
0010
0000
0000
1000
0000
0000
0100
0000
0000
0010
0000
0000
0000
,
0001
0000
0000
0100
0000
0000
0010
0000
0000
1000
0000
0000
0100
0000
0000
0000
,
0010
0001
0100
1000
0100
0001
1000
0100
,
0001
0000
0000
0100
0000
0000
1000
0000
0000
0001
0000
0000
0010
0000
0000
0000
,
1000
0000
0000
0010
0000
0000
0001
0000
0000
1000
0000
0000
0100
0000
0000
0000
,
0001
0000
0000
0100
0000
0000
1000
0000
0000
0001
0000
0000
0010
0000
0000
0000
,
1010
0011
2200
3300
,
0002
0000
0000
0203
0000
0000
0302
0000
,
2003
0000
0000
3020
0000
0000
2030
0000
,
3002
0000
0000
0023
0000
0000
0032
0000
,
0103
0001
1000
1001
,
1000
0100
0001
0100
0010
1000
0010
0001
,
0010
0100
0010
0100
0001
0100
0010
0001
,
1000
0100
1000
0100
0001
0100
0001
0100
,
1000
0001
0010
1000
0010
0100
1000
0100
,
1000
0100
0001
1000
0010
0001
1000
0100
,
0001
0100
1000
0001
0010
1000
0001
0100
,
0010
0001
1000
0100
0010
0100
0010
0001
,
0020
0000
0030
1010
,
0001
0100
1000
0100
0010
0001
0010
1000
,
0010
0100
0010
0100
1000
0100
0010
1000
,
0001
0100
0001
0100
1000
0100
1000
0100
,
0002
0000
0000
0000
0000
0003
0101
0000
,
0001
0100
1000
0001
0010
1000
0001
0100
,
1000
0100
0001
1000
0010
0001
1000
0100
,
0001
0100
0010
0001
0100
0001
0010
1000
,
0010
0100
1000
0100
0001
0000
0002
2000
,
0000
0000
3003
0110
,
1000
0010
0100
0001
0010
0100
1000
0010
,
2000
3020
0230
0301
,
0000
1100
0000
0010
0001
0100
0010
1000
,
0200
0000
0020
0330
1001
0000
0100
1000
,
0010
0001
0010
0100
1000
0100
0001
0010
,
0100
0010
0100
0001
0100
1000
0001
0100
,
0000
0110
0000
1000
0001
1000
0100
0010
,
0002
2000
3003
0000
,
0002
0013
0001
0000
2000
3010
1000
0000
,
0002
0013
0200
1300
0020
0130
0002
0000
,
0000
0000
0000
0000
,
0000
0000
0000
0000
,
0003
0000
0000
0000
,
0000
0000
0000
0000
;
#NOTES:
     dance-single:
     :
     Hard:
     17:
     :
0000
0000
0000
0000
,
0000
0000
0000
0000
,
0000
0000
0000
0000
0000
0000
0000
0000
0002
0000
0010
0000
1003
0100
1000
0000
,
0001
0100
0010
1000
0010
0100
0001
0010
,
0001
0000
0100
0010
1000
0000
0010
0000
1000
0001
0010
0000
0100
0000
1000
0000
,
0100
0010
0001
0100
1000
0100
0001
0010
,
0001
0000
0010
0001
0100
0000
0020
0000
0000
0000
1030
0000
0001
0100
0010
0000
,
1000
0010
0100
0010
0100
0001
0100
0010
,
1000
0000
0100
1000
0010
0000
0100
0000
0001
0010
0100
0000
0010
0000
0001
0000
,
0010
0100
1000
0010
0001
0010
1000
0100
,
0001
0000
0100
1000
0020
0000
0200
0000
0000
0000
0330
0000
1001
0000
0000
0000
,
1000
0000
0010
0000
0100
0000
0001
0100
0010
0000
0100
0000
0010
0000
1000
0000
,
0010
1000
0100
0010
0001
0000
0100
0010
1000
0001
0010
0000
0100
0000
1000
0000
,
0010
0010
1100
0000
0010
0010
0101
0000
,
0010
0000
0001
0010
0100
0000
1200
0000
0000
0000
1300
0000
0010
0000
0000
0000
,
1000
0000
0010
0000
0100
0000
0001
1000
0010
0000
0100
0000
0010
0000
1000
0000
,
0101
0000
0000
0000
1100
0000
1001
0000
0000
0000
0011
0000
0000
0000
0100
1000
,
0010
0000
1000
0000
0001
0010
0100
0000
1000
0000
0010
0000
0001
0010
0100
0000
,
2000
3200
0320
0032
0023
0030
1001
0000
,
0001
0100
1000
0001
0010
1000
0100
0010
,
1000
0000
0010
0000
0001
0000
0010
0000
0100
0000
1000
0000
0010
1000
0010
0000
,
0100
0000
0001
0100
0001
0000
1000
0000
0100
1000
0100
0000
0010
0000
0001
0010
,
0100
0000
1000
0010
0100
0000
0010
1000
0001
0000
1000
0000
0100
0000
0010
0000
,
0100
1000
0100
0010
0001
0100
0010
1000
,
0010
0100
0001
0100
0001
0000
0100
0001
0010
0001
0010
0000
0200
0000
0000
0300
,
0000
0000
1001
0000
0000
0000
0010
0001
0100
0000
0100
1000
0010
0000
1000
0001
,
0020
0000
0000
0000
0000
0130
0000
0000
,
1001
0000
0000
0110
0000
0000
1100
0000
0000
0011
0000
0000
0110
0000
0000
0000
,
0011
0000
0000
0101
0000
0000
1100
0000
0000
1010
0000
0000
0110
0000
0000
0000
,
0001
0000
1000
0010
1000
0000
0001
0010
0001
0000
1000
0010
1000
0000
0001
0000
,
0010
0100
0000
1000
0010
0000
1000
0000
0100
0000
0001
0000
0100
0000
0000
0000
,
1001
0000
0000
0110
0000
0000
0101
0000
0000
1010
0000
0000
0110
0000
0000
0000
,
1010
0000
0000
1100
0000
0000
0101
0000
0000
0011
0000
0000
0110
0000
0000
0000
,
1000
0000
0001
0100
0001
0000
1000
0100
1000
0000
0001
0100
0001
0000
1000
0000
,
0100
0010
0000
0001
0010
0000
0100
0000
0010
0000
0001
0000
1000
0000
0000
0000
,
0101
0000
0000
0000
0100
0000
0010
0000
1000
0000
0000
0000
0010
0000
0000
0000
0100
0001
1000
0000
0010
0000
0100
0001
0100
0000
0000
0000
0010
0000
1000
0000
,
0010
0000
0000
0000
0100
0010
0001
0000
0010
0100
0001
1000
0010
0000
1000
0000
1010
0000
0000
0000
1100
0000
0000
0000
2002
0000
0000
0000
3003
0000
0000
0000
,
0100
0000
0000
1000
0010
0000
0100
0000
0000
0001
0010
0000
0110
0000
0000
0000
,
0010
0000
0000
0001
0100
0000
0010
0000
0000
1000
0100
0000
0110
0000
0000
0000
,
0100
0000
0000
1000
0010
0000
0100
0000
0000
0001
0010
0000
0110
0000
0000
0000
,
0010
0001
0010
0001
1000
0010
1000
0010
0100
0001
0010
0001
1000
0100
1000
0001
,
0010
0000
0000
0001
0100
0000
0010
0000
0000
1000
0100
0000
0101
0000
0000
0000
,
0100
0000
0000
1000
0100
0000
0010
0000
0000
0001
0100
0000
1100
0000
0000
0000
,
0100
0000
0000
0001
0100
0000
0010
0000
0000
1000
0100
0000
0101
0000
0000
0000
,
0110
0000
0000
0000
1100
0000
0000
0000
1001
0000
0000
0010
0000
0000
0010
0000
,
2000
0000
0000
0200
3000
0000
0320
0000
,
0002
0030
0000
0200
0003
0000
0320
0000
,
2000
0030
0000
0002
3000
0000
0013
0000
,
0101
1010
0110
1001
,
0001
0000
1000
0100
0010
0000
0001
0010
0100
0000
0010
0001
1000
0000
0100
0000
,
0010
0001
1000
0100
0001
1000
0010
0100
,
1000
0000
0001
0100
0010
0000
1000
0010
0100
0000
0010
1000
0001
0000
0100
0000
,
0010
1000
0001
0100
1000
0001
0010
0100
,
0001
0000
0010
0000
0100
0000
0001
0000
0010
0000
0001
0000
0100
0010
0100
0010
,
1000
0000
0010
0000
0100
0000
1000
0000
0010
0000
0100
0000
1000
0010
1000
0010
,
1000
0000
0100
0000
0001
0000
0010
0000
1000
0000
0001
0000
0100
1000
0100
1000
,
0001
0100
0001
1000
0010
0000
1000
0010
1000
0001
0100
0000
0010
1000
0001
0100
,
0010
0000
1000
0100
0010
0000
0001
0010
0100
0000
0010
0001
1000
0000
0100
0000
,
0010
0001
1000
0100
0001
1000
0010
0100
,
1000
0000
0001
0100
0010
0000
1000
0010
0100
0000
0010
1000
0001
0000
0100
0000
,
0020
0000
1030
0200
0000
1300
0010
0100
,
0001
0000
0010
0100
1000
0000
0001
1000
0010
0000
0100
0010
1000
0000
0001
0000
,
0010
0000
0001
1000
0100
0000
1000
0001
0100
0000
0001
1000
0100
0000
0010
0000
,
0100
1000
0100
1000
0001
0100
0001
0000
0010
0001
0010
0001
1000
0010
1000
0000
,
0001
0100
0001
1000
0010
0000
0100
0001
0100
0010
1000
0000
0010
1000
0001
0100
,
0002
1000
1003
1010
,
1000
0100
0001
1000
0010
0001
0100
0010
,
0001
0000
0010
0000
1000
0000
0010
0000
0100
0000
0001
0000
0010
0001
0010
0000
,
0100
0000
1000
0100
1000
0000
0001
0000
0100
0001
0100
0010
1000
0100
0010
0001
,
0200
0000
0000
0000
0020
0000
0330
0000
1001
0000
0000
0000
0100
0000
1000
0001
,
0010
0001
0100
0010
1000
0100
0010
0001
,
0010
0001
1000
0100
0010
0000
0100
1000
0010
0100
0001
0000
0100
0000
1000
0000
,
0000
0000
0110
0000
0000
0000
1000
0100
0001
0000
0001
0010
1000
0000
1000
0100
,
0001
0110
2002
3003
,
1000
0010
1000
0010
1000
0000
0000
0000
0001
0010
0001
0010
0001
0000
0000
0000
,
0010
0100
0010
0100
0010
0100
0010
0100
0010
0100
0010
0100
0020
0000
0000
0000
,
0000
0000
0000
0000
,
0000
0000
0000
0000
,
0030
0000
0000
0000
,
0000
0000
0000
0000
;
#NOTES:
     dance-single:
     :
     Challenge:
     18:
     :
0000
0000
0000
0000
,
0000
0000
0000
0000
,
0000
0000
0000
0000
0000
0000
0000
0000
0101
0000
1010
0000
1000
0010
0001
0000
,
1000
0000
0001
0000
0010
0000
1000
0100
0010
0000
1000
0000
0001
0000
0100
0000
,
0020
0000
0031
1000
0200
0000
0320
0000
0031
1000
0020
0000
0130
0000
0001
0000
,
0010
0000
0010
0000
1000
0000
0100
0000
0010
0100
0010
0000
0001
0000
0001
0000
,
1010
0000
1010
0000
0011
0000
0021
0000
0000
0000
1030
0000
0001
0100
1000
0000
,
0001
0000
1000
0000
0100
0010
0001
0100
0010
0000
1000
0000
0100
0000
1000
0000
,
0200
0000
1300
0001
0020
0000
0230
0000
1300
0001
0200
0000
0310
0000
0001
0000
,
1000
0000
0100
0000
1000
0000
0100
0010
0100
0000
0100
0000
0001
0000
0010
0000
,
1000
0000
0010
0001
1000
0000
0010
0000
0110
0000
0000
0000
1001
0000
0000
0000
,
0100
0000
1000
0000
0100
0001
0100
0000
0001
0000
0100
0000
0110
0000
0000
0000
,
1000
0001
0010
0100
1000
0000
0010
0100
0001
1000
0100
0000
0010
0000
0001
0000
,
0101
0101
0011
0000
1100
1100
1010
0000
,
0100
0001
1000
0100
0010
0000
0021
0000
0000
0000
1030
0000
0001
0000
0000
0000
,
0001
0000
0100
0000
0010
0000
0001
1000
0010
0000
0100
0000
0100
0000
1000
0000
,
1020
0000
0030
0000
0021
0000
1030
0000
0000
0000
2200
0000
3300
0000
0010
0001
,
0100
0000
0010
0000
0100
0001
1000
0000
0100
0000
0001
0000
0100
0001
1000
0000
,
0010
0100
0010
0010
2000
3000
1001
0000
,
1000
0000
0001
0100
0001
0000
1000
0000
0100
0010
0001
0000
0010
0000
0100
0000
,
1000
0000
0010
0000
0001
0000
0010
0000
1000
0000
0001
0000
0010
0001
0010
0000
,
0100
0000
1000
0001
1000
0100
0002
0000
0000
0000
0103
0000
1100
0000
1000
0010
,
0001
0000
0010
0000
0100
0010
1000
0001
0010
0000
0100
0000
1001
0000
0000
0000
,
0001
0000
0100
1000
0100
0000
0001
0000
0100
0010
1000
0000
0100
0000
0010
0000
,
0001
0010
0100
1000
0001
0000
0001
1000
0010
0100
0001
0000
0020
0000
0000
0000
,
0130
0000
1001
0000
0000
0000
0100
1000
0001
0100
0010
1000
0001
0010
0100
1000
,
0010
0000
0001
0000
0010
0000
1000
0100
0000
0010
0001
0000
0100
0000
0000
0000
,
2200
3300
0000
2020
3030
0000
0022
0033
0000
0202
0303
2000
0200
3300
0000
0000
,
0022
0033
0000
0202
0303
0000
2200
3300
0000
2020
3030
0002
0020
0033
0000
0000
,
0010
0100
0001
0100
0001
0000
1000
0000
0010
0100
0001
0100
0001
0000
0010
0000
,
0100
1000
0000
0001
0010
0000
0100
0000
1000
0000
1000
0000
1010
0000
0000
0000
,
2002
3003
0000
2200
3300
0000
0220
0330
0000
0202
0303
2000
0002
3003
0000
0000
,
0220
0330
0000
0202
0303
0000
2002
3003
0000
0022
0033
2000
0020
3030
0000
0000
,
0010
0100
1000
0100
1000
0000
0001
0000
0010
0100
1000
0100
1000
0000
0001
0000
,
0010
1000
0000
0100
0001
0000
0100
0000
0010
0000
0010
0000
0110
0000
0000
0000
,
1020
0000
0000
0000
0031
0000
0100
0000
1000
0000
0000
0000
0100
0000
0000
0000
0001
1000
0001
0010
1000
0000
0010
0000
0002
0000
0000
0000
1003
0000
0000
0000
,
0020
0000
0000
0000
0031
0100
1000
0000
0100
0010
1000
0001
0100
0000
0010
0000
0110
0000
0000
0000
0110
0000
0000
0000
2002
0000
0000
0000
3003
0000
0000
0000
,
1010
0000
0000
0001
0100
0000
0010
0000
0000
1000
0100
0000
0220
0000
0330
0000
,
0011
0000
0000
1000
0100
0000
0010
0000
0000
0001
0100
0000
0220
0000
0330
0000
,
1001
0000
0000
0010
0100
0000
0010
0000
0000
1000
0001
0000
2002
0000
3003
0000
,
0100
1000
0010
1000
0001
0010
0001
0100
0010
1000
0100
0010
1000
0010
0001
1000
,
0001
0000
0000
0001
0010
0000
0100
0000
1000
0001
0100
0000
0220
0000
0330
0000
,
1000
0000
0000
1000
0010
0000
0100
0000
0001
1000
0010
0000
0220
0000
0330
0000
,
0100
0000
0000
0100
0010
0000
1000
0000
0001
0010
0100
0000
0220
0000
0330
0000
,
1100
0000
0101
0000
2002
0000
0000
3003
,
0001
0000
1000
0001
0010
0000
0001
0000
0000
0010
0100
0000
0100
1000
0100
1000
,
0001
0000
1000
0001
0100
0000
0001
0000
0000
0100
0010
0000
0010
1000
0000
1000
,
0001
0000
1000
0001
0010
0000
0001
0000
0000
0010
0000
0000
0100
1000
0100
1000
,
0020
0030
0000
0000
2002
3003
0000
0020
0230
0320
0030
0000
MMMM
0000
0000
0000
,
1000
0000
1000
0100
0010
0000
0001
0100
0010
0000
1000
0001
0100
0000
0010
0000
,
1000
0000
MMMM
0000
0010
0001
1000
0000
MMMM
0000
0100
0001
1000
0000
0010
0000
,
0001
0000
0001
0010
0100
0000
0010
1000
0100
0000
0010
0001
1000
0000
0001
0000
,
0010
0000
MMMM
0000
1000
0001
0010
0000
MMMM
0000
1000
0000
0100
0000
0010
0000
,
0001
0000
0100
0000
1000
0000
0100
0000
0001
0000
0100
0000
1000
0100
0010
0100
,
0001
0000
MMMM
0000
0010
1000
0010
0000
MMMM
0000
0001
0010
0001
1000
0010
1000
,
0001
0010
1000
0001
0100
0010
0001
1000
,
0010
1000
0001
0100
0001
1000
0010
0100
0010
1000
0001
1000
0100
0000
MMMM
0000
,
0001
0000
0001
0010
0100
0000
1000
0100
0010
0000
0001
0100
0010
0000
0100
0000
,
1000
0000
MMMM
0000
0001
0010
1000
0000
MMMM
0000
1000
0010
0001
0000
1000
0000
,
0010
0000
1000
0010
0100
0000
0001
0100
0010
0000
0100
0001
1000
0000
0010
0000
,
0200
0000
0301
0020
0000
1030
1001
MMMM
,
1000
0000
1000
0001
0100
0000
0001
0010
0100
0000
1000
0010
0100
0000
0001
0000
,
0010
0000
MMMM
0000
1000
0100
0010
0000
MMMM
0000
1000
0010
0100
0000
0001
0000
,
1000
0001
0010
0001
0100
0010
1000
0100
0001
0100
0010
0100
0010
0001
0010
1000
,
0010
0100
1000
0001
0100
0010
1000
0001
0010
0100
1000
0010
0001
0010
1000
0001
,
0020
0100
0130
MMMM
,
0001
0000
1000
0010
1000
0000
0001
0000
0010
0100
1000
0000
0100
0000
0010
0000
,
0001
0000
0100
0000
1000
0000
0100
0000
0001
0000
1000
0000
0100
1000
0100
0000
,
0010
0000
0001
1000
0001
0010
2000
0000
0000
0000
3010
0000
0001
0000
0000
0000
,
0110
0000
0100
0000
0110
0000
0000
0000
0101
0000
0000
0000
MMMM
0000
0010
1000
,
0100
0000
1000
0000
0010
0000
0100
0001
0010
0000
0001
0000
0100
0000
1000
0000
,
0100
0001
0010
1000
0010
0100
0010
0001
0100
0010
1000
0001
0010
0100
1000
0001
,
0100
0000
0010
0000
0100
0000
0001
0010
0100
1000
0001
0100
1000
0001
0010
0100
,
1000
0000
1000
0000
0100
0000
0001
0010
0000
0010
1000
0000
MMMM
0000
MMMM
0000
,
1001
0110
1001
MMMM
0110
1001
0110
MMMM
,
1001
0110
1001
1001
0110
1001
0220
0000
,
0000
0000
0000
0000
,
0000
0000
0000
0000
,
0330
0000
0000
0000
,
0000
0000
0000
0000
;
#NOTES:
     dance-double:
     :
     Easy:
     8:
     :
00000000
00000000
00000000
00000000
,
00000000
00000000
00000000
00000000
,
00000000
00000000
00000000
00000000
,
00010000
00100000
01000000
10010000
,
10000000
00100000
01000000
10010000
,
00100000
10000000
00010000
00100000
,
00002000
00000000
00000000
00003000
,
00001000
00000100
00000010
00001001
,
00000001
00000100
00000010
00001001
,
00000100
00000001
00001000
00000010
,
00020000
00002000
00033000
00001000
,
00100000
00001000
00010000
00011000
,
00000010
00010000
00001000
00011000
,
00000000
01010000
00000000
00011000
,
00100000
00020000
00000000
10030000
,
01000000
00010000
01000000
01100000
,
00100000
00010000
00000000
00011000
,
00000000
00001100
00000000
00011000
,
00000020
00002000
00003030
00001001
,
00000100
00000002
00000000
00000103
,
00001000
00010000
00100000
01000000
,
00000000
01100000
00000000
00000000
00010000
00000000
00100000
00000000
,
01000000
00100000
00010000
10000000
,
01000000
20000000
00000000
31000000
,
00010000
00001000
00000010
00000100
,
00000000
00001001
00000000
00000000
00001000
00000000
00000010
00000000
,
00000200
00000000
00000000
00000000
00000000
00000301
00000000
00000000
,
00000001
00000100
00001000
00010000
,
00010000
00001000
00000100
00000001
,
00001000
00000100
00010000
00001000
,
00100000
00000000
00000000
10010000
,
10000000
01000000
00010000
00001000
,
00001000
00010000
01000000
10000000
,
00010000
01000000
00001000
00010000
,
00000010
00000000
00000000
00000110
,
00001000
00000000
00010000
00000000
00100000
01000000
00100000
00000000
,
10000000
00000000
01000000
00000000
00010000
00001000
00010000
00000000
,
00001000
00000010
00000001
00000100
,
00001000
00000100
00000001
00000010
,
00001000
00000010
00000001
00000100
,
00001000
00010000
00001000
01000000
,
10000000
01000000
00010000
00100000
,
10000000
00100000
00010000
01000000
,
10000000
01000000
00010000
00001000
,
00000010
00000100
00001001
00000000
,
00000020
00000000
00000000
00001030
,
00000200
00000000
00000000
00010300
,
00000020
00000000
00000000
00001030
,
00000001
00001000
00000001
00000110
,
00000001
00000100
00001000
00010000
,
00100000
00000000
10000000
00000000
00010000
10000000
00010000
00000000
,
10000000
01000000
00010000
00001000
,
00000010
00000000
00000001
00000000
00001000
00000001
00001000
00000000
,
00000001
00000100
00001000
00010000
,
00100000
00010000
00001000
00000100
,
00000001
00000010
00000100
00000010
,
00000002
00000000
00000003
00000110
,
00000001
00000010
00001000
00010000
,
01000000
00000000
10000000
00000000
00010000
10000000
00010000
00000000
,
10000000
01000000
00010000
00001000
,
00020000
00000000
00000000
00030000
,
00001000
00000010
00000001
00000100
,
00001000
00010000
00001000
00000010
,
00000001
00000100
00001000
00010000
,
00200000
00000000
00300000
10010000
,
00000000
00000000
00000000
00100000
,
01000000
20000000
00000000
31000000
,
00010000
00001000
00000010
00000100
,
00000000
00000110
00000000
00000000
00001000
00000000
00000010
00000000
,
00000200
00000000
00000020
00000330
00002002
00000000
00003003
00000000
,
00000100
00000002
00000000
00000103
,
00001000
00010000
00100000
01000000
,
00000000
01100000
00000000
00000000
01000000
00000000
00010000
00000000
,
20020000
00000000
30030000
00000000
,
00020000
00030000
00010000
00000000
20000000
30000000
10000000
00000000
,
00020000
00030000
00020000
00030000
00020000
00030000
00020000
00000000
,
00000000
00000000
00000000
00000000
,
00000000
00000000
00000000
00000000
,
00030000
00000000
00000000
00000000
,
00000000
00000000
00000000
00000000
;
#NOTES:
     dance-double:
     :
     Medium:
     14:
     :
00000000
00000000
00000000
00000000
,
00000000
00000000
00000000
00000000
,
00000000
00000000
00000000
00000000
,
10000000
00100000
01000000
00000000
00010000
00100000
01000000
00000000
,
00010000
00001000
00010000
00001000
00010000
00000100
00000010
00000000
,
00000001
00000010
00000100
00000000
00001000
00000010
00000100
00000000
,
00001000
00010000
00001000
00020000
00000000
00000000
00130000
00000000
,
01000000
00100000
10000000
00000000
01000000
00100000
00010000
00000000
,
10000000
01000000
00010000
01000000
10000000
00020000
00000000
00000000
,
00130000
00010000
00001000
00000000
00000100
00000010
00000001
00000000
,
00002000
00003020
00000032
00002003
00003200
00000000
00000310
00000000
,
00001000
00000100
00000010
00000100
00001000
00000001
00001000
00000000
,
00000010
00001000
00010000
00001000
00000010
00010000
00001000
00000000
,
00100000
00010000
00110000
00000000
01000000
00010000
01010000
00000000
,
10000000
00000000
01000000
00010000
00000000
00000000
00011000
00000000
,
00001000
00100000
00010000
01000000
00100000
01000000
00010000
00000000
,
01100000
00000000
10000000
10000000
00000000
01010000
00000000
00100000
,
00010000
00001000
00000100
00000000
00000001
00000100
00001000
00000000
,
00020000
00032000
00003200
00000320
00001030
00000000
00010000
00000000
,
00010000
10000000
01000000
10000000
00100000
01000000
00010000
00100000
,
00020000
00230000
02300000
03010000
,
00000000
00011000
00000000
00000010
00001000
00000100
00000010
00000001
,
00000100
00000010
00000100
00001000
00000100
00000001
00001000
00000001
,
00000010
00000100
00000010
00000100
00010000
00001000
00010000
00100000
,
01000000
00100000
01000000
00010000
00100000
01000000
00100000
00000000
,
00000000
00011000
00000000
00000010
00001000
00000010
00000100
00001000
,
00020000
00000000
00000000
00000000
00000000
00031000
00000000
00000000
,
00011000
00000000
00000000
00011000
00000000
00000000
00101000
00000000
00000000
00011000
00000000
00000000
00010010
00000000
00000000
00000000
,
00000110
00000000
00000000
00000110
00000000
00000000
00000101
00000000
00000000
00000110
00000000
00000000
00001010
00000000
00000000
00000000
,
00000001
00000100
00000010
00000100
00000001
00000100
00001000
00000000
,
00010000
00001000
00100000
00001000
00000000
00000000
00110000
00000000
,
00011000
00000000
00000000
00011000
00000000
00000000
00010010
00000000
00000000
00011000
00000000
00000000
00101000
00000000
00000000
00000000
,
01100000
00000000
00000000
01100000
00000000
00000000
11000000
00000000
00000000
01100000
00000000
00000000
00110000
00000000
00000000
00000000
,
10000000
00100000
01000000
00100000
10000000
00100000
00010000
00000000
,
00001000
00010000
00001000
00000010
00000000
00000000
00001001
00000000
,
00000100
00000000
00000001
00001000
00000001
00000000
00000010
00000000
00000100
00001000
00000001
00000010
00000100
00000000
00010000
00001000
,
00010000
00000000
00000100
00001000
00000010
00000000
00000100
00000000
00000101
00000000
00001100
00000000
00002002
00000000
00003003
00000000
,
00000010
00000000
00000000
00000100
00000000
00000000
00001000
00000000
00000000
00010000
00000000
00000000
00100000
00000000
00000000
00000000
,
01000000
00000000
00000000
00100000
00000000
00000000
00010000
00000000
00000000
00001000
00000000
00000000
00000100
00000000
00000000
00000000
,
00000010
00000000
00000000
00000100
00000000
00000000
00001000
00000000
00000000
00010000
00000000
00000000
00100000
00000000
00000000
00000000
,
01000000
00100000
00010000
00100000
01000000
00010000
01000000
00100000
,
00010000
00000000
00000000
00001000
00000000
00000000
00000100
00000000
00000000
00000010
00000000
00000000
00001000
00000000
00000000
00000000
,
00010000
00000000
00000000
01000000
00000000
00000000
00100000
00000000
00000000
00010000
00000000
00000000
00001000
00000000
00000000
00000000
,
00000100
00000000
00000000
00000010
00000000
00000000
00001000
00000000
00000000
00010000
00000000
00000000
01000000
00000000
00000000
00000000
,
01100000
00110000
20020000
30030000
,
00200000
00000000
00000000
00302000
00000000
00000000
00013000
00000000
,
00200000
00000000
00000000
02300000
00000000
00000000
03001000
00000000
,
00020000
00000000
00000000
00230000
00000000
00000000
01300000
00000000
,
10000000
00010000
00001000
00011000
,
00010000
01000000
10000000
01000000
00100000
00010000
00100000
10000000
,
00100000
00010000
00100000
00010000
00001000
00000100
00000010
00000100
,
00000001
00000100
00000001
00000100
00001000
00000100
00001000
00000100
,
00000001
00001000
00000010
00000001
00000010
00000100
00000010
00001000
,
00000001
00000100
00001000
00010000
00100000
10000000
00010000
01000000
,
10000000
01000000
00010000
00001000
00000010
00000001
00001000
00000100
,
00000010
00000100
00000001
00000100
00000010
00000100
00000010
00001000
,
00000020
00000000
00000000
00000000
00000000
00000000
00000000
00000000
00000000
00000000
00000000
00000000
00000000
00000000
00000000
00000000
00000000
00000000
00000000
00000000
00000000
00000000
00000000
00000000
00000000
00000000
00000000
00000000
00000000
00000000
00000000
00000000
00000000
00000000
00000000
00000000
00000000
00000000
00000000
00000000
00000000
00000000
00000000
00000000
00000000
00000000
00000000
00000000
00000000
00000000
00000000
00000000
00000000
00000000
00000000
00000000
00000000
00000000
00000000
00000000
00000000
00000000
00000000
00000000
00000000
00000000
00000000
00000000
00000000
00000000
00000000
00000000
00000000
00000000
00000000
00000000
00000000
00000000
00000000
00000000
00000000
00000000
00000000
00000000
00000000
00000000
00000000
00000000
00000000
00000000
00000000
00000000
00000000
00000000
00000000
00000030
00000000
00000000
00000000
00000000
00000000
00000000
00000000
00000000
00000000
00000000
00000000
00000000
00000000
00000000
00000000
00000000
00000000
00000000
00000000
00000000
00000000
00000000
00000000
00000000
00000000
00000000
00000000
00000000
00000000
00000000
00000000
00000000
00000000
00000000
00000000
00000000
00000000
00000000
00000000
00000000
00000000
00000000
00000000
00000000
00000000
00000000
00000000
00000000
00000110
00000000
00000000
00000000
00000000
00000000
00000000
00000000
00000000
00000000
00000000
00000000
00000000
00000000
00000000
00000000
00000000
00000000
00000000
00000000
00000000
00000000
00000000
00000000
00000000
00000000
00000000
00000000
00000000
00000000
00000000
00000000
00000000
00000000
00000000
00000000
00000000
00000000
00000000
00000000
00000000
00000000
00000000
00000000
00000000
00000000
00000000
00000000
,
00001000
00000100
00000001
00000100
00000010
00001000
00000010
00000001
,
00000010
00001000
00000010
00001000
00010000
01000000
00100000
01000000
,
10000000
01000000
10000000
01000000
00010000
01000000
00010000
01000000
,
20000000
00000000
00000000
00000000
00000000
30000000
11000000
00000000
,
10000000
01000000
00010000
00001000
00000010
00000001
00001000
00000100
,
00000001
00000100
00001000
00010000
00100000
10000000
00010000
01000000
,
00100000
01000000
10000000
01000000
00100000
01000000
00010000
00001000
,
00010000
00001000
00000010
00000001
00000010
00000000
00000002
00002000
,
00000000
00000000
00003003
00000110
,
00001000
00000001
00000100
00000001
00000010
00000100
00001000
00000010
,
00002000
00003020
00000230
00001300
,
00000000
00011000
00000000
00100000
00010000
01000000
00100000
10000000
,
02000000
00000000
00200000
03300000
10010000
00000000
00010000
10000000
,
00100000
00010000
00100000
01000000
00001000
00010000
00001000
00000010
,
00000001
00000010
00000100
00001000
00000010
00000100
00000010
00001000
,
00000000
00011000
00000000
00100000
00010000
00100000
01000000
00010000
,
00002000
00020000
00033000
00000000
,
00002000
00003010
00001000
00000000
00020000
00130000
00010000
00000000
,
00002000
00013000
00002000
00013000
00002000
00013000
00002000
00000000
,
00000000
00000000
00000000
00000000
,
00000000
00000000
00000000
00000000
,
00003000
00000000
00000000
00000000
,
00000000
00000000
00000000
00000000
;
#NOTES:
     dance-double:
     :
     Hard:
     17:
     :
00000000
00000000
00000000
00000000
,
00000000
00000000
00000000
00000000
,
00000000
00000000
00000000
00000000
00000000
00000000
00000000
00000000
00000002
00000000
00000103
00000000
00001000
00010000
00001000
00000000
,
00100000
00010000
01000000
00100000
10000000
01000000
00010000
00001000
,
00010000
00100000
00010000
00001000
00000010
00001000
00010000
00001000
,
00000100
00000001
00000100
00001000
00000001
00001000
00000100
00000001
,
00001000
00000000
00000000
00000010
00001000
00000000
00000020
00000000
00000000
00000000
00000031
00000000
00000010
00000000
00001000
00000000
,
00010000
01000000
00100000
00010000
00001000
01000000
00100000
00010000
,
00001000
00000100
00001000
00010000
01000000
00010000
00001000
00010000
,
00000010
00001000
00000010
00000000
00001000
00000000
00010000
00000000
01000000
00010000
01000000
00000000
00010000
00000000
00001000
00000000
,
00000010
00000000
00001000
00000010
00000200
00000000
00000002
00000000
00000000
00000000
00000303
00000000
00001010
00000000
00000000
00000000
,
00000010
00001000
00000100
00000010
00000001
00000010
00001000
00010000
,
00001000
00000000
00100000
00010000
00100000
00000000
00001000
00000000
00010000
00000100
00010000
00000000
00001000
00000000
00100000
00000000
,
00010000
00010000
11000000
00000000
00100000
00100000
01010000
00000000
,
10000000
01000000
00010000
00021000
00000000
00031000
00000010
00000000
,
00001000
00010000
01000000
00100000
00001000
00010000
01000000
10000000
,
00100000
00000000
00011000
00010010
00000000
00001001
00000000
00000100
,
00001000
00000000
00000001
00000000
00001000
00000010
00000100
00000000
00000010
00000000
00001000
00000000
00000001
00000010
00000100
00000000
,
00002000
00023000
00230000
00320000
00031000
00000000
00110000
00000000
,
01000000
00010000
00001000
00100000
00010000
00001000
00000100
00000010
,
00001000
00000000
00010000
00000000
00000010
00000000
00000100
00000000
00001000
00000000
00010000
00000000
00100000
01000000
00100000
00000000
,
00010000
00000000
00000010
00001000
00000010
00000000
00001000
00000000
00100000
00000000
00010000
00000000
00001000
00000000
00010000
00000000
,
00001000
00000000
00100000
00010000
01000000
00000000
00001000
00100000
00010000
00000000
00100000
00000000
00010000
00000000
00001000
00000000
,
00000100
00001000
00010000
00000010
00001000
00010000
01000000
00100000
,
00010000
00100000
00010000
00100000
00001000
00000000
00010000
00000000
00001000
00000000
00000000
00000000
00001001
00000000
00000000
00000000
,
00000000
00000000
00000110
00000000
00000000
00000000
00000010
00000001
00000100
00000000
00000010
00000100
00000001
00000000
00001000
00000100
,
00000020
00000000
00000000
00000000
00000000
00001030
00000000
00000000
,
00011000
00000000
00000000
00010010
00000000
00000000
00001010
00000000
00000000
00000101
00000000
00000000
00001100
00000000
00000000
00000000
,
00011000
00000000
00000000
00101000
00000000
00000000
00110000
00000000
00000000
11000000
00000000
00000000
01010000
00000000
00000000
00000000
,
10000000
00000000
00010000
00100000
00010000
00000000
10000000
00100000
10000000
00000000
00010000
00100000
00010000
00000000
00100000
00000000
,
00001000
00010000
00000000
00000100
00010000
00000000
00001000
00000000
00000100
00000000
00001000
00000000
00010000
00000000
00000000
00000000
,
00011000
00000000
00000000
01001000
00000000
00000000
01010000
00000000
00000000
10100000
00000000
00000000
00110000
00000000
00000000
00000000
,
00011000
00000000
00000000
00010100
00000000
00000000
00001100
00000000
00000000
00000011
00000000
00000000
00001010
00000000
00000000
00000000
,
00000001
00000000
00001000
00000010
00001000
00000000
00000001
00000010
00000001
00000000
00001000
00000010
00001000
00000000
00000010
00000000
,
00010000
00001000
00000000
00100000
00001000
00000000
00010000
00000000
01000000
00000000
10000000
00000000
01000000
00000000
00000000
00000000
,
01010000
00000000
00000000
00000000
01000000
00000000
00100000
00000000
00010000
00000000
00000000
00000000
00001000
00000000
00000000
00000000
00000001
00000010
00000100
00000000
00001000
00000000
00000010
00000000
00000001
00000000
00000000
00000000
00001000
00000000
00010000
00000000
,
00001000
00000000
00000000
00000000
00000100
00000000
00001000
00000000
00010000
00100000
01000000
00000000
00100000
00000000
01000000
00000000
10010000
00000000
00000000
00000000
01100000
00000000
00000000
00000000
20020000
00000000
00000000
00000000
30030000
00000000
00000000
00000000
,
01000000
00000000
00000000
00010000
00100000
00000000
00001000
00000000
00000000
00000010
00000001
00000000
00000200
00000000
00000000
00000000
,
00000310
00000000
00000000
00001000
00000100
00000000
00010000
00000000
00000000
01000000
10000000
00000000
00200000
00000000
00000000
00000000
,
01300000
00000000
00000000
00010000
00100000
00000000
00001000
00000000
00000000
00000010
00000001
00000000
00000200
00000000
00000000
00000000
,
00000310
00001000
00000100
00001000
00000001
00000100
00000001
00000100
00000010
00000000
00001000
00000000
00000010
00000000
00001000
00000010
,
00000100
00000000
00000000
00000001
00000010
00000000
00001000
00000000
00000000
00010000
01000000
00000000
20000000
00000000
00000000
00000000
,
30100000
00000000
00000000
10000000
01000000
00000000
00010000
00000000
00000000
00001000
00000010
00000000
00000002
00000000
00000000
00000000
,
00000103
00000000
00000000
00000001
00000010
00000000
00001000
00000000
00000000
00010000
01000000
00000000
20000000
00000000
30000000
00000000
,
11000000
00000000
01100000
00000000
00220000
00000000
00000000
00330000
,
00002000
00000000
00000000
00020000
00003000
00000000
00030020
00000000
,
00002000
00000030
00000000
00000002
00003000
00000000
00000023
00000000
,
00002000
00000030
00000000
00020000
00003000
00000000
00130000
00000000
,
10000000
00010000
00001000
00001001
,
00000001
00000100
00001000
00010000
10000000
01000000
00010000
00001000
,
00000010
00001000
00100000
00001000
00010000
00000100
00001000
00010000
,
00001000
00010000
01000000
10000000
00010000
10000000
00100000
00010000
,
00001000
00000010
00000001
00000010
00000100
00001000
00000010
00001000
,
00010000
01000000
00001000
00010000
00100000
00001000
00010000
01000000
,
00010000
00001000
00000010
00010000
00001000
00000100
00010000
00001000
,
00000010
00001000
00000100
00000010
00001000
00010000
00001000
00000010
,
00000100
00000000
00001000
00000000
00010000
00000000
00100000
00000000
01000000
00000000
00100000
00000000
00010000
00100000
00010000
01000000
,
00100000
00000000
10000000
01000000
00100000
00000000
00010000
00100000
01000000
00000000
10000000
00010000
10000000
00000000
01000000
00000000
,
00100000
00010000
00001000
00000100
00000001
00001000
00000010
00000100
,
00000001
00000000
00001000
00000100
00000010
00000000
00000001
00000010
00000100
00000000
00001000
00000001
00001000
00000000
00000100
00000000
,
00000020
00000000
00010030
02000000
00000000
03010000
00100000
01000000
,
10000000
00000000
00010000
00100000
00010000
00000000
10000000
00100000
10000000
00000000
00010000
00100000
00010000
00000000
10000000
00000000
,
00010000
00000000
00100000
00010000
00100000
00000000
00001000
00010000
00001000
00000000
00100000
00010000
00100000
00000000
00001000
00000000
,
00000010
00000000
00000001
00000010
00000100
00000000
00001000
00000000
00000001
00000000
00001000
00000010
00000100
00000000
00000001
00000000
,
00001000
00000100
00001000
00000100
00020000
00000000
00031000
00000010
00000100
00000010
00000200
00000000
00000310
00000001
00000010
00000001
,
00002000
00000010
00003010
00000110
,
00000100
00001000
00010000
00000010
00001000
00010000
01000000
00100000
,
00010000
00000000
00001000
00000000
00100000
00000000
01000000
00000000
00010000
00000000
00001000
00000000
00000010
00000100
00000010
00000000
,
00001000
00000000
00100000
00010000
00100000
00000000
00010000
00000000
00000010
00000000
00001000
00000000
00010000
00000000
00100000
00000000
,
00020000
00000000
00000000
00000000
00002000
00000000
00033000
00000000
00011000
00000000
00000000
00000000
00100000
00000000
00001000
00010000
,
00000100
00001000
00010000
00000010
00001000
00010000
01000000
00100000
,
00010000
00100000
00010000
00100000
00001000
00000000
00010000
00000000
00001000
00000000
00000010
00000000
00000001
00000000
00001000
00000000
,
00000000
00000000
00000110
00000000
00000000
00000000
00000010
00001000
00000100
00000000
00000010
00000100
00001000
00000000
00000001
00000100
,
00001000
00010000
00022000
00033000
,
00001000
00000100
00000001
00000000
00010000
01000000
10000000
00000000
,
00001000
00000010
00000001
00000010
00001000
00010000
00002000
00000000
,
00000000
00000000
00000000
00000000
,
00000000
00000000
00000000
00000000
,
00003000
00000000
00000000
00000000
,
00000000
00000000
00000000
00000000
;
#NOTES:
     dance-double:
     :
     Challenge:
     18:
     :
00000000
00000000
00000000
00000000
,
00000000
00000000
00000000
00000000
,
00000000
00000000
00000000
00000000
00000000
00000000
00000000
00000000
00000021
00000000
00000100
00000000
00001030
00010000
01000000
00000000
,
10000000
00000000
00100000
00000000
01000000
00001000
00010000
00000000
00100000
00000000
01000000
00000000
00010000
00000000
00100000
00000000
,
20000000
30100000
00020000
00032000
00003010
00000002
00000013
00000100
,
00000001
00000000
00000010
00000000
00000100
00001000
00000001
00000000
00000100
00000000
00000100
00000000
00001000
00000000
00010000
00000000
,
00011000
00011000
00110000
00210000
00000000
01300000
10000000
00100000
,
00010000
00000000
00001000
00000000
01000000
00010000
00100000
00000000
00001000
00000000
00010000
00000000
00000010
00000000
00000100
00000000
,
00000002
00000013
00002000
00023000
00130000
20000000
31000000
00010000
,
00001000
00000010
00001000
00010000
01000000
01000000
10000000
00010000
,
01000000
00000000
00100000
00010000
00001000
00000000
00000100
00000000
00000110
00000000
00000000
00000000
00001001
00000000
00000000
00000000
,
00000010
00000000
00000010
00000000
00000001
00000100
00000010
00000000
00010000
00000000
00001000
00000000
00011000
00000000
00000000
00000000
,
02000000
03010000
00002000
00023000
00031000
00000020
00000130
00000001
,
00001000
00000010
00000110
00000000
00001000
00010000
01100000
00000000
,
10000000
01000000
10000000
01000000
00100000
00000000
00020000
00000000
00000000
00000000
01000000
00000000
10030000
00000000
00000000
00000000
,
00100000
00000000
00010000
00000000
00001000
00010000
00001000
00000000
00000100
00000000
00000010
00000000
00000001
00000000
00000100
00000000
,
00000101
00000000
00000000
00000000
00001100
00000000
00011000
00000000
00000000
00000000
01010000
00000000
00000000
00000000
00100000
10000000
,
01000000
00000000
00010000
00000000
01000000
00000000
00100000
00000000
00010000
00000000
00001000
00010000
00001000
00000000
00000010
00000000
,
00000100
00000001
00000010
00001000
00020000
00030000
MMMMMMMM
00000000
,
10000000
00000000
00100000
01000000
00100000
00000000
00010000
00000000
00001000
00000000
00000100
00000000
00010000
00000000
00001000
00000000
,
00000010
00000100
00000001
00000010
00000100
00001000
00000010
00000100
,
MMMMMMMM
00000000
01010000
00000000
00000000
00000000
20100000
00000000
00000000
00000000
31000000
00000000
00100000
00000000
00100000
00010000
,
10000000
00000000
00100000
00000000
01000000
00010000
01000000
00001000
00100000
00000000
00100000
00000000
00101000
00000000
00000000
00000000
,
00010000
00000000
00000100
00000010
00000100
00000000
00001000
00000000
00000010
00000000
00000001
00000000
00001000
00000000
00000100
00000000
,
00000010
00001000
00000100
00010000
00001000
00000000
00100000
00001000
00010000
00000100
00001000
00000000
00000020
00000000
00000030
00000000
,
MMMMMMMM
00000000
00000100
00000000
00000010
00000000
00001000
00000000
00000001
00000010
00000001
00000100
00000010
00000100
00001000
00010000
,
00001000
00000000
00100000
00000000
00010000
00000000
10000000
00100000
00000000
01000000
00010000
00000000
10000000
00000000
00000000
00000000
,
02200000
03300000
00000000
MMMMMMMM
00000000
00000000
00000220
00000330
00000000
MMMMMMMM
00000000
00002000
00020000
00033000
00000000
00000000
,
02020000
03030000
00000000
MMMMMMMM
00000000
00000000
00002020
00003030
00000000
MMMMMMMM
00000000
00020000
00002000
00033000
00000000
00000000
,
00100000
00010000
00100000
00001000
01000000
00000000
00100000
00000000
01000000
00010000
01000000
00001000
00100000
00000000
00000000
00000000
,
01000000
10000000
00000000
00100000
00010000
00000000
00001000
00000000
00000100
00000000
00000001
00000000
00001001
00000000
00000000
00000000
,
00000220
00000330
00000000
MMMMMMMM
00000000
00000000
02200000
03300000
00000000
MMMMMMMM
00000000
00020000
00002000
00033000
00000000
00000000
,
00002200
00003300
00000000
00022000
00033000
00000000
00220000
00330000
00000000
02200000
03300000
20000000
02000000
33000000
00000000
00000000
,
00100000
00010000
00100000
00001000
00010000
00000000
00001000
00000000
00010000
00000010
00001000
00000010
00000100
00000000
MMMMMMMM
00000000
,
00000100
00000001
00000000
00000010
00001000
00000000
00010000
00000000
01000000
00000000
10000000
00000000
10010000
00000000
00000000
00000000
,
12000000
00000000
00000000
00000000
03010000
00000000
01000000
00000000
10000000
00000000
00000000
00000000
00100000
00000000
00000000
00000000
00010000
00001000
00000100
00000000
00000001
00000000
00000010
00000000
00002000
00000000
00000000
00000000
00003100
00000000
00000000
00000000
,
00000201
00000000
00000000
00000000
00001300
00000000
00000100
00000000
00000001
00000100
00001000
00010000
00001000
00000000
00010000
00000000
01100000
00000000
00000000
00000000
01100000
00000000
00000000
00000000
20020000
00000000
00000000
00000000
30030000
00000000
00000000
00000000
,
11000000
00000000
00000000
00100000
00001000
00000000
00010100
00000000
00000000
00001000
00000010
00000000
00000202
00000000
00000303
00000000
,
00000011
00000000
00000000
00000100
00010000
00000000
00101000
00000000
00000000
00010000
01000000
00000000
20200000
00000000
30300000
00000000
,
01100000
00000000
00000000
00100000
00010000
00000000
00011000
00000000
00000000
00001000
00000010
00000000
00000220
00000000
00000330
00000000
,
00000001
00000010
00000001
00000010
00000100
00001000
00000100
00010000
00001000
00010000
00001000
01000000
00100000
10000000
00100000
10000000
,
01000000
00000000
00000000
10000000
00100000
00000000
01000000
00000000
00001000
00010000
00000010
00000000
00002020
00000000
00003030
00000000
,
00000100
00000000
00000000
00000001
00000010
00000000
00000100
00000000
00010000
00001000
00100000
00000000
00220000
00000000
00330000
00000000
,
01000000
00000000
00000000
10000000
00010000
00000000
00100000
00000000
00001000
00010000
00000010
00000000
00000220
00000000
00000330
00000000
,
00001001
00000000
MMMMMMMM
00000000
20020000
00000000
00000000
30030000
,
01000000
00000000
10000000
01000000
10000000
00000000
00100000
00000000
00000000
10000000
01000000
00000000
MMMMMMMM
00000000
MMMMMMMM
00000000
,
00010000
00000000
00001000
00010000
00001000
00000000
00010000
00000000
00000000
00001000
00010000
00000000
MMMMMMMM
00000000
MMMMMMMM
00000000
,
00000100
00000000
00000001
00000100
00000001
00000000
00000010
00000000
00000000
00000010
00000000
00000000
MMMMMMMM
00000000
MMMMMMMM
00000000
,
00000002
00000003
00000000
00000000
00000220
00000330
00000000
00002000
00023000
00032000
00003000
00000000
MMMMMMMM
00000000
00000000
00000000
,
10000000
00000000
01000000
10000000
00010000
00000000
00100000
00001000
00010000
00000000
01000000
00000000
10000000
00000000
00100000
00000000
,
00010000
00000000
MMMMMMMM
00000000
00001000
00000000
00000001
00000000
MMMMMMMM
00000000
00000010
00001000
00000001
00000000
00000100
00000000
,
00000010
00000000
00001000
00000100
00010000
00000000
00001000
01000000
00010000
00000000
00100000
00000000
10000000
00000000
00010000
00000000
,
01000000
MMMMMMMM
00010000
10000000
MMMMMMMM
00010000
00001000
00000100
,
00000001
00000000
00000100
00000001
00001000
00000000
00000010
00010000
00001000
00000000
00000100
00000000
00000001
00000000
00000010
00000000
,
00001000
00000000
MMMMMMMM
00000000
00010000
00000000
10000000
00000000
MMMMMMMM
00000000
00100000
00010000
10000000
00000000
01000000
00000000
,
00100000
00000000
00010000
01000000
00001000
00000000
00010000
00000100
00001000
00000000
00000010
00000000
00000100
00000000
00000001
00000000
,
00000010
00000001
00001000
00000100
00010000
00000100
00010000
00001000
00100000
00001000
00100000
00010000
10000000
00000000
MMMMMMMM
00000000
,
00100000
00000000
01000000
00010000
01000000
00000000
00001000
01000000
00010000
00000000
10000000
01000000
00100000
00000000
01000000
00000000
,
0001MMMM
00000000
MMMM1000
00000000
0010MMMM
00000000
MMMM1000
00000000
00000100
00000000
00000010
00000100
00000001
00000000
00000100
00000000
,
00001000
00000000
00010000
00000100
00001000
00000000
00000010
00000100
00001000
00000000
00010000
00000000
01000000
00000000
10000000
00000000
,
00200000
00000000
00310000
00002000
00000000
00003010
00000110
MMMMMMMM
,
00000010
00000000
00000001
00001000
00000100
00000000
00010000
00000100
00001000
00000000
00000010
00000100
00000010
00000000
00000100
00000000
,
MMMM1000
00000000
0001MMMM
00000000
MMMM0010
00000000
0001MMMM
00000000
01000000
00000000
10000000
00010000
01000000
00000000
00010000
00000000
,
10000000
01000000
00100000
00010000
10000000
00100000
01000000
00010000
01000000
00001000
00010000
00000100
00001000
00000001
00001000
00000100
,
00000010
00000001
00001000
00000010
00000100
00001000
00000100
00000010
00010000
00001000
00100000
00010000
01000000
10000000
01000000
00010000
,
20000000
00010000
30010000
MMMMMMMM
,
00100000
00000000
00001000
00010000
00001000
00000000
00000010
00000000
00001000
00000000
00010000
00000000
00001000
00000000
00000100
00000000
,
00000001
00000010
00001000
00000010
00000001
00001000
00000010
00000100
,
MMMMMMMM
01100000
00000000
20100000
00000000
31000000
00010000
00001000
,
00011000
00000000
MMMMMMMM
00000000
00001100
00000000
MMMMMMMM
00000000
00000022
00000000
00000000
00000000
00000033
00000000
00000001
00001000
,
00000100
00000000
00000010
00000000
00000001
00000000
00000100
00000010
00001000
00000000
00010000
00000000
00001000
00000000
00000010
00000000
,
00000100
00000010
00001000
00000010
00010000
00000000
00001000
00100000
00001000
01000000
00010000
10000000
00010000
00100000
01000000
10000000
,
00100000
00000000
00010000
00000000
00001000
00000000
00000100
00000010
00000100
00000010
00001000
00000001
00000010
00000001
00001000
00000001
,
00000100
00000000
00001000
00000000
00022000
00000000
00000000
00033000
,
00101000
MMMM1000
00011000
MMMMMMMM
00010010
0001MMMM
00011000
MMMMMMMM
,
00101000
MMMM1000
00011000
0001MMMM
00010100
MMMM0100
00000220
00000000
,
00000000
00000000
00000000
00000000
,
00000000
00000000
00000000
00000000
,
00000330
00000000
00000000
00000000
,
00000000
00000000
00000000
00000000
;
