
//----- song ID: neut -----//
#TITLE:Neutrino;
#ARTIST:HuΣeR;
#BANNER:Neutrino.png;
#BACKGROUND:Neutrino-bg.png;
#CDTITLE:./CDTitles/DDR A.png;
#MUSIC:Neutrino.ogg;
#SAMPLESTART:71.542;
#SAMPLELENGTH:15;
#BPMS:0=150,68=75,72=300,88=75,92=150,100=75,104=300,116=150,118=75,122=150,130=205,192=102.5,193=205,223=102.5,224=205;
#NOTES:
     dance-single:
     :
     Beginner:
     6:
     :
0000
0000
0000
0000
,
0000
0000
0000
0000
,
0000
0000
0000
0000
,
0000
0000
0000
0000
,
0000
0000
0000
0000
,
0000
0000
0000
0000
,
0000
0000
0000
0000
,
0000
0000
0000
0000
,
0000
0000
0000
0000
,
1000
0000
0001
0000
,
1000
0000
0000
0000
,
0010
0000
1000
0000
,
0010
0000
0100
0000
,
0001
0000
1000
0000
,
0001
0000
0000
0000
,
0010
0000
0001
0000
,
0010
0000
0100
0000
,
0200
0000
0000
0300
,
1000
0000
0000
0000
,
1000
0000
0000
0000
,
0001
0000
0000
0000
,
0001
0000
0000
0000
,
1000
0020
0000
0030
,
1000
1000
0001
0001
,
0010
0010
0010
0000
,
0001
0020
0000
0030
,
0001
0000
0000
0000
,
0001
0000
0000
0000
,
1000
0000
1000
0000
,
1000
0000
0002
0000
,
0000
0003
1000
1000
,
0001
0001
0100
0100
,
0100
0000
1001
0000
,
0000
0000
0000
0000
,
0000
0000
0000
0000
,
0000
0000
0000
0000
,
0000
0000
0001
0000
,
0001
0000
1000
0000
,
1000
0000
0001
0001
,
0001
0000
0010
0010
,
0010
0000
1000
0000
,
0010
0000
0010
0010
,
0010
0000
1000
0000
,
0100
0000
0100
0100
,
0100
0000
0001
0000
,
0010
0000
0010
0010
,
0010
0000
0001
0000
,
0100
0000
0100
0100
,
0100
0001
0000
0001
,
0000
0010
0000
0010
,
0000
1000
0000
1000
,
0000
0010
0000
0010
,
0000
0001
0001
0001
,
0000
1000
1000
1000
,
0000
0010
0000
0010
,
0000
0001
0001
0001
,
1000
0001
1000
0000
,
0001
1000
0001
0000
,
0100
0000
0100
0000
,
0001
0000
0001
0000
,
1000
0010
1000
0000
,
0001
0100
0001
0000
,
1000
1000
0001
0001
,
1000
1000
0001
0001
,
0010
0000
0000
0000
,
0000
0000
0000
0000
,
0000
0000
0000
0000
,
0000
0000
0000
0000
,
0000
0000
0000
0000
,
0000
0000
0000
0000
,
0000
0000
0000
0000
,
0001
0010
0100
1000
,
0000
0000
0000
0000
;
#NOTES:
     dance-single:
     :
     Easy:
     9:
     :
0000
0000
0000
0000
,
0000
0000
0000
0000
,
0000
0000
0000
0000
,
0000
0000
0000
0000
,
0000
0000
0000
0000
,
0000
0000
0000
0000
,
0000
0000
0000
0000
,
0000
0000
0000
0000
,
0000
0000
0000
0000
,
1000
0000
0001
0000
,
0100
0000
0000
1001
,
0010
0001
1000
0100
,
1000
0001
0100
0110
,
0001
0000
0010
0000
,
0100
0000
0000
0110
,
1000
0100
0010
0100
,
1000
0001
1001
0000
,
0110
0000
2000
0000
0001
0001
3001
0000
,
0010
0000
0000
0000
,
0010
0000
0000
0000
,
1000
0000
0000
0000
,
1000
0000
0010
0000
,
0100
0000
0002
0000
1000
1003
1000
0001
,
0100
0010
1000
0100
,
1000
0001
1001
0000
,
0001
0000
2000
0000
0000
0000
3010
0100
,
0001
0000
0001
0000
,
1000
0000
1000
0000
,
0010
0000
0010
0000
,
0100
0000
0001
0020
,
0031
0001
0100
0010
1000
0000
0001
0000
,
1000
0100
0001
0100
,
1001
0000
0020
0000
,
0000
0000
0000
0030
2000
0000
0000
0000
,
0000
0000
0000
3000
0002
0000
0000
0000
,
0000
0000
0000
0003
0200
0000
0000
0000
,
0000
0300
0010
0010
,
1001
1001
1000
0001
,
0110
0000
0110
0000
0001
1000
0001
0000
,
1000
0000
0001
0000
0010
0001
0010
0000
,
0002
0000
0013
0001
,
1000
0010
0110
1001
,
0001
0010
0100
1000
,
0010
1000
1001
0110
,
1000
0100
0010
0001
,
0010
0100
0110
1001
,
0001
1000
0010
1000
,
0010
0100
0110
1001
,
0020
0031
0001
1001
,
0010
1000
1000
1001
,
0010
0000
0001
1000
0001
0000
0100
0000
,
0010
0110
1001
1000
,
0100
0001
0110
1000
,
1001
0010
0110
1000
,
1001
0000
0100
0001
0100
0000
0001
0000
,
0010
1000
0010
0002
,
1003
0001
1000
0000
0001
0000
1000
0000
,
1010
1010
0001
0001
,
1000
0000
0001
1000
0001
0000
1000
0010
,
1000
0001
0010
1001
,
0010
0100
0010
0000
1001
0000
0110
0000
,
1000
0001
1000
0000
0110
0000
1001
0000
,
1001
0110
0110
1001
,
0110
0000
1001
0000
1000
0000
0001
1000
,
0001
0000
0000
0000
,
0000
0000
0000
0000
,
0000
0000
0000
0000
,
0000
0000
0000
0000
,
0000
0000
0000
0000
,
0000
0000
0000
0000
,
0000
0000
0000
0000
,
0001
0000
1000
0000
0010
0010
0010
0010
,
0000
0000
0000
0000
;
#NOTES:
     dance-single:
     :
     Medium:
     12:
     :
0000
0000
0000
0000
,
0000
0000
0000
0000
,
0000
0000
0000
0000
,
0000
0000
0000
0000
,
0000
0000
0000
0000
,
0000
0000
0000
0000
,
0000
0000
0000
0000
,
0000
0000
0000
0000
,
0000
0000
0000
0000
0001
1000
0100
0001
,
0020
0000
2030
0000
,
3002
0000
0000
0000
0003
0000
0100
0010
,
0100
0011
1010
1100
,
0100
0000
0010
0100
1000
0000
0010
0100
,
0002
0000
0023
0000
,
2030
0000
0000
0000
3000
0000
0010
0001
,
0010
0101
1100
0011
,
0100
0010
1000
0100
0011
0000
0000
0000
,
1001
0000
0000
0000
0020
0000
0000
0000
0031
0001
0001
0000
0010
0001
0100
0001
,
0010
0000
0000
0010
0000
0000
0010
0000
,
0001
0000
0000
0001
0000
0000
0001
0000
,
1000
0100
1000
0100
,
0010
0001
0100
0000
,
0010
0000
0000
1000
0000
0000
0001
0000
2002
0000
0000
0000
0000
0000
0000
0000
0000
0000
0000
0000
3003
0000
0000
0000
0100
0000
0100
0000
0010
0000
0000
0000
,
0001
0100
1000
0100
0001
0010
1000
0010
,
0001
0100
0010
1000
0002
0000
0000
0000
,
1003
0000
0010
0100
0020
0000
0000
0000
0000
0000
0030
0000
0010
1000
0001
0100
,
0010
1000
0010
1000
,
0001
1000
0001
1000
,
0001
0010
0100
0010
,
0001
0000
0000
0000
0000
0000
0000
0000
1000
0000
0000
0000
1000
0000
0000
0000
0001
0000
0000
0100
0000
0000
0001
0000
0202
0000
0000
0000
0000
0000
0000
0000
,
0000
0000
0303
0000
0100
0100
0001
0000
1001
0000
0000
0000
1010
0000
0000
0000
,
0101
0000
0011
0000
0001
1000
0100
0001
,
0200
0000
2300
0001
,
3001
0100
2000
0100
,
3100
0001
0020
0001
,
0032
0203
0320
0032
,
0023
0000
2030
0000
3100
1000
0100
0000
,
1000
0001
1000
0000
0010
0100
0010
0000
,
1000
0010
1000
0000
0001
1000
0001
1000
,
0010
0100
0010
0100
0001
0010
0100
1000
,
0001
1000
1001
0000
1000
0001
0010
0000
,
0100
0010
0000
0100
1000
0010
1000
0001
,
0010
0100
1000
0000
0001
1000
0010
0000
,
0100
0010
0000
0100
0001
0010
1000
0010
,
0001
0100
0001
0000
1000
0010
0100
0000
,
0010
1000
0000
0001
0010
0001
1000
0010
,
0001
0010
1000
0000
0001
0010
0100
0000
,
0010
0001
0000
1000
0010
0001
0010
0100
,
0002
0000
1003
0000
1100
0000
0001
0100
,
0001
0100
0010
0000
0110
0000
1000
0100
,
1000
0100
1000
1000
1000
0000
0001
0000
,
0101
0000
0010
1000
0010
1000
0100
0010
,
0001
0100
0010
0100
0010
1000
0001
1000
,
0001
0010
0100
0010
0100
1000
0001
1000
,
0001
0100
0010
1000
0001
0000
1000
0010
,
1000
0010
0100
0010
0010
1000
0200
0000
,
1300
0100
0010
0000
0001
0100
0010
0000
,
1000
0010
0100
0010
1000
0001
0010
0001
,
0100
0010
0100
0000
0001
1000
0001
0000
,
1000
0100
0010
0001
0010
0100
1000
0100
,
0010
0100
0010
0001
1000
0001
1000
0010
,
0100
0010
0100
0001
1000
0001
1000
0100
,
0010
0000
0001
1000
0000
0010
0001
0000
,
0010
1000
0000
0100
0001
0100
1000
0001
,
1000
0000
0000
0000
,
0000
0000
0000
0000
,
0000
0000
0000
0000
,
0000
0000
0000
0000
,
0000
0000
0000
0000
,
0000
0000
0000
0000
,
0000
0000
0000
0000
,
0001
0001
1000
1000
0100
0100
0100
0100
,
0000
0000
0000
0000
;
#NOTES:
     dance-single:
     :
     Hard:
     16:
     :
0000
0000
0000
0000
,
0000
0000
0000
0000
,
0000
0000
0000
0000
,
0000
0000
0000
0000
,
0000
0000
0000
0000
,
0000
0000
0000
0000
,
0000
0000
0000
0000
,
0000
0000
0000
0000
,
1010
0000
0000
0010
1000
0000
0001
0000
1000
0001
1000
0001
0010
0100
1000
0100
,
0020
0000
0000
0100
0000
0000
0001
0000
0230
0000
0000
0010
0000
0000
0010
0000
,
2300
0000
0000
0100
0000
0000
0001
0000
0000
3001
0000
0010
0001
0000
0010
0000
,
0002
0000
0000
0103
0010
0000
0010
0000
2000
0000
0000
3100
0010
0000
0010
0000
,
0100
0000
0010
0000
0001
0000
0010
0000
0100
1000
0000
0100
1000
0000
0001
0000
,
1001
0000
0010
0001
0000
0010
0001
0000
1000
0010
0000
1000
0010
0000
0100
0000
,
0001
0000
0100
0001
0000
0100
0001
0000
1000
0100
0000
1000
0100
0000
0010
0000
,
0210
0000
0000
0310
0001
0000
0100
0000
0120
0000
0000
0130
1000
0000
0100
0000
,
0001
1000
0001
1000
0001
0010
0100
1000
0001
0000
0000
0000
0000
0000
0000
0000
,
1001
0000
0000
0000
0110
0000
0010
0100
0020
0000
0000
0000
0000
0000
0000
0000
1030
0010
1000
0010
2000
0000
0000
0000
3001
0010
0001
0010
0001
1000
0100
0010
,
0001
0000
1000
0001
0000
0001
0010
0100
,
1000
0000
0001
1000
0000
1000
0010
0100
,
0001
0000
0100
0010
0000
1000
0100
1000
,
0010
1000
0001
0010
0100
0000
0000
0000
,
0110
0000
0000
0001
0000
0000
1000
0000
0020
0000
0000
0000
0130
0010
0100
0010
0200
0000
0000
0000
0001
0000
0000
0300
0010
0000
1000
0000
1010
0000
0000
0000
,
0101
0100
0110
0010
1010
1000
1001
0001
,
1000
0001
0100
0010
1000
0100
1000
0100
2000
0000
0000
0000
0010
0000
0010
0000
,
3001
0000
0010
0100
0000
1000
0100
0000
2000
0000
0000
0000
0000
0000
0000
0000
3001
1000
0001
1000
0002
0000
0000
0000
0013
0001
0010
0001
1000
0010
0100
0001
,
0100
0000
0001
0000
0100
0001
0100
0000
,
0001
0000
0010
0000
0001
0010
0001
0000
,
1000
0010
1000
0000
0100
0001
0100
1000
,
0001
0000
0000
0000
1000
0000
0000
0000
0010
0000
0000
0000
0010
0000
0000
0000
0101
0000
0000
0100
0000
0000
1100
0000
2002
0000
0000
0000
0000
0000
0000
0003
,
3001
1000
0001
1000
0002
0000
0000
0000
1003
0000
0100
0000
1100
0000
0000
0000
0011
0000
0000
0000
0001
0000
0000
0000
1001
0000
0000
0000
1000
0000
0000
0000
,
1010
0000
0010
0000
1001
0000
1000
0000
0001
1000
0010
0100
0001
1000
0010
0100
,
0020
0000
1030
0100
0002
0000
0103
0000
,
1000
0000
0010
0001
0010
2000
0010
0000
,
3010
0000
0100
0010
0100
0001
0020
0000
,
1030
0000
0010
0001
0100
2000
0100
0000
,
3100
0001
0010
1000
1010
0000
0011
0000
,
1010
0011
0101
1100
,
1010
0000
0011
0000
0010
1000
0100
0010
,
0001
0100
0010
0100
1000
0100
0001
1000
,
0001
1000
0001
1000
0010
0000
0000
0000
0100
0000
0001
0000
1001
0000
0000
0000
,
0101
0101
0000
0110
0100
0001
1000
0100
,
0001
0100
1000
0010
0100
0001
1001
0000
,
1100
0000
1100
0000
0000
0000
0110
0000
0110
0000
0000
1000
0001
0000
0010
0000
,
0100
1000
0100
0000
0010
0001
0010
0001
1000
0000
0001
0000
1001
0000
0000
0000
,
1100
1100
0000
0110
0100
1000
0001
0100
,
1000
0100
0001
0010
0100
1000
1001
0000
,
0101
0101
0000
0110
0010
1000
0001
0010
,
0220
0000
0000
0330
0001
0000
1000
0001
0000
1000
0001
0000
1000
0100
0000
0010
,
0001
0000
0010
0000
0001
0000
0100
0010
0000
0100
0010
0000
1000
0010
0000
0100
,
0001
0000
0010
0000
0001
0000
1000
0100
0000
1000
0100
0000
0010
0100
0000
0010
,
0001
0000
0100
0000
0001
0000
0010
0001
0000
0010
0001
0000
0200
0000
0000
0000
,
0301
1000
0001
0100
0010
0000
1000
0010
0000
1000
0010
0000
0100
0000
0001
0010
,
0000
0001
0010
0000
0100
0000
1000
0010
0000
1000
0010
0000
0100
0000
0001
0010
,
0000
0001
0010
0000
0100
0000
1000
0000
1010
0000
0000
0000
0010
1000
0000
0001
,
0010
0000
0001
0000
1000
0010
0000
0001
0010
0000
1000
0000
1001
0000
0100
0010
,
0100
0000
1000
0010
0100
0000
0001
0000
0010
0100
0010
0000
0001
0000
0001
0000
,
0100
0000
0001
0010
0100
0000
1000
0000
0010
0100
0010
0000
1000
0000
1000
0000
,
0100
0000
1000
0001
0010
0000
0001
0000
0010
0000
0001
1000
0010
0000
1000
0000
,
0010
0000
1000
0001
0010
0000
0100
0000
1200
0000
0000
0000
1300
0001
0010
0100
,
1000
0000
0001
1000
0000
0100
0010
0000
0001
0000
1000
0001
0000
0100
0010
0000
,
1000
0000
0100
0001
0000
0100
0010
0000
0001
0000
0100
1000
0000
0100
0010
0000
,
1010
0000
0000
0000
1100
0000
1000
0000
0000
0000
0010
0100
1000
0000
0000
0000
,
1001
0000
0001
0000
0000
0000
0010
0100
0001
1000
0001
1000
0001
0010
0100
1000
,
0001
0000
0000
0000
,
0000
0000
0000
0000
,
0000
0000
0000
0000
,
0000
0000
0000
0000
,
0000
0000
0000
0000
,
0000
0000
0000
0000
,
0000
0000
0000
0000
,
0001
1000
0001
1000
0100
0010
0001
0010
0001
0010
0100
1000
0100
1000
0001
0100
,
0000
0000
0000
0000
;
#NOTES:
     dance-single:
     :
     Challenge:
     18:
     :
0000
0000
0000
0000
,
0000
0000
0000
0000
,
0000
0000
0000
0000
,
0000
0000
0000
0000
,
0000
0000
0000
0000
,
0000
0000
0000
0000
,
0000
0000
0000
0000
,
0000
0000
0000
0000
,
1001
0000
0000
0001
1000
0001
0100
0000
0001
0010
0001
0100
0010
0100
0001
1000
,
0200
0000
0000
0010
0000
0000
1000
0000
0320
0001
0000
0000
0001
0000
0100
0000
,
0032
0000
0000
1000
0000
0000
1000
0000
0103
0010
0000
0010
1000
0100
0010
0000
,
0200
0000
0000
0310
0001
1000
0010
0000
0200
0000
0000
0310
1000
0001
0010
0000
,
1000
0000
0010
0001
0000
1000
0010
0000
1000
0001
0000
0100
0001
0000
1000
0001
,
1000
0000
0100
0010
0000
0001
0010
0000
0100
1000
0000
0001
1000
0001
1000
0001
,
0010
0000
0100
0010
0000
0001
0010
0000
0001
1000
0000
0010
1000
0001
1000
0001
,
0100
0000
0001
0010
0000
0100
1000
0000
0010
0100
0000
0001
1000
0010
0100
0001
,
1000
0100
1000
0100
1000
0010
0100
0001
0100
0000
0000
0000
0000
0000
0000
0000
,
1001
0000
0000
0000
0010
0001
1000
0100
0020
0000
0000
0000
0000
0000
0000
0000
0031
0010
0001
0010
0002
0000
0000
0000
0013
0100
1000
0100
0010
0100
0001
0100
,
0010
0001
1000
0001
0100
0001
0010
0100
,
1000
0010
1000
0001
1000
0100
1000
0010
,
0100
0001
0100
0010
0100
1000
0100
0001
,
0010
1000
0010
0001
1000
0000
0000
0000
,
0101
0000
0000
1010
0000
0000
0001
0100
0020
0000
0000
0000
0130
0010
1000
0001
2000
0000
0000
0000
0100
0000
0000
0000
3010
0000
0010
0000
0100
0000
0000
0000
,
0101
1000
0110
0001
1100
0001
0110
1000
,
0001
1000
0010
0100
0001
0100
0010
0100
0002
0000
0000
0000
0010
0000
0010
0000
,
1003
0000
0001
0100
1000
0100
0001
0010
0002
0000
0000
0000
0000
0000
0000
0000
0103
0010
0100
0010
0200
0000
0000
0000
0310
1000
0010
0100
0001
0010
0100
1000
,
0100
1000
0100
0000
0100
0001
0100
0000
,
0100
1000
0100
0000
0010
1000
0010
0000
,
0010
0001
0010
0000
0010
1000
0010
0001
,
0010
0000
0100
0000
0010
0000
0000
0000
0110
0000
0000
0000
1001
0000
0000
0000
1100
0000
0100
0010
0000
0100
1000
0000
2002
0000
0000
0000
0000
0000
0000
0003
,
3001
0100
1000
0100
0020
0000
0000
0000
0130
0000
0001
0000
0101
0000
0000
0000
1100
0000
0000
0000
0010
0000
0000
0000
0101
0000
0000
0000
0010
0000
0000
0000
,
1100
0000
0010
0000
0101
0000
0010
0000
0001
0100
1000
0100
0001
1000
0100
0010
,
0002
0000
0010
0010
2003
0000
0010
0000
,
3100
0000
0100
1000
0010
0002
0010
0000
,
1000
0000
0013
0100
0010
1000
0200
0000
,
0001
0000
0310
0100
1000
0020
0001
0000
,
1030
0010
0100
0001
0101
0000
1010
0000
,
0101
0000
1010
1000
1100
0100
0101
0001
,
0011
0010
1010
1000
0010
0001
0010
1000
,
0001
0000
0100
0000
1000
0000
0100
0000
0001
1000
0001
1000
0100
0010
0100
0010
,
0001
1000
0001
1000
0010
0000
0000
0000
0011
0000
1001
0000
1001
0000
0000
0000
,
1100
1100
0000
0110
0110
0000
1001
1001
,
1000
0010
0001
0010
1010
1001
1001
0000
,
0101
0000
0101
0000
0000
0000
0110
0000
0110
0000
0001
1000
0001
0000
0010
0001
,
0100
0010
0100
0001
0010
0001
1000
0100
0010
0000
0011
0000
0011
0000
0000
0000
,
1100
1100
0000
0101
0101
0000
1010
1010
,
0010
0001
0100
1000
1100
0110
0110
0000
,
1001
1001
0000
0110
0110
0000
1100
0101
,
0220
0000
0000
0330
1000
0000
0001
0100
0000
0010
0100
0000
0001
0100
0000
0010
,
1000
0000
0010
0100
0001
0000
1000
0100
0000
0010
0100
0000
1000
0100
0000
0010
,
0001
0000
0010
0100
1000
0000
0001
0100
0000
1000
0100
0000
0010
0100
0000
0001
,
0010
0000
0001
1000
0100
0000
0010
0100
0000
0001
0100
0000
2000
0000
0000
0000
,
3001
0000
1000
0000
0001
0000
1000
0000
0001
0000
1000
0000
0010
0000
0000
0000
0000
0000
1000
0000
0000
0010
0000
0000
0000
0000
0000
1000
0000
0000
0010
0000
0000
0000
0000
0000
0001
0000
0000
0000
0000
0000
0010
0000
0000
0001
0000
0000
,
0000
0010
0001
0000
1000
0000
0100
0001
0000
0100
0001
0000
0010
0000
1000
0010
,
0000
1000
0010
0000
0001
0000
0001
1000
0010
1000
0100
0000
0010
0001
1000
0000
,
0010
0100
0001
0000
1000
0010
0100
0000
0001
0010
0100
0000
1100
0000
0001
0010
,
0001
0000
0001
0010
0100
0000
1000
0000
0010
0100
0010
0000
1000
0001
0100
0000
,
0010
0000
1000
0001
1000
0000
0001
0000
0100
0001
0010
0000
0001
1000
0010
0000
,
0100
0000
0001
1000
0010
0000
1000
0001
0010
0000
0001
1000
0010
0000
1000
0001
,
0010
0000
0001
1000
0010
0000
0100
0001
1000
0001
1000
0010
0100
0001
0010
0100
,
1000
0000
0001
0010
0000
0100
0010
0100
1000
0000
0001
1000
0000
0010
0100
0010
,
0001
0000
0010
1000
0000
0100
0010
0100
1000
0000
0001
0100
0000
0001
1000
0000
,
1010
0000
0001
0100
0010
0000
0101
0000
0010
0100
1000
0000
1001
0000
0100
0010
,
0001
0000
0000
0000
0000
0000
0110
0000
0000
0000
0000
0000
1000
0000
0000
0001
0000
0000
0010
0000
0000
0100
0000
0000
1000
0000
0000
0010
0000
0000
0100
0000
0000
0001
0000
0000
1000
0000
0010
0000
0100
0000
0001
0000
1000
0000
0010
0000
,
0100
0000
0000
0000
,
0000
0000
0000
0000
,
0000
0000
0000
0000
,
0000
0000
0000
0000
,
0000
0000
0000
0000
,
0000
0000
0000
0000
,
0000
0000
0000
0000
,
0001
0000
0100
0000
0010
0000
1000
0000
0100
0000
0010
0000
0001
0000
0010
0000
0100
0000
1000
0000
0001
0000
0100
0000
1000
0000
0001
0000
0010
0100
0010
0000
,
0000
0000
0000
0000
;
#NOTES:
     dance-double:
     :
     Easy:
     9:
     :
00000000
00000000
00000000
00000000
,
00000000
00000000
00000000
00000000
,
00000000
00000000
00000000
00000000
,
00000000
00000000
00000000
00000000
,
00000000
00000000
00000000
00000000
,
00000000
00000000
00000000
00000000
,
00000000
00000000
00000000
00000000
,
00000000
00000000
00000000
00000000
,
00000000
00000000
00000000
00000000
,
00001000
00000000
00100000
00000000
,
01000000
00000000
00000000
10010000
,
00100000
00001000
00000010
00000100
,
00001000
00000001
00000100
00000110
,
00000001
00000000
00000010
00000000
,
00001000
00000000
00000000
00011000
,
00010000
00100000
01000000
10000000
,
01000000
00010000
10010000
00000000
,
01100000
00002000
00020000
00033000
,
00010000
00000000
00000000
00000000
,
00010000
00000000
00000000
00000000
,
00000010
00000000
00000000
00000000
,
00000010
00000000
00001000
00000000
,
00000001
00000000
00002000
00000000
00000100
00003100
00010000
00001000
,
01000000
00010000
10000000
01000000
,
00010000
00001000
00011000
00000000
,
00010000
00000000
00000020
00000000
00000000
00000000
00000130
00000001
,
00001000
00000000
00001000
00000000
,
00000001
00000000
00000001
00000000
,
00000010
00000000
00000010
00000000
,
00000100
00000000
00010000
00002000
,
00013000
00010000
00100000
10000000
00010000
00000000
01000000
00000000
,
00010000
01000000
10000000
01000000
,
10010000
00000000
00200000
00000000
,
00000000
00000000
00000000
00300000
00002000
00000000
00000000
00000000
,
00000000
00000000
00000000
00003000
00000020
00000000
00000000
00000000
,
00000000
00000000
00000000
00000030
00000002
00000000
00000000
00000000
,
00000000
00000003
00000100
00000100
,
00001000
00010000
00001000
00001000
,
00100000
00000000
01100000
00000000
00010000
10000000
00010000
00000000
,
01000000
00000000
00010000
00000000
00100000
00010000
00100000
00000000
,
00002000
00000000
00103000
00010000
,
10000000
00100000
01100000
10010000
,
10000000
01000000
00010000
00001000
,
00000010
00000100
00000110
00001001
,
00000001
00000100
00001000
00010000
,
00100000
10000000
01100000
10010000
,
10000000
01000000
00010000
00001000
,
00000010
00000001
00000110
00001001
,
00000200
00000301
00000001
00001000
,
00001010
00000010
00000010
00010000
,
00011000
00000000
00001000
00010000
00001000
00000000
01000000
00000000
,
00100000
01100000
10010000
10000000
,
01000000
00010000
00001000
00000010
,
00000110
00001000
00010000
00100000
,
01100000
00000000
10000000
00010000
10000000
00000000
00010000
00000000
,
00100000
10000000
00100000
00020000
,
10030000
00010000
10000000
00000000
01000000
00000000
00010000
00000000
,
00000100
00001000
00000001
00001000
,
00000010
00000000
00010000
00001000
00010000
00000000
00001000
00100000
,
00001000
00010000
00100000
10000000
,
01000000
10010000
00100000
00001000
,
00000100
00001001
00000010
00010000
,
00011000
01000000
00011000
00000100
,
00011000
00000000
00100000
00000000
00010000
00000000
10000000
00010000
,
10000000
00000000
00000000
00000000
,
00000000
00000000
00000000
00000000
,
00000000
00000000
00000000
00000000
,
00000000
00000000
00000000
00000000
,
00000000
00000000
00000000
00000000
,
00000000
00000000
00000000
00000000
,
00000000
00000000
00000000
00000000
,
00010000
00000000
00100000
00000000
00001000
00001000
00001000
00001000
,
00000000
00000000
00000000
00000000
;
#NOTES:
     dance-double:
     :
     Medium:
     13:
     :
00000000
00000000
00000000
00000000
,
00000000
00000000
00000000
00000000
,
00000000
00000000
00000000
00000000
,
00000000
00000000
00000000
00000000
,
00000000
00000000
00000000
00000000
,
00000000
00000000
00000000
00000000
,
00000000
00000000
00000000
00000000
,
00000000
00000000
00000000
00000000
,
00000000
00000000
00000000
00000000
00010000
00100000
10000000
01000000
,
00020000
00000000
00032000
00000000
,
02003000
00000000
00000000
00000000
03000000
00000000
00010000
10000000
,
00010000
10100000
00110000
01010000
,
10000000
00000000
01000000
00010000
00001000
00000000
01000000
00010000
,
00002000
00000000
00003020
00000000
,
00000230
00000000
00000000
00000000
00000300
00000000
00000010
00001000
,
00000010
00001100
00000101
00000011
,
00000010
00000001
00000100
00001000
00011000
00000000
00000000
00000000
,
00011000
00000000
00000000
00000000
00200000
00000000
00000000
00000000
00310000
00010000
00010000
00000000
00100000
00010000
01000000
00001000
,
00010000
00000000
00000000
00010000
00000000
00000000
00010000
00000000
,
00000010
00000000
00000000
00000010
00000000
00000000
00000010
00000000
,
00001000
00000001
00001000
00000001
,
00000100
00000010
00010000
00000000
,
00000010
00000000
00000000
00001000
00000000
00000000
00000001
00000000
00002002
00000000
00000000
00000000
00000000
00000000
00000000
00000000
00000000
00000000
00000000
00000000
00003003
00000000
00000000
00000000
00000010
00000000
00000010
00000000
00010000
00000000
00000000
00000000
,
00001000
00000010
00000001
00000010
00001000
00010000
01000000
10000000
,
01000000
00010000
00001000
00000100
00002000
00000000
00000000
00000000
,
00013000
00000000
00100000
01000000
00200000
00000000
00000000
00000000
00000000
00000000
00300000
00000000
10000000
01000000
00010000
00001000
,
00010000
00001000
00010000
00001000
,
00100000
00001000
00100000
00001000
,
00010000
00000010
00000100
00000001
,
00001000
00000000
00000000
00000000
00000000
00000000
00000000
00000000
00000010
00000000
00000000
00000000
00000010
00000000
00000000
00000000
00010000
00000000
00000000
00001000
00000000
00000000
00010000
00000000
00022000
00000000
00000000
00000000
00000000
00000000
00000000
00000000
,
00000000
00000000
00033000
00000000
00001000
00001000
00100000
00000000
00110000
00000000
00000000
00000000
10100000
00000000
00000000
00000000
,
11000000
00000000
01010000
00000000
00010000
00001000
00000010
00000001
,
00002000
00000000
00003020
00001000
,
00001030
00010000
00200000
00010000
,
00310000
00001000
00000200
00000001
,
00002300
00003020
00020030
00230000
,
00320000
00000000
00030200
00000000
00001300
00000100
00001000
00000000
,
00000001
00001000
00000001
00000000
00000100
00000010
00000100
00000000
,
00001000
00010000
00001000
00000000
00100000
00010000
00100000
00010000
,
00100000
01000000
00100000
01000000
10000000
01000000
00100000
00001000
,
00010000
00001000
00011000
00000000
00001000
00000001
00000010
00000000
,
00001000
00010000
00000000
00000010
00001000
00000001
00000100
00001000
,
00010000
00001000
01000000
00000000
00010000
10000000
00100000
00000000
,
00010000
00001000
00000000
00100000
00010000
10000000
01000000
00010000
,
00001000
00000010
00000001
00000000
00000100
00000010
00001000
00000000
,
00010000
00100000
00000000
00001000
00010000
00001000
00010000
01000000
,
10000000
01000000
00010000
00000000
01000000
00100000
00010000
00000000
,
00001000
00000010
00000000
00010000
00001000
00010000
00001000
00000100
,
00000002
00000000
00001003
00000000
00001100
00000000
00000001
00000100
,
00000001
00000100
00001000
00000000
00011000
00000000
01000000
10000000
,
01000000
10000000
01000000
01000000
01000000
00000000
00100000
00000000
,
00101000
00000000
00010000
00001000
00010000
00001000
00100000
00001000
,
00010000
00000100
00000010
00000100
00000010
00000001
00001000
00000001
,
00001000
00000010
00000100
00000010
00000100
00001000
00010000
00001000
,
00010000
00100000
01000000
00010000
10000000
00000000
00010000
00100000
,
00010000
00100000
00001000
00010000
00010000
00001000
00000020
00000000
,
00000031
00000100
00001000
00000000
00000001
00000100
00001000
00000000
,
00010000
00001000
01000000
00100000
01000000
00010000
00100000
01000000
,
10000000
01000000
00010000
00000000
10000000
01000000
00010000
00000000
,
10000000
01000000
00100000
00010000
00100000
01000000
10000000
00010000
,
10000000
00010000
10000000
00100000
01000000
00100000
01000000
00001000
,
00010000
00001000
00010000
00000100
00000010
00000100
00000010
00000001
,
00001000
00000000
00000010
00001000
00000000
00100000
00010000
00000000
,
00001000
01000000
00000000
00010000
10000000
01000000
00010000
00001000
,
00000010
00000000
00000000
00000000
,
00000000
00000000
00000000
00000000
,
00000000
00000000
00000000
00000000
,
00000000
00000000
00000000
00000000
,
00000000
00000000
00000000
00000000
,
00000000
00000000
00000000
00000000
,
00000000
00000000
00000000
00000000
,
00001000
00001000
00010000
00010000
00000100
00000100
00000100
00000100
,
00000000
00000000
00000000
00000000
;
#NOTES:
     dance-double:
     :
     Hard:
     16:
     :
00000000
00000000
00000000
00000000
,
00000000
00000000
00000000
00000000
,
00000000
00000000
00000000
00000000
,
00000000
00000000
00000000
00000000
,
00000000
00000000
00000000
00000000
,
00000000
00000000
00000000
00000000
,
00000000
00000000
00000000
00000000
,
00000000
00000000
00000000
00000000
,
00001010
00000000
00000000
00010000
00001000
00000000
00010000
00000000
00001000
00010000
00000100
00001000
00000100
00001000
00000100
00000010
,
00000002
00000000
00000000
00000010
00000000
00000000
00001000
00000000
00002003
00000000
00000000
00000001
00000000
00000000
00000001
00000000
,
00003200
00000000
00000000
00001000
00000000
00000000
00001000
00000000
00000000
00010300
00000000
00001000
00010000
00000000
00001000
00000000
,
00020000
00000000
00000000
01030000
00100000
00000000
00100000
00000000
00002000
00000000
00000000
00013000
00100000
00000000
00100000
00000000
,
10000000
00000000
00010000
00000000
10000000
00000000
01000000
00000000
00100000
00001000
00000000
00100000
00001000
00000000
00010000
00000000
,
00011000
00000000
00010000
00000100
00000000
00001000
00000100
00000000
00001000
00000001
00000000
00000010
00000001
00000000
00000100
00000000
,
00001000
00000000
00010000
00001000
00000000
00100000
00001000
00000000
00100000
00010000
00000000
00100000
01000000
00000000
10000000
00000000
,
02000000
00000000
03000000
00010000
00001000
00000000
00000100
00000000
00000020
00000000
00000030
00000100
00001000
00000000
00010000
00000000
,
00001000
00010000
00001000
00010000
00001000
00100000
00010000
10000000
00010000
00000000
00000000
00000000
00000000
00000000
00000000
00000000
,
10010000
00000000
00000000
00000000
00011000
00000000
00001000
00010000
00002000
00000000
00000000
00000000
00000000
00000000
00000000
00000000
00013000
00000100
00010000
00000100
00020000
00000000
00000000
00000000
00030010
00001000
00000010
00001000
00000001
00000100
00000010
00001000
,
00000100
00000000
00001000
00000001
00000000
00001000
00000001
00001000
,
00000100
00000000
00010000
00001000
00000000
00100000
00001000
01000000
,
00010000
00000000
01000000
00100000
00000000
10000000
01000000
10000000
,
00010000
01000000
00001000
00010000
00001000
00000000
00000000
00000000
,
00011000
00000000
00000000
00100000
00000000
00000000
00010000
00000000
00200000
00000000
00000000
00000000
01300000
00100000
01000000
00100000
02000000
00000000
00000000
00000000
10000000
00000000
00000000
03000000
00100000
00000000
00010000
00000000
00110000
00000000
00000000
00000000
,
00011000
00001000
01001000
01000000
01100000
00100000
10100000
10000000
,
10000000
00010000
01000000
00010000
10000000
01000000
10000000
01000000
10000000
00000000
00000000
00000000
00100000
00000000
00010000
00000000
,
00001000
00000000
00010000
00000100
00000000
00001000
00000100
00000000
00002000
00000000
00000000
00000000
00000000
00000000
00000000
00000000
00003001
00001000
00000001
00001000
00000002
00000000
00000000
00000000
00000013
00000001
00000010
00000001
00001000
00000100
00010000
00001000
,
00010000
00000000
00001000
00000000
01000000
00010000
01000000
00000000
,
00001000
00000000
00010000
00000000
00000100
00001000
00000100
00000000
,
00010000
00001000
00010000
00000000
00000010
00010000
00001000
00100000
,
00010000
00000000
00000000
00000000
01000000
00000000
00000000
00000000
00100000
00000000
00000000
00000000
00100000
00000000
00000000
00000000
01010000
00000000
00000000
01000000
00000000
00000000
11000000
00000000
20020000
00000000
00000000
00000000
00000000
00000000
00000000
00030000
,
30010000
10000000
00010000
10000000
00020000
00000000
00000000
00000000
10030000
00000000
01000000
00000000
11000000
00000000
00000000
00000000
00110000
00000000
00000000
00000000
00100000
00000000
00000000
00000000
00101000
00000000
00000000
00000000
00001000
00000000
00000000
00000000
,
00011000
00000000
00010000
00000000
00010010
00000000
00000010
00000000
00001000
00000001
00001000
00000001
00001000
00000100
00001000
00000100
,
00000020
00000000
00000130
00010000
00002000
00000000
00103000
00000000
,
10000000
00000000
00100000
00010000
01000000
20000000
01000000
00000000
,
31000000
00000000
00001000
00010000
00001000
00010000
00200000
00000000
,
10300000
00000000
00100000
00010000
00001000
00000200
00000001
00000000
,
00000301
00000010
00001000
00010000
00011000
00000000
00110000
00000000
,
00011000
00110000
01010000
11000000
,
10100000
00000000
00110000
00000000
00001000
00010000
00000100
00001000
,
00000010
00000100
00000001
00000010
00001000
00010000
00100000
00010000
,
00001000
00010000
00001000
00010000
00000100
00000000
00000000
00000000
00010000
00000000
00000100
00000000
00001100
00000000
00000000
00000000
,
00001001
00001001
00000000
00000110
00000010
00000001
00000100
00001000
,
00010000
00100000
10000000
00100000
01000000
00010000
10010000
00000000
,
11000000
00000000
11000000
00000000
00000000
00000000
01100000
00000000
01100000
00000000
00000000
00001000
00010000
00000000
00001000
00000000
,
00100000
00010000
00000000
00100000
00010000
00000000
01000000
10000000
01000000
00000000
00100000
00000000
00110000
00000000
00000000
00000000
,
00011000
00011000
00000000
00000110
00000010
00000100
00001000
00010000
,
00100000
10000000
01000000
00010000
01000000
10000000
10010000
00000000
,
01010000
01010000
00000000
00011000
00001000
00100000
01000000
10000000
,
22000000
00000000
00000000
33000000
00010000
00000000
10000000
00010000
00000000
10000000
00010000
00000000
00100000
00010000
00000000
00100000
,
00001000
00000000
00010000
00000000
00000010
00000000
00001000
00000010
00000000
00001000
00000010
00000000
00000100
00000001
00000000
00001000
,
00000001
00000000
00001000
00000000
00000100
00000000
00010000
00001000
00000000
00010000
00000100
00000000
00010000
00001000
00000000
00010000
,
00000100
00000000
00010000
00000000
00001000
00000000
00100000
00010000
00000000
00100000
00001000
00000000
00020000
00000000
00000000
00000000
,
00031000
01000000
00001000
01000000
00010000
00000000
01000000
00010000
00000000
01000000
00010000
00000000
10000000
00000000
00100000
10000000
,
00000000
00100000
10000000
00000000
01000000
00000000
00010000
01000000
00000000
00010000
01000000
00000000
00100000
00000000
00001000
00010000
,
00000000
00001000
00010000
00000000
00000010
00000000
00001000
00000000
00001010
00000000
00000000
00000000
00000010
00010000
00000000
00001000
,
00010000
00000000
00000010
00000000
00000100
00000001
00000000
00001000
00000010
00000000
00010000
00000000
00011000
00000000
01000000
00100000
,
01000000
00000000
00010000
10000000
01000000
00000000
00010000
00000000
00001000
00010000
00001000
00000000
00000100
00000000
00000100
00000000
,
00000010
00000000
00000100
00000001
00001000
00000000
00000100
00000000
00010000
00001000
00010000
00000000
01000000
00000000
01000000
00000000
,
00100000
00000000
00001000
00010000
01000000
00000000
01000000
00000000
00100000
00000000
00001000
00010000
01000000
00000000
01000000
00000000
,
00100000
00000000
00001000
00010000
01000000
00000000
01000000
00000000
00200000
00000000
00000000
00000000
00301000
00010000
00001000
00010000
,
00001000
00000000
00000100
00000010
00000000
00000100
00000010
00000000
00000100
00000000
00001000
00010000
00000000
00001000
00010000
00000000
,
01000000
00000000
00010000
01000000
00000000
00010000
01000000
00000000
10000000
00000000
00100000
10000000
00000000
00100000
10000000
00000000
,
10100000
00000000
00000000
00000000
01010000
00000000
00010000
00000000
00000000
00000000
00100000
00001000
00010000
00000000
00000000
00000000
,
00001100
00000000
00000100
00000000
00000000
00000000
00000010
00000000
00000001
00001000
00000100
00010000
00000100
00010000
00001000
00010000
,
00001000
00000000
00000000
00000000
,
00000000
00000000
00000000
00000000
,
00000000
00000000
00000000
00000000
,
00000000
00000000
00000000
00000000
,
00000000
00000000
00000000
00000000
,
00000000
00000000
00000000
00000000
,
00000000
00000000
00000000
00000000
,
00010000
00000010
00010000
00000010
00010000
00001000
00100000
00010000
00100000
00010000
00100000
00001000
00010000
00001000
00010000
00000100
,
00000000
00000000
00000000
00000000
;
#NOTES:
     dance-double:
     :
     Challenge:
     18:
     :
00000000
00000000
00000000
00000000
,
00000000
00000000
00000000
00000000
,
00000000
00000000
00000000
00000000
,
00000000
00000000
00000000
00000000
,
00000000
00000000
00000000
00000000
,
00000000
00000000
00000000
00000000
,
00000000
00000000
00000000
00000000
,
00000000
00000000
00000000
00000000
,
10010000
00000000
00000000
00010000
10000000
00010000
01000000
00000000
00001000
00010000
00001000
00000100
00000010
00000100
00001000
00010000
,
00002000
00000000
00000000
00100000
00000000
00000000
00010000
00000000
00003020
00000100
00000000
00000000
00000001
00000000
00000100
00000000
,
00000032
00000000
00000000
00000010
00000000
00000000
00000010
00000000
00001003
00000100
00000000
00010000
00001000
00010000
00100000
00000000
,
02000000
00000000
00000000
03010000
10000000
01000000
00010000
00000000
00002000
00000000
00000000
00013000
00100000
01000000
00100000
00000000
,
10000000
00000000
00100000
00010000
00000000
00100000
01000000
00000000
00010000
00100000
00000000
00001000
00010000
00000000
00000100
00001000
,
00000100
00000000
00000010
00000100
00000000
00001000
00000100
00000000
00010000
00001000
00000000
00000100
00000010
00000100
00000010
00000100
,
00001000
00000000
00010000
00001000
00000000
00100000
00001000
00000000
00100000
00010000
00000000
00100000
00010000
10000000
00010000
10000000
,
01000000
00000000
00100000
00010000
00000000
01000000
00100000
00000000
00010000
00001000
00000000
00010000
00000010
00001000
00000001
00000010
,
00000100
00001000
00000100
00001000
00000100
00010000
00001000
00100000
00001000
00000000
00000000
00000000
00000000
00000000
00000000
00000000
,
10010000
00000000
00000000
00000000
00100000
10000000
01000000
00010000
00002000
00000000
00000000
00000000
00000000
00000000
00000000
00000000
00013000
00001000
00010000
00001000
00020000
00000000
00000000
00000000
00030010
00000100
00000001
00000100
00000010
00000100
00001000
00000100
,
00000010
00001000
00000010
00010000
00000100
00010000
00001000
00100000
,
01000000
10000000
00010000
00100000
00010000
00100000
00001000
00010000
,
00000010
00001000
00000001
00000010
00000001
00000100
00000001
00001000
,
00000001
00000100
00001000
00010000
00100000
00000000
00000000
00000000
,
10100000
00000000
00000000
01010000
00000000
00000000
10000000
00100000
02000000
00000000
00000000
00000000
03010000
00100000
00001000
00010000
00002000
00000000
00000000
00000000
01000000
00000000
00000000
00000000
00013000
00000000
00010000
00000000
00001000
00000000
00000000
00000000
,
00001010
00001000
00101000
00001000
00001100
00001000
00101000
00001000
,
00100000
00001000
00010000
00001000
00100000
01000000
00100000
01000000
20000000
00000000
00000000
00000000
00100000
00000000
00100000
00000000
,
31000000
00000000
00010000
00001000
00010000
00001000
00000100
00000010
00000200
00000000
00000000
00000000
00000000
00000000
00000000
00000000
00000301
00000100
00000001
00000100
00000002
00000000
00000000
00000000
00001003
00000100
00001000
00000001
00000100
00001000
00010000
00001000
,
00010000
00100000
00010000
00000000
00010000
00001000
00010000
00000000
,
00010000
01000000
00010000
00000000
00001000
00010000
00001000
00000000
,
00001000
00000010
00001000
00000000
00001000
00010000
00001000
00000100
,
00000010
00000000
00000100
00000000
00000010
00000000
00000000
00000000
00000110
00000000
00000000
00000000
00001001
00000000
00000000
00000000
00000101
00000000
00000100
00001000
00000000
00001000
00010000
00000000
00022000
00000000
00000000
00000000
00000000
00000000
00000000
00003000
,
00031000
00010000
01000000
10000000
02000000
00000000
00000000
00000000
03100000
00000000
00010000
00000000
00110000
00000000
00000000
00000000
00011000
00000000
00000000
00000000
00010000
00000000
00000000
00000000
00110000
00000000
00000000
00000000
00010000
00000000
00000000
00000000
,
00010100
00000000
00010000
00000000
01010000
00000000
00010000
00000000
00010000
01000000
00001000
00010000
00000010
00001000
00000001
00000100
,
00000002
00000000
00000010
00000010
00002003
00000000
00000100
00000000
,
00003010
00000000
00000010
00001000
00010000
02000000
10000000
00000000
,
00100000
00000000
03010000
00100000
10000000
00100000
00002000
00000000
,
00000010
00000000
00013000
00001000
00000100
00000020
00000001
00000000
,
00001030
00000100
00010000
00001000
00110000
00000000
11000000
00000000
,
00110000
00000000
00011000
00001000
01001000
01000000
01010000
00010000
,
10010000
10000000
11000000
01000000
00100000
00010000
00100000
10000000
,
00010000
00000000
01000000
00000000
10000000
00000000
01000000
00000000
00010000
00001000
00010000
00001000
00000100
00000010
00000100
00000010
,
00000001
00001000
00000001
00001000
00000100
00000000
00000000
00000000
00000100
00000000
00011000
00000000
00011000
00000000
00000000
00000000
,
01010000
01010000
00000000
01100000
01100000
00000000
10010000
10010000
,
10000000
01000000
00010000
10000000
00100000
00110000
00110000
00000000
,
00010010
00000000
00010010
00000000
00000000
00000000
00000110
00000000
00000110
00000000
00001000
00000001
00001000
00000000
00000010
00001000
,
00000001
00000010
00000001
00000100
00000010
00000100
00000001
00001000
00000010
00000000
00001010
00000000
00001010
00000000
00000000
00000000
,
00101000
00101000
00000000
01010000
01010000
00000000
10100000
10100000
,
00100000
00010000
00001000
00010000
01000000
01010000
01010000
00000000
,
10010000
10010000
00000000
00011000
00011000
00000000
00001100
00000101
,
00000220
00000000
00000000
00000330
00001000
00000000
00000001
00000100
00000000
00000010
00000100
00000000
00001000
00010000
00000000
00001000
,
00000100
00000000
00000001
00001000
00000100
00000000
00010000
00001000
00000000
00000010
00001000
00000000
00010000
00001000
00000000
00100000
,
00010000
00000000
00100000
01000000
10000000
00000000
00010000
01000000
00000000
00100000
01000000
00000000
00010000
01000000
00000000
00010000
,
00100000
00000000
00001000
00010000
00000010
00000000
00001000
00000100
00000000
00000010
00000100
00000000
00020000
00000000
00000000
00000000
,
00031000
00000000
00000000
00000000
00000000
00000000
00010000
00000000
00001000
00000000
00010000
00000000
00001000
00000000
00000000
00000000
00000000
00000000
00000010
00000000
00000000
00001000
00000000
00000000
00000000
00000000
00000000
00000010
00000000
00000000
00001000
00000000
00000000
00000000
00000000
00000000
00010000
00000000
00000000
00000000
00000000
00000000
00100000
00000000
00000000
00010000
00000000
00000000
,
00000000
00100000
00010000
00000000
00001000
00000000
00000100
00001000
00000000
00000100
00001000
00000000
00010000
00000000
01000000
00010000
,
00000000
01000000
00010000
00000000
01000000
00000000
01000000
10000000
00010000
01000000
00010000
00000000
00100000
00001000
00010000
00000000
,
00000010
00010000
00001000
00000000
01000000
00001000
00010000
00000000
00000100
00000010
00000001
00000000
00000011
00000000
00001000
00010000
,
00001000
00000000
00010000
01000000
10000000
00000000
01000000
00000000
00100000
01000000
10000000
00000000
01000000
00010000
00001000
00000000
,
00010000
00000000
00001000
00000100
00000001
00000000
00000100
00000000
00000010
00000100
00000001
00000000
00000100
00001000
00010000
00000000
,
00001000
00000000
00100000
00001000
00010000
00000000
00000010
00010000
00001000
00000000
00100000
00001000
00010000
00000000
00000010
00010000
,
00001000
00000000
00100000
00010000
10000000
00000000
01000000
10000000
00010000
10000000
00010000
00100000
00010000
00001000
00000100
00000010
,
00000100
00000000
00010000
00001000
00000000
00000100
00000010
00000100
00000001
00000000
00000100
00000010
00000000
00010000
00001000
00010000
,
01000000
00000000
00010000
00001000
00000000
01000000
00010000
01000000
00100000
00000000
10000000
00100000
00000000
00010000
00001000
00000000
,
00011000
00000000
00010000
00000010
00000100
00000000
00000110
00000000
00000010
00000100
00001000
00000000
00011000
00000000
00010000
01000000
,
00100000
00000000
01100000
00000000
10000000
00010000
00100000
01000000
00100000
00010000
00001000
00000100
00000010
00000001
00000010
00000100
,
00010000
00000000
00000000
00000000
,
00000000
00000000
00000000
00000000
,
00000000
00000000
00000000
00000000
,
00000000
00000000
00000000
00000000
,
00000000
00000000
00000000
00000000
,
00000000
00000000
00000000
00000000
,
00000000
00000000
00000000
00000000
,
00001000
00010000
00000010
00001000
00000001
00000100
00000010
00010000
00001000
00100000
00010000
10000000
01000000
00100000
00001000
00010000
,
00000000
00000000
00000000
00000000
;
