
//----- song ID: mous -----//
#TITLE:妄想税;
#ARTIST:DECO*27;
#TITLETRANSLIT:Mousou zei;
#BANNER:Mousou zei.png;
#BACKGROUND:Mousou zei-bg.png;
#CDTITLE:./CDTitles/DDR A.png;
#MUSIC:Mousou zei.ogg;
#SAMPLESTART:27.981;
#SAMPLELENGTH:15;
#BPMS:0=134;
#NOTES:
     dance-single:
     :
     Beginner:
     2:
     :
0000
0000
0000
0000
,
0000
0000
0000
0000
,
0000
0000
0000
0000
,
0000
0000
0000
0000
,
0000
0000
0000
0000
,
1000
0000
1000
0000
,
1000
0000
0000
0000
,
0001
0000
0001
0000
,
0010
0000
0010
0000
,
0001
0000
0000
0000
,
0002
0000
0003
0000
,
2000
0000
3000
0000
,
1000
0000
1000
0000
,
0010
0000
0010
0000
,
1001
0000
0000
0000
,
0000
0000
0000
0000
,
0001
0001
0001
0000
,
0010
0000
0010
0000
,
0010
0010
0010
0000
,
0002
0000
0003
0000
,
1000
1000
1000
0000
,
0010
0000
0010
0000
,
0010
0010
0010
0000
,
2000
0000
3000
0000
,
1000
0000
1000
0000
,
0010
0000
0010
0000
,
0100
0000
0100
0000
,
1001
0000
0000
0000
,
1000
0000
1000
0000
,
2000
0000
3000
0000
,
0010
0000
0010
0000
,
0020
0000
0030
0000
,
0100
0000
0100
0000
,
0200
0000
0300
0000
,
1000
0000
0001
0000
,
1000
0000
0000
0000
,
0001
0000
0001
0000
,
0002
0000
0003
0000
,
0010
0000
0010
0000
,
0020
0000
0030
0000
,
0100
0000
0100
0000
,
0200
0000
0300
0000
,
0001
0000
1000
0000
,
0001
0000
0000
0000
,
0002
0000
0003
0000
,
2000
0000
3000
0000
,
1000
0000
1000
0000
,
0010
0000
0010
0000
,
1001
0000
0000
0000
,
0000
0000
0000
0000
,
0001
0001
0001
0000
,
0010
0000
0010
0000
,
0010
0010
0010
0000
,
0002
0000
0003
0000
,
1000
1000
1000
0000
,
0010
0000
0010
0000
,
0010
0010
0010
0000
,
2000
0000
3000
0000
,
0001
0001
0001
0000
,
0010
0000
0010
0000
,
0010
0010
0010
0000
,
0002
0000
0003
0000
,
1000
1000
1000
0000
,
0010
0000
0010
0000
,
0010
0010
0010
0000
,
2000
0000
3000
0000
,
1000
0000
1000
0000
,
0010
0000
0010
0000
,
0100
0000
0100
0000
,
1001
0000
0000
0000
,
0000
0000
0000
0000
;
#NOTES:
     dance-single:
     :
     Easy:
     5:
     :
0000
0000
0000
0000
,
0000
0000
0000
0000
,
0000
0000
0000
0000
,
0000
0000
0000
0000
,
0000
0000
0000
0000
,
1000
0001
0100
0100
,
0001
1000
1001
0000
,
0001
1000
0100
0100
,
1000
0001
1000
0001
,
1001
0000
0000
0000
,
0002
0000
1003
0000
,
2000
0000
3001
0000
,
0001
1000
0001
1000
,
0010
0100
0010
0100
,
2002
0000
0000
0000
,
3003
0000
0000
0000
,
1000
1000
1000
0100
,
0010
0001
1000
0000
,
0001
0001
0001
0100
,
0010
1000
0001
0000
,
0010
0010
0010
0100
,
1000
0001
1000
0000
,
0100
0100
0100
0010
,
0001
1000
0001
0000
,
1000
1000
0001
0001
,
0100
0100
0010
0010
,
1000
0001
0010
0100
,
1001
0000
0000
0000
,
0001
0100
0001
0000
,
1000
0010
1000
0000
,
0001
0010
0001
0000
,
1000
0100
1000
0000
,
0001
0010
0100
0000
,
1000
0010
0100
0000
,
0001
0001
1000
1000
,
0100
0100
0010
0000
,
0001
0100
0001
0100
,
0010
1000
0010
0000
,
1000
0100
1000
0100
,
0010
0001
0010
0000
,
0001
0010
0100
1000
,
0001
1000
0010
0000
,
1000
1000
0001
0001
,
0010
0000
0000
0000
,
2000
0000
3001
0000
,
0002
0000
1003
0000
,
1000
0001
1000
0001
,
0010
0100
0010
0100
,
2002
0000
0000
0000
,
3003
0000
0000
0000
,
0001
0001
0001
0100
,
0010
1000
0001
0000
,
1000
1000
1000
0100
,
0010
0001
1000
0000
,
0010
0010
0010
0100
,
0001
1000
0001
0000
,
0100
0100
0100
0010
,
1000
0001
1000
0000
,
0001
0001
0001
0100
,
0010
1000
0001
0000
,
1000
1000
1000
0100
,
0010
0001
1000
0000
,
0010
0010
0010
0100
,
0001
1000
0001
0000
,
0100
0100
0100
0010
,
1000
0001
1000
0000
,
0001
0001
1000
1000
,
0100
0100
0010
0010
,
0001
1000
0010
0100
,
1001
0000
0000
0000
,
0000
0000
0000
0000
;
#NOTES:
     dance-single:
     :
     Medium:
     9:
     :
0000
0000
0000
0000
,
0000
0000
0000
0000
,
0000
0000
0000
0000
,
0000
0000
0000
0000
,
0000
0000
0000
0000
,
1000
0001
0010
0000
0110
0000
1001
0000
,
1000
0010
0100
0000
0110
0000
1001
0000
,
0001
1000
0100
0000
0110
0000
1001
0000
,
0001
1000
0100
0010
0001
0010
0200
0000
,
1300
0000
0000
0000
,
1000
0100
0010
0000
0002
0000
0103
0000
,
0001
0100
0010
0000
2000
0000
3001
0000
,
0002
0010
2003
0010
,
3002
0100
2003
3100
,
0001
1000
0001
1000
0100
0000
0110
0000
,
1000
0000
0000
0001
0000
0000
1000
0000
0000
0000
0000
0000
0000
0000
0000
0000
,
1000
0001
0010
0100
0000
0010
0001
0000
,
1000
0100
0010
0010
0000
0001
1000
0000
,
0010
0100
0001
0100
0000
0010
1000
0000
,
0001
1000
0100
0010
0000
0001
0001
0000
,
1000
0001
1000
0001
0000
0010
0100
0000
,
1000
0100
0010
0001
0000
0100
0010
0000
,
1000
0010
0100
0001
0000
0100
0010
0000
,
1000
0001
0010
0100
0000
0000
0110
0000
,
1000
0100
0010
0000
0001
0000
0001
0000
,
1000
0001
1000
0000
0010
0100
0010
0000
,
1000
0010
0100
0001
0010
0000
0100
0000
,
1001
0000
0000
0000
,
0001
0010
0100
1000
,
0001
0000
0100
0000
0010
1000
0010
0000
,
0100
0001
1000
0100
,
0010
0000
0001
0000
0010
0100
0010
0000
,
0100
1000
0001
1000
,
0010
0000
0100
0000
0001
1000
0001
0000
,
0000
0100
0100
0000
0010
0010
0000
1000
,
1000
0000
0001
0001
0000
0000
0000
0000
,
1000
0010
0100
0001
,
1000
0000
0100
0000
0010
0001
0010
0000
,
0100
1000
0001
0100
,
0010
0000
1000
0000
0010
0100
0010
0000
,
0100
0001
1000
0001
,
0010
0000
0100
0000
1000
0001
1000
0000
,
0000
0100
0100
0000
0010
0010
0000
0001
,
0001
0000
0000
0000
,
0001
0100
0010
0000
2000
0000
3100
0000
,
1000
0100
0010
0000
0002
0000
1003
0000
,
2000
0010
3002
0010
,
2003
0100
3002
0103
,
1000
0001
1000
0001
0100
0000
0110
0000
,
0001
0000
0000
1000
0000
0000
0001
0000
0000
0000
0000
0000
0000
0000
0000
0000
,
0001
1000
0010
0100
0000
0010
1000
0000
,
0001
0100
0010
0010
0000
1000
0001
0000
,
0010
0100
1000
0100
0000
0010
0001
0000
,
1000
0001
0100
0010
0000
1000
1000
0000
,
0001
1000
0001
1000
0000
0010
0100
0000
,
0001
0100
0010
1000
0000
0100
0010
0000
,
0001
0010
0100
1000
0000
0100
0010
0000
,
0001
1000
0010
0100
0000
0100
0010
0000
,
1000
0000
0000
1000
0000
0000
1000
0000
0000
0000
0100
0000
0010
0000
0000
0000
,
0001
0000
0000
0001
0000
0000
0001
0000
0000
0000
0010
0000
0100
0000
0000
0000
,
1000
0000
0000
0001
0000
0000
1000
0000
0000
0000
0010
0000
0100
0000
0000
0000
,
0001
0000
0000
1000
0000
0000
0001
0000
0000
0000
1000
0000
0100
0000
0000
0000
,
0010
0000
0000
0010
0000
0000
0010
0000
0000
0000
0001
0000
0100
0000
0000
0000
,
0010
0000
0000
0010
0000
0000
0010
0000
0000
0000
1000
0000
0001
0000
0000
0000
,
0100
0000
0000
0010
0000
0000
0100
0000
0000
0000
0001
0000
1000
0000
0000
0000
,
0100
0000
0000
0010
0000
0000
0100
0000
0000
0000
0000
0000
0110
0000
0000
0000
,
0001
0010
0100
0000
1000
0000
1000
0000
,
0001
1000
0001
0000
0100
0010
0100
0000
,
0001
0100
0010
1000
0100
0000
0010
0000
,
1001
0000
0000
0000
,
0000
0000
0000
0000
;
#NOTES:
     dance-single:
     :
     Hard:
     11:
     :
0000
0000
0000
0000
,
0000
0000
0000
0000
,
0000
0000
0000
0000
,
0000
0000
0000
0000
,
0000
0000
0000
0000
,
1000
0000
0001
0000
0010
0000
0100
0000
1000
0000
0001
1000
0000
0000
0002
0000
,
0000
0000
0103
0000
0010
0000
1000
0000
0010
0000
0100
0001
0000
0000
0000
0000
,
0001
0000
0100
0000
0010
0000
1000
0000
0001
0000
0010
0100
0000
0000
2000
0000
,
0000
3100
0001
0100
1000
0001
0100
0000
,
1010
1100
0110
0011
,
0001
0000
0000
0010
0000
0000
0100
0000
1000
0000
0000
0000
0001
0000
0000
0000
,
0100
0000
0000
0010
0000
0000
1000
0000
0000
0000
0000
0000
1000
0000
0010
0000
,
0100
0000
0001
0010
0000
0000
0100
0000
1000
0000
0001
1000
0000
0000
0010
0000
,
0100
0000
0010
1000
0000
0000
0010
0000
0100
0000
0000
0001
0000
0000
1000
0000
,
0100
0010
0001
0010
0100
1000
0100
0010
,
0011
0000
0000
1100
0000
0000
0110
0000
0000
0000
1000
0000
0001
0000
1000
0000
,
1100
0000
0000
0110
0000
0000
0011
0000
0000
0000
1000
0000
0010
0000
1000
0000
,
0001
0000
0000
0100
0000
0000
0010
0000
0000
0000
1000
0000
0001
0000
0010
0000
,
0110
0000
0000
1100
0000
0000
1001
0000
0000
0000
1000
0000
0100
0000
0000
0000
,
0110
0000
0000
0011
0000
0000
1001
0000
0000
0000
0001
0000
0100
0000
0010
0000
,
0110
0000
0000
1010
0000
0000
1001
0000
0000
0000
0001
0000
1000
0000
0100
0000
,
0010
0000
0000
0001
0000
0000
0100
0000
0000
0000
0010
0000
1000
0000
0010
0000
,
0110
0000
0000
0101
0000
0000
1001
0000
0000
0000
0001
0000
1000
0000
0100
0000
,
0110
0000
0000
0011
0000
0000
1001
0000
0000
0000
0000
0000
0110
0000
0000
0000
,
1000
0000
0100
0000
0001
0000
0100
0000
1000
0000
0000
0001
0000
0000
1000
0000
,
0001
0000
0100
0000
1000
0000
0100
0000
0001
0000
1000
0001
0000
0000
1000
0000
,
0010
0000
0001
0000
0010
0000
1000
0000
0100
0000
0000
0001
0000
0000
0100
0000
,
2000
0000
3100
0000
,
2010
3001
0012
1003
,
1200
0000
0310
0000
0001
0010
0100
0000
,
2100
3001
0102
1003
,
1020
0000
0130
0000
0001
1000
0001
0000
,
0012
0103
0210
0301
,
0102
0000
1003
0000
0010
1000
0001
0000
,
0000
0100
0010
0100
0001
1000
0001
0010
,
0100
1000
0001
1000
0000
0000
0000
0000
,
0102
1003
2100
3001
,
0021
0000
0130
0000
1000
0100
0010
0000
,
0012
1003
2010
3001
,
0201
0000
0310
0000
1000
0001
1000
0000
,
2100
3010
0120
1030
,
2010
0000
3001
0000
0100
0001
1000
0000
,
0000
0010
0100
0010
1000
0001
1000
0100
,
0010
0000
0000
0000
,
1000
0000
0000
0010
0000
0000
0100
0000
0001
0000
0000
0000
1000
0000
0000
0000
,
0100
0000
0000
0010
0000
0000
0001
0000
0000
0000
0000
0000
0001
0000
0010
0000
,
0100
0000
1000
0010
0000
0000
0100
0000
0001
0000
1000
0001
0000
0000
0010
0000
,
0100
0000
0010
0001
0000
0000
0010
0000
0100
0000
0000
1000
0000
0000
0001
0000
,
0100
0010
1000
0010
0100
0001
0100
0010
,
1000
0000
0000
0001
0000
0000
1001
0000
0000
0000
0001
0000
1000
0000
0001
0000
,
0100
0000
0000
0100
0000
0000
0100
0000
0000
0000
0001
0000
0010
0000
0001
0000
,
1000
0000
0000
0100
0000
0000
0010
0000
0000
0000
0001
0000
1000
0000
0010
0000
,
0100
0000
0000
0001
0000
0000
1000
0000
0000
0000
0001
0000
0100
0000
0000
0000
,
0010
0000
0000
1000
0000
0000
0001
0000
0000
0000
1000
0000
0010
0000
0100
0000
,
0010
0000
0000
0010
0000
0000
0010
0000
0000
0000
1000
0000
0001
0000
0010
0000
,
0100
0000
0000
1000
0000
0000
0100
0000
0000
0000
0010
0000
0001
0000
0010
0000
,
0100
0000
0000
1000
0000
0000
0001
0000
0000
0000
1000
0000
0001
0000
0100
0000
,
0010
0000
0000
1000
0000
0000
0001
0000
0000
0000
1000
0000
0001
0000
1000
0000
,
1010
0000
0000
0110
0000
0000
0101
0000
0000
0000
1000
0000
0100
0000
1000
0000
,
0001
0000
0000
0010
0000
0000
0100
0000
0000
0000
1000
0000
0001
0000
0100
0000
,
0110
0000
0000
1010
0000
0000
1001
0000
0000
0000
1000
0000
0010
0000
0000
0000
,
0110
0000
0000
0101
0000
0000
1001
0000
0000
0000
0001
0000
0010
0000
0100
0000
,
0110
0000
0000
1100
0000
0000
1001
0000
0000
0000
0001
0000
1000
0000
0010
0000
,
0100
0000
0000
0001
0000
0000
0010
0000
0000
0000
0100
0000
1000
0000
0100
0000
,
0110
0000
0000
0011
0000
0000
1001
0000
0000
0000
0001
0000
1000
0000
0010
0000
,
0110
0000
0000
0101
0000
0000
1001
0000
0000
0000
0000
0000
0110
0000
0000
0000
,
1000
0000
0010
0000
0001
0000
0010
0000
1000
0000
0000
0001
0000
0000
1000
0000
,
0001
0000
0010
0000
1000
0000
0010
0000
0001
0000
1000
0001
0000
0000
1000
0000
,
0100
0000
0001
0000
0100
0000
1000
0000
0010
0000
0000
0001
0000
0000
0010
0000
,
1000
0000
0000
0000
,
0000
0000
0000
0000
;
#NOTES:
     dance-double:
     :
     Easy:
     5:
     :
00000000
00000000
00000000
00000000
,
00000000
00000000
00000000
00000000
,
00000000
00000000
00000000
00000000
,
00000000
00000000
00000000
00000000
,
00000000
00000000
00000000
00000000
,
10000000
10000000
01000000
01000000
,
00010000
00001000
00011000
00000000
,
00001000
00001000
00000100
00000100
,
00000001
00001000
00000001
00001000
,
00001001
00000000
00000000
00000000
,
00000002
00000000
00000103
00000000
,
00000200
00000000
00001300
00000000
,
00010000
00001000
00010000
00001000
,
00100000
00010000
00100000
01000000
,
20020000
00000000
00000000
00000000
,
30030000
00000000
00000000
00000000
,
10000000
10000000
10000000
01000000
,
00010000
00001000
00010000
00000000
,
00001000
00001000
00001000
00000010
,
00000001
00000010
00000100
00000000
,
00000001
00000001
00000001
00000100
,
00001000
00010000
00001000
00000000
,
00010000
00010000
00010000
00100000
,
10000000
00010000
10000000
00000000
,
10000000
10000000
01000000
01000000
,
00010000
00010000
00001000
00001000
,
00000100
00000100
00000001
00000001
,
00001001
00000000
00000000
00000000
,
00000001
00000100
00000001
00000000
,
00001000
00000010
00001000
00000000
,
00000100
00010000
00000100
00000000
,
00010000
00001000
00010000
00000000
,
00001000
00100000
00001000
00000000
,
01000000
00010000
01000000
00000000
,
00010000
00010000
10000000
10000000
,
01000000
01000000
00100000
00000000
,
10000000
00100000
10000000
00000000
,
00010000
01000000
00010000
00000000
,
00100000
00001000
00100000
00000000
,
00001000
00010000
00001000
00000000
,
00010000
00000100
00010000
00000000
,
00000010
00001000
00000010
00000000
,
00001000
00001000
00000001
00000001
,
00000010
00000000
00000000
00000000
,
00000002
00000000
00000103
00000000
,
00000200
00000000
00001300
00000000
,
00010000
00001000
00010000
00001000
,
00100000
00010000
00100000
01000000
,
20020000
00000000
00000000
00000000
,
30030000
00000000
00000000
00000000
,
10000000
10000000
10000000
01000000
,
00010000
00001000
00010000
00000000
,
00001000
00001000
00001000
00000010
,
00000001
00000010
00000100
00000000
,
00000001
00000001
00000001
00000100
,
00001000
00010000
00001000
00000000
,
00010000
00010000
00010000
00100000
,
10000000
00010000
10000000
00000000
,
10000000
00010000
10000000
01000000
,
00010000
00001000
00010000
00010000
,
00001000
00010000
00001000
00000010
,
00000001
00000010
00000100
00001000
,
00000001
00001000
00000001
00000100
,
00001000
00010000
00001000
00001000
,
00010000
00001000
00010000
00100000
,
10000000
00010000
10000000
00000000
,
10000000
10000000
01000000
01000000
,
00010000
00010000
00001000
00001000
,
00000100
00000100
00000001
00000001
,
00001001
00000000
00000000
00000000
,
00000000
00000000
00000000
00000000
;
#NOTES:
     dance-double:
     :
     Medium:
     9:
     :
00000000
00000000
00000000
00000000
,
00000000
00000000
00000000
00000000
,
00000000
00000000
00000000
00000000
,
00000000
00000000
00000000
00000000
,
00000000
00000000
00000000
00000000
,
10000000
00010000
00100000
00000000
00101000
00000000
00011000
00000000
,
00001000
00000100
00000001
00000000
00000101
00000000
00001010
00000000
,
00000001
00001000
00000100
00000000
00010100
00000000
00011000
00000000
,
00001000
00010000
01000000
10000000
01000000
00100000
00020000
00000000
,
00130000
00000000
00000000
00000000
,
10000000
01000000
00010000
00000000
00001000
00010000
00001000
00000000
,
00010000
00001000
00000100
00000010
00000100
00000000
00001001
00000000
,
00000002
00000010
00002003
00000100
,
00003200
00010000
00020300
00031000
,
00001000
00010000
00001000
00010000
00100000
00000000
01100000
00000000
,
10000000
00000000
00000000
00010000
00000000
00000000
10000000
00000000
00000000
00000000
00000000
00000000
00000000
00000000
00000000
00000000
,
10000000
00010000
10000000
00000000
01000000
00100000
00010000
00000000
,
00100000
00001000
00010000
00000000
00011000
00000000
00000000
00000000
,
00010000
00000100
00001000
00000000
00000100
00000010
00000001
00000000
,
00001000
00000100
00000010
00000100
00001000
00000000
00000000
00000000
,
00000001
00001000
00000001
00000000
00000100
00000010
00001000
00000000
,
00000010
00010000
00001000
00000000
00011000
00000000
00000000
00000000
,
00001000
01000000
00010000
00000000
01000000
00100000
10000000
00000000
,
00010000
01000000
00100000
01000000
00010000
00000000
10000000
00000000
,
01000000
00100000
01000000
00000000
00010000
00000000
00010000
00000000
,
00001000
00010000
00001000
00000000
00000010
00000000
00000010
00000000
,
00000001
00001000
00000001
00000000
00000100
00000010
00000100
00000000
,
00001001
00000000
00000000
00000000
,
00001000
00000001
00000100
00001000
,
00010000
00000000
01000000
00000000
00100000
00010000
00100000
00000000
,
01000000
10000000
00100000
00010000
,
00001000
00000000
00000100
00000000
00000001
00001000
00000001
00000000
,
00000100
00001000
00010000
00001000
,
00010000
00000000
01000000
00000000
00100000
00010000
00100000
00000000
,
00000000
01000000
01000000
00000000
10000000
10000000
00000000
00010000
,
00010000
00000000
01000000
01000000
00000000
00000000
00000000
00000000
,
00010000
10000000
01000000
00010000
,
00001000
00000000
00000100
00000000
00000010
00001000
00000010
00000000
,
00000100
00000001
00000010
00001000
,
00010000
00000000
01000000
00000000
10000000
00010000
10000000
00000000
,
01000000
00010000
00001000
00010000
,
00001000
00000000
00000100
00000000
00000010
00001000
00000010
00000000
,
00000000
00000100
00000100
00000000
00000001
00000001
00000000
00001000
,
00001000
00000000
00000000
00000000
,
00000001
00000010
00001000
00000000
00010000
00001000
00010000
00000000
,
00001000
00010000
00100000
01000000
00100000
00000000
10010000
00000000
,
20000000
01000000
30020000
00100000
,
00230000
00001000
00302000
00013000
,
00010000
00001000
00010000
00001000
00000100
00000000
00000110
00000000
,
00000001
00000000
00000000
00001000
00000000
00000000
00000001
00000000
00000000
00000000
00000000
00000000
00000000
00000000
00000000
00000000
,
00000001
00001000
00000001
00000000
00000100
00000010
00001000
00000000
,
00000010
00010000
00001000
00000000
00011000
00000000
00000000
00000000
,
00001000
01000000
00010000
00000000
01000000
00100000
10000000
00000000
,
00010000
01000000
00100000
01000000
00010000
00000000
00000000
00000000
,
10000000
00010000
10000000
00000000
01000000
00100000
00010000
00000000
,
00100000
00001000
00010000
00000000
00011000
00000000
00000000
00000000
,
00010000
00000100
00001000
00000000
00000100
00000010
00000001
00000000
,
00001000
00000100
00000010
00000100
00001000
00000000
00000000
00000000
,
00000001
00000000
00000000
00000001
00000000
00000000
00000001
00000000
00000000
00000000
00000100
00000000
00000010
00000000
00000000
00000000
,
00001000
00000000
00000000
00001000
00000000
00000000
00001000
00000000
00000000
00000000
00000010
00000000
00000010
00000000
00000000
00000000
,
00010000
00000000
00000000
00001000
00000000
00000000
00010000
00000000
00000000
00000000
00000010
00000000
00010000
00000000
00000000
00000000
,
00001000
00000000
00000000
00010000
00000000
00000000
00001000
00000000
00000000
00000000
00010000
00000000
01000000
00000000
00000000
00000000
,
00100000
00000000
00000000
00100000
00000000
00000000
00100000
00000000
00000000
00000000
00010000
00000000
10000000
00000000
00000000
00000000
,
01000000
00000000
00000000
01000000
00000000
00000000
01000000
00000000
00000000
00000000
10000000
00000000
00010000
00000000
00000000
00000000
,
10000000
00000000
00000000
00010000
00000000
00000000
10000000
00000000
00000000
00000000
00100000
00000000
01000000
00000000
00000000
00000000
,
00010000
00000000
00000000
10000000
00000000
00000000
00010000
00000000
00000000
00000000
00000000
00000000
10000000
00000000
00000000
00000000
,
01000000
00100000
01000000
00000000
00010000
00000000
00010000
00000000
,
00001000
00010000
00001000
00000000
00000010
00000000
00000010
00000000
,
00000001
00001000
00000001
00000000
00000100
00000010
00000100
00000000
,
00001001
00000000
00000000
00000000
,
00000000
00000000
00000000
00000000
;
#NOTES:
     dance-double:
     :
     Hard:
     12:
     :
00000000
00000000
00000000
00000000
,
00000000
00000000
00000000
00000000
,
00000000
00000000
00000000
00000000
,
00000000
00000000
00000000
00000000
,
00000000
00000000
00000000
00000000
,
10000000
00000000
00010000
00000000
00100000
00000000
01000000
00000000
00010000
00000000
00001000
00010000
00000000
00000000
00002000
00000000
,
00000000
00000000
00003100
00000000
00000001
00000000
00001000
00000000
00000010
00000000
00000100
00000001
00000000
00000000
00000000
00000000
,
00000001
00000000
00000010
00000000
00000100
00000000
00001000
00000000
00000100
00000000
00010000
00001000
00000000
00000000
00020000
00000000
,
00000000
00130000
10000000
00010000
01000000
00100000
01000000
00000000
,
10100000
01001000
00010010
00000101
,
00000001
00000000
00000000
00000010
00000000
00000000
00000100
00000000
00001000
00000000
00000000
00000000
00000001
00000000
00000000
00000000
,
00000100
00000000
00000000
00001000
00000000
00000000
00010000
00000000
00000000
00000000
00000000
00000000
00011000
00000000
00000000
00000000
,
00100000
10000000
00100000
10000000
00010000
01000000
00010000
01000000
,
00001000
00010000
00001000
00010000
00000100
00001000
00000100
00001000
,
00000100
00000010
00000001
00000010
00000100
00001000
00000100
00000010
,
00000011
00000000
00000000
00001100
00000000
00000000
00000110
00000000
00000000
00000000
00000001
00000000
00001000
00000000
00000001
00000000
,
00000100
00000000
00000000
00000010
00000000
00000000
00000100
00000000
00000000
00000000
00001000
00000000
00010000
00000000
00001000
00000000
,
00010000
00000000
00000000
01000000
00000000
00000000
10000000
00000000
00000000
00000000
00010000
00000000
00100000
00000000
00010000
00000000
,
01000000
00000000
00000000
00001000
00000000
00000000
00010000
00000000
00000000
00000000
00001000
00000000
00000100
00000000
00000000
00000000
,
00000001
00000000
00000000
00001000
00000000
00000000
00000001
00000000
00000000
00000000
00000010
00000000
00000100
00000000
00000010
00000000
,
00000001
00000000
00000000
00000010
00000000
00000000
00001000
00000000
00000000
00000000
00010000
00000000
00001000
00000000
00010000
00000000
,
00100000
00000000
00000000
10000000
00000000
00000000
00010000
00000000
00000000
00000000
01000000
00000000
00100000
00000000
01000000
00000000
,
00010000
00000000
00000000
10000000
00000000
00000000
01000000
00000000
00000000
00000000
00100000
00000000
00010000
00000000
00100000
00000000
,
01000000
00000000
00000000
00010000
00000000
00000000
00001000
00000000
00000000
00000000
00000000
00000000
00000110
00000000
00000000
00000000
,
00000001
00000000
00000100
00000000
00001000
00000000
00000100
00000000
00000001
00000000
00000000
00000100
00000000
00000000
00001000
00000000
,
00010000
00000000
00001000
00000000
00000100
00000000
00001000
00000000
00010000
00000000
00001000
00010000
00000000
00000000
00100000
00000000
,
01000000
00000000
00100000
00000000
10000000
00000000
00100000
00000000
01000000
00000000
00000000
00010000
00000000
00000000
01000000
00000000
,
00200000
00000000
01300000
00000000
,
10010000
00000000
10000000
00010000
00000000
00010000
01000000
00000000
01000000
00100000
00000000
00100000
,
00010000
00000000
00000000
00000000
00010000
00000000
00001000
00000000
00000000
00000000
00001000
00000000
00000100
00000000
00000000
00000010
00000000
00000000
00000100
00000000
00000000
00000001
00000000
00000000
,
00001000
00000000
00001000
00000100
00000000
00000100
00000010
00000000
00000010
00000001
00000000
00000001
,
00000010
00000000
00000000
00000000
00000010
00000000
00001000
00000000
00000000
00000000
00001000
00000000
00010000
00000000
00000000
00001000
00000000
00000000
00010000
00000000
00000000
00100000
00000000
00000000
,
10000000
00000000
10000000
00100000
00000000
00100000
01000000
00000000
01000000
00010000
00000000
00010000
,
00100000
00000000
00000000
00000000
00100000
00000000
01000000
00000000
00000000
00000000
01000000
00000000
00100000
00000000
00000000
00001000
00000000
00000000
00010000
00000000
00000000
00001000
00000000
00000000
,
00000000
00000100
00000010
00000100
00000001
00001000
00000001
00000010
,
00000100
00000010
00000001
00001000
00000000
00000000
00000000
00000000
,
00001001
00000000
00000001
00001000
00000000
00001000
00000100
00000000
00000100
00000010
00000000
00000010
,
00001000
00000000
00000000
00000000
00001000
00000000
00010000
00000000
00000000
00000000
00010000
00000000
01000000
00000000
00000000
00100000
00000000
00000000
01000000
00000000
00000000
10000000
00000000
00000000
,
00010000
00000000
00010000
01000000
00000000
01000000
00100000
00000000
00100000
10000000
00000000
10000000
,
00100000
00000000
00000000
00000000
00100000
00000000
00010000
00000000
00000000
00000000
00010000
00000000
00001000
00000000
00000000
00010000
00000000
00000000
00001000
00000000
00000000
00000010
00000000
00000000
,
00000001
00000000
00000001
00000010
00000000
00000010
00000100
00000000
00000100
00001000
00000000
00001000
,
00000010
00000000
00000000
00000000
00000010
00000000
00000100
00000000
00000000
00000000
00000100
00000000
00000010
00000000
00000000
00010000
00000000
00000000
00001000
00000000
00000000
00010000
00000000
00000000
,
00000000
01000000
00100000
01000000
10000000
00010000
10000000
00100000
,
01000000
00000000
00000000
00000000
,
10000000
00000000
00000000
00100000
00000000
00000000
01000000
00000000
00010000
00000000
00000000
00000000
10000000
00000000
00000000
00000000
,
01000000
00000000
00000000
00010000
00000000
00000000
00001000
00000000
00000000
00000000
00000000
00000000
00011000
00000000
00000000
00000000
,
00000010
00000001
00000010
00000001
00001000
00000100
00001000
00000100
,
00010000
00001000
00010000
00001000
01000000
00010000
01000000
00010000
,
01000000
00100000
10000000
00100000
01000000
00010000
01000000
00100000
,
10100000
00000000
00000000
01010000
00000000
00000000
01100000
00000000
00000000
00000000
10000000
00000000
00010000
00000000
10000000
00000000
,
01000000
00000000
00000000
00100000
00000000
00000000
01000000
00000000
00000000
00000000
00010000
00000000
00001000
00000000
00010000
00000000
,
00001000
00000000
00000000
00000100
00000000
00000000
00000001
00000000
00000000
00000000
00001000
00000000
00000010
00000000
00001000
00000000
,
00000100
00000000
00000000
00010000
00000000
00000000
00001000
00000000
00000000
00000000
00010000
00000000
01000000
00000000
00000000
00000000
,
10000000
00000000
00000000
00010000
00000000
00000000
10000000
00000000
00000000
00000000
00100000
00000000
01000000
00000000
00100000
00000000
,
10000000
00000000
00000000
00100000
00000000
00000000
00010000
00000000
00000000
00000000
00001000
00000000
00010000
00000000
00001000
00000000
,
00000010
00000000
00000000
00000001
00000000
00000000
00001000
00000000
00000000
00000000
00000100
00000000
00000010
00000000
00000100
00000000
,
00001000
00000000
00000000
00000001
00000000
00000000
00000100
00000000
00000000
00000000
00000010
00000000
00001000
00000000
00000010
00000000
,
00000100
00000000
00000000
00001000
00000000
00000000
00010000
00000000
00000000
00000000
01000000
00000000
00100000
00000000
01000000
00000000
,
10000000
00000000
01000000
00100000
00000000
00010000
00100000
00000000
00001000
00000000
00010000
00000000
00001000
00000000
00000100
00000000
,
00000010
00000000
00001000
00000010
00000000
00000100
00000001
00000000
00001000
00000000
00000001
00000000
00000010
00000000
00000100
00000000
,
00001000
00000000
00000001
00000010
00000000
00000100
00000010
00000000
00000001
00000000
00000010
00000000
00001000
00000000
00010000
00000000
,
00100000
00000000
10000000
00100000
00000000
01000000
00010000
00000000
10000000
00000000
00010000
00000000
00100000
00000000
01000000
00000000
,
10000000
00000000
01000000
00100000
00000000
00010000
00100000
00000000
01000000
00000000
00010000
00000000
00001000
00000000
00000100
00000000
,
00000010
00000000
00001000
00000010
00000000
00000100
00000001
00000000
00000100
00000000
00000010
00000000
00001000
00000000
00000001
00000000
,
00000010
00000000
00000100
00000010
00000000
00000001
00000010
00000000
00000100
00000000
00001000
00000000
00000001
00000000
00001000
00000000
,
00000010
00000000
00000100
00001000
00000000
00010000
00001000
00000000
00000000
00000000
00000000
00000000
01100000
00000000
00000000
00000000
,
10000000
00000000
01000000
00000000
00010000
00000000
01000000
00000000
10000000
00000000
00000000
01000000
00000000
00000000
00010000
00000000
,
00001000
00000000
00010000
00000000
01000000
00000000
00010000
00000000
00001000
00000000
00010000
00001000
00000000
00000000
00000010
00000000
,
00000100
00000000
00000010
00000000
00000001
00000000
00000010
00000000
00000100
00000000
00000000
00001000
00000000
00000000
00000100
00000000
,
00000010
00000000
00000000
00000000
,
00000000
00000000
00000000
00000000
;
