
//----- song ID: tama -----//
#TITLE:魔法のたまご ~心菜 ELECTRO POP edition~;
#ARTIST:東雲心菜(from ここなつ);
#TITLETRANSLIT:Mahou no tamago ~Cocona ELECTRO POP edition~;
#ARTISTTRANSLIT:Cocona Shinonome (from CocoNatsu);
#BANNER:Mahou no tamago ~Cocona ELECTRO POP edition~.png;
#BACKGROUND:Mahou no tamago ~Cocona ELECTRO POP edition~-bg.png;
#CDTITLE:./CDTitles/BeatStream.png;
#MUSIC:Mahou no tamago ~Cocona ELECTRO POP edition~.ogg;
#SAMPLESTART:69.211;
#SAMPLELENGTH:15;
#DISPLAYBPM:142;
#BPMS:0=140.6,4=142;
#NOTES:
     dance-single:
     :
     Beginner:
     3:
     :
0000
0000
0000
0000
,
0000
0000
0000
0000
,
0000
0000
0000
0000
,
0000
0000
0000
0000
,
0000
0000
0000
0000
,
0001
0000
0000
0000
,
1000
0000
0000
0000
,
0010
0000
0000
0000
,
0100
0000
0000
0000
,
0001
0000
0000
0000
,
1000
0000
0000
0000
,
0010
0000
0000
0000
,
0100
0000
0000
0000
,
0001
0000
1000
0000
,
0010
0000
0100
0000
,
0001
0000
1000
0000
,
0000
0000
0000
0000
,
0001
0001
0000
0000
,
1000
1000
0000
0000
,
0001
0001
0000
0000
,
1000
1000
0000
0000
,
0010
0010
0000
0000
,
0100
0100
0000
0000
,
0001
0000
0000
0000
,
1000
0000
0000
0000
,
0001
0000
0000
0000
,
1000
0000
0001
0000
,
0000
0000
0100
0000
,
0100
0000
0010
0000
,
0010
0000
1000
0000
,
1000
0000
0001
0000
,
0001
0000
0010
0000
,
0010
0000
0100
0000
,
0100
0000
0010
0000
,
0100
0000
1000
0000
,
0001
0000
1000
0000
,
0001
0000
1000
0000
,
0100
0000
1000
0000
,
0001
0000
0010
0000
,
0001
1000
0001
1000
,
0001
1000
0000
0000
,
0001
0000
0010
0000
,
0100
0000
1000
0000
,
0001
0000
0010
0000
,
0100
0000
1000
0000
,
0001
0000
0100
0000
,
0010
0000
1000
0000
,
0001
0000
0100
0000
,
0010
0000
1000
0000
,
0001
0100
0000
0000
,
0010
1000
0000
0000
,
0100
0010
0000
0000
,
0001
1000
0000
0000
,
0100
0010
0000
0000
,
0100
0010
0100
0000
,
0010
0100
0010
0000
,
0000
0000
0000
0001
,
1000
0000
0000
0000
,
0000
0000
0000
0000
;
#NOTES:
     dance-single:
     :
     Easy:
     4:
     :
0000
0000
0000
0000
,
0000
0000
0000
0000
,
0000
0000
0000
0000
,
0000
0000
0000
0000
,
0000
0000
0000
0000
,
0001
0001
0000
0000
,
1000
1000
0000
0000
,
0010
0010
0000
0000
,
0100
0100
0000
0000
,
0001
0010
0000
0000
,
0100
1000
0000
0000
,
0010
0100
0000
0000
,
0001
0100
0000
0000
,
0001
1000
0000
0000
,
0010
0100
0000
0000
,
0001
1000
0010
0100
,
0010
0000
0000
0000
,
0001
0100
0000
0000
,
0010
1000
0000
0000
,
0100
1000
0000
0000
,
0001
0010
0000
0000
,
0001
0000
0010
0000
,
0100
0000
1000
0000
,
0001
0000
0010
0000
,
0100
0000
1000
0000
,
0001
0000
0000
1000
,
1000
0000
0000
0001
,
0001
0000
0000
0100
,
0100
0000
0000
0010
,
0010
0000
0000
1000
,
0010
0000
0000
0100
,
0001
0000
0000
1000
,
0100
0000
0000
0010
,
0001
0000
0010
0000
,
0100
0000
1000
0000
,
0010
0100
0010
0100
,
0010
0100
0010
0000
,
0000
0000
1000
0000
,
0001
0000
0010
0000
,
0001
1000
0001
1000
,
0001
1000
0000
0110
,
0000
0000
0000
1001
,
0000
0000
0000
0110
,
0000
0000
0000
1001
,
0000
0000
0000
1001
,
0000
0000
0001
0100
,
0010
0000
1000
0100
,
0010
0000
0000
0001
,
1000
0001
1000
0000
,
0000
0000
1000
0100
,
0010
0000
0001
0100
,
0010
0000
0000
0000
,
0100
0010
0100
0010
,
0000
0000
1000
0100
,
0010
0000
0000
0100
,
0010
0100
0010
0100
,
0010
0100
0000
0000
,
1001
0000
0000
0000
,
0000
0000
0000
0000
;
#NOTES:
     dance-single:
     :
     Medium:
     8:
     :
0000
0000
0000
0000
,
0000
0000
0000
0000
,
0000
0000
0000
0000
,
0000
0000
0000
0000
,
0000
0000
0000
0000
,
0001
0000
0001
0001
0000
0000
0000
0000
,
1000
0000
1000
1000
0000
0000
0000
0000
,
0010
0000
0010
0010
0000
0000
0000
0000
,
0100
0000
0100
0100
0000
0000
0000
0000
,
0001
0000
0010
0100
0000
0000
1000
0000
,
1000
0000
0010
0100
0000
0000
0001
0000
,
0001
0000
0010
0100
0000
0000
1000
0000
,
1000
0000
0010
0100
0000
0000
0001
0000
,
0001
0000
1000
0000
0100
0000
0010
0001
,
0001
0000
1000
0000
0010
0000
1000
0100
,
0010
0000
0100
0000
0010
0000
0010
0100
,
0001
1000
0010
0100
0000
1001
0000
0000
,
0001
0000
0010
0100
0000
1000
0000
0100
,
1000
0000
0010
0100
0000
0001
0000
0100
,
0001
0000
0010
0100
0000
1000
0000
0100
,
1000
0000
0010
0100
0000
0001
0000
0100
,
0010
0100
0001
0010
,
0100
1000
0100
0010
,
0100
0001
1000
0100
0010
0001
1000
0100
,
0020
0000
0000
0130
,
0000
0000
0000
0000
0001
0000
1000
0001
,
0000
1000
0000
0010
0000
0100
0000
0001
,
0000
0000
0000
0000
1000
0000
0001
1000
,
0000
0001
0000
0100
0000
0010
0000
1000
,
0000
0000
0000
0000
0001
0000
1000
0001
,
0000
1000
0000
0010
0000
0100
0000
0001
,
0000
0000
0000
0000
1000
0000
0001
1000
,
0000
0001
0000
0100
0000
0010
0000
1000
,
0001
0000
0010
0000
,
0100
0000
1000
0000
,
0001
0010
0100
1000
,
0010
0100
0001
0001
,
0001
0100
0010
1000
,
0001
0100
0010
1000
,
0001
0000
1000
0100
1000
0000
0001
0100
,
0010
0000
0100
0010
1000
0000
0000
0000
,
0001
0000
1000
0000
0010
1000
0100
1000
,
0000
0000
0001
0000
0010
0001
0100
0001
,
0000
0000
0010
0100
0000
0000
0000
1000
,
0000
0010
0000
0100
0000
0001
0000
0100
,
0000
0000
0000
0001
1000
0001
0100
0010
,
0000
0000
0000
1000
0001
1000
0100
0010
,
0000
0000
0001
1000
0000
0001
1000
0001
,
0000
0010
0000
0100
0000
1000
0000
0001
,
1000
0000
1000
0000
0001
1000
0100
0010
,
0001
0000
0001
0000
1000
0001
0100
0010
,
0000
0000
0001
0100
0000
0000
0001
0010
,
0000
0100
0000
0010
0000
0100
0000
0010
,
0000
0000
1000
0000
0001
1000
0100
0010
,
0001
0000
0001
0000
1000
0001
0100
0010
,
0000
0100
0010
0100
0000
0010
0100
0001
,
0000
1100
0000
0101
0000
0110
0000
1000
,
0200
0000
0000
0000
0000
0000
0000
0300
,
0000
0000
0000
0000
;
#NOTES:
     dance-single:
     :
     Hard:
     11:
     :
0000
0000
0000
0000
,
0000
0000
0000
0000
,
0000
0000
0000
0000
,
0000
0000
0000
0000
,
0000
0000
0000
0000
,
0001
1000
0010
0100
,
0001
1000
0010
0100
,
0010
1000
0001
0100
,
0010
1000
0001
0100
,
0001
0000
0100
0010
0000
0000
0000
0000
1000
0000
0001
0000
1000
0000
0001
0000
,
1000
0000
0010
0100
0000
0000
0000
0000
0001
0000
1000
0000
0001
0000
1000
0000
,
0010
0000
1000
0001
0000
0000
0000
0000
0100
0000
0010
0000
0100
0000
0010
0000
,
0100
0000
0001
1000
0000
0000
0000
0000
0010
0000
0100
0000
0010
0000
0100
0000
,
0001
0000
0100
0010
0000
0000
0000
0000
1000
0000
0001
0000
0100
0000
0001
0000
,
1000
0000
0010
0100
0000
0000
0000
0000
0001
0000
1000
0000
0001
0000
1000
0000
,
0010
0000
1000
0001
0000
0000
0000
0000
1000
0000
0001
0000
0100
0000
0010
0000
,
1000
0001
0100
0010
0000
1001
0000
0000
,
0001
1000
0010
0100
0000
0010
0000
0000
,
1000
0001
0100
0010
0000
0000
0100
0000
,
0001
1000
0010
0100
0000
0000
0010
0000
,
1000
0000
0010
0100
0000
0000
0010
0000
0000
0000
1000
0000
0010
0000
0100
0000
,
0001
0000
0100
0010
0000
0000
0100
0000
0000
0000
0001
0000
0100
0000
0010
0000
,
1000
0000
0010
0100
0000
0000
0010
0000
0000
0000
1000
0000
0000
0000
0010
0000
,
1000
0010
0100
0001
,
1000
0000
0010
0100
0000
0000
0010
0000
0000
0000
1000
0000
0010
0000
0100
0000
,
0001
0000
0100
0010
0000
0000
0100
0000
0000
0000
0001
0000
0010
0000
0100
0000
,
0000
1000
0000
0001
0000
1000
0000
0000
,
0001
0000
0100
0010
0000
0000
1000
0000
0000
0000
0010
0000
0100
0000
0010
0000
,
1000
0000
0010
0100
0000
0000
0001
0000
0000
0000
0100
0000
0010
0000
0100
0000
,
0001
0000
0100
0010
0000
0000
1000
0000
0000
0000
0010
0000
0100
0000
0010
0000
,
1000
0000
0010
0100
0000
0000
0001
0000
0000
0000
0100
0000
0010
0000
0100
0000
,
0001
0000
1000
0001
0000
0000
1000
0000
0000
0000
0001
0000
1000
0000
0001
0000
,
1000
0000
0010
1000
0000
0000
0001
0000
0000
0000
1000
0000
0001
0000
1000
0000
,
0001
0000
0010
0001
0010
0000
1000
0010
,
0100
0000
0010
0100
0010
0000
0100
0010
,
0001
0000
0100
0010
1000
0000
0010
0100
,
0010
0000
1000
0001
0100
0000
0001
0010
,
0100
1000
0010
1000
0001
0100
0010
1000
,
0001
0000
0001
1000
0001
0100
0010
1000
,
0010
0100
0001
1000
0100
1000
0001
1000
,
0100
0010
0001
0000
0001
0010
0001
1000
,
0000
0000
0010
0100
0000
0000
0010
0000
0000
0000
1000
0000
0001
0000
0100
0000
,
0001
0000
0100
0010
0000
0000
0100
0000
0000
0000
0001
0000
1000
0000
0010
0000
,
0000
0100
0010
0100
0000
0010
0100
0010
,
0000
1100
0000
0011
1000
0010
0000
0100
,
0001
0000
0100
0010
0000
0000
0100
0000
0000
0000
0001
0000
1000
0000
0010
0000
,
1000
0000
0010
0100
0000
0000
0010
0000
0000
0000
1000
0000
0001
0000
1000
0000
,
0000
0010
0000
0100
0000
0001
1000
0010
,
0000
1100
0000
0011
0100
0010
0100
0010
,
1000
0000
0001
0010
0000
0000
0100
0000
1000
0000
0100
0000
0010
0000
0001
0000
,
0010
0100
0010
0100
1000
0001
1000
0001
,
1000
0000
0001
0100
0000
0000
0010
0000
0100
0000
0010
0000
0000
0000
0110
0000
,
0000
0011
0000
1100
0000
0001
0100
0010
,
1000
0000
1000
0010
0000
0000
0100
0000
0010
0000
0100
0000
0001
0000
1000
0000
,
0100
0000
0100
0010
0000
0000
0100
0000
1000
0000
0001
1000
0000
0000
0010
0000
,
1010
0010
0010
0100
0001
1000
0010
0200
,
0000
0010
0000
1000
0000
0001
0000
0310
,
0000
0000
0000
0000
;
#NOTES:
     dance-double:
     :
     Easy:
     6:
     :
00000000
00000000
00000000
00000000
,
00000000
00000000
00000000
00000000
,
00000000
00000000
00000000
00000000
,
00000000
00000000
00000000
00000000
,
00000000
00000000
00000000
00000000
,
00000010
00000001
00000000
00000000
,
00000100
00001000
00010000
00000000
,
00100000
10000000
00000000
00000000
,
01000000
00010000
00001000
00000000
,
00000010
00000001
00000001
00000001
,
00000100
00001000
00010000
00000000
,
00100000
10000000
10000000
10000000
,
01000000
00010000
00001000
00000000
,
00000100
00000001
00000001
00000000
,
00000100
00001000
00010000
00010000
,
01000000
10000000
10000000
00000000
,
01000000
00010000
00001000
00011000
,
00000010
00000001
00000100
00001000
,
00010000
00001000
00010000
00000000
,
00100000
10000000
01000000
00010000
,
00001000
00010000
00001000
00000000
,
00000100
00000001
00000100
00001000
,
00010000
00000000
00010000
00000000
,
00100000
00010000
00001000
00000010
,
00001000
00000000
00010000
00000000
,
00100000
10000000
01000000
00010000
,
00001000
00010000
00001000
00001000
,
00000010
00000001
00000100
00001000
,
00010000
00000000
00001000
00000000
,
00010000
00100000
10000000
01000000
,
00010000
00000000
00001000
00000000
,
00001000
00000010
00000001
00000100
,
00001000
00000000
00010000
00000000
,
00001000
00010000
00100000
00000000
,
00100000
00010000
00001000
00000000
,
00010000
00001000
00000010
00000000
,
00000010
00001000
00010000
00000000
,
00010000
01000000
00100000
00000000
,
01000000
00010000
00001000
00000000
,
00001000
00000100
00000010
00000000
,
00000100
00001000
00010000
00000000
,
02000000
10000000
00010000
10000000
,
03010000
00001000
00000000
00000000
,
00000200
00000001
00001000
00000001
,
00001300
00010000
00000000
00000000
,
00001000
00010000
00100000
10000000
,
01000000
00010000
00001000
00010000
,
00010000
00001000
00000010
00000001
,
00000110
00001100
00011000
00011000
,
00001000
00010000
00100000
10000000
,
01000000
00010000
00001000
00010000
,
00010000
00001000
00000010
00000001
,
00000100
00011000
00011000
00011000
,
00010000
00100000
00010000
00001000
,
00000100
00001000
00010000
00010000
,
00001000
00000010
00001000
00010000
,
01000000
00010000
00001000
00010000
,
00022000
00000000
00000000
00000000
00000000
00000000
00000000
00033000
,
00000000
00000000
00000000
00000000
;
#NOTES:
     dance-double:
     :
     Medium:
     8:
     :
00000000
00000000
00000000
00000000
,
00000000
00000000
00000000
00000000
,
00000000
00000000
00000000
00000000
,
00000000
00000000
00000000
00000000
,
00000000
00000000
00000000
00000000
,
00001000
00000010
00000001
00000100
,
00001000
00010000
00000000
00000000
,
00010000
00100000
10000000
00100000
,
00010000
00001000
00000000
00000000
,
00001000
00000010
00000100
00001000
,
00000001
00000100
00001000
00010000
,
00010000
00100000
01000000
00010000
,
10000000
00000000
01000000
00000000
00010000
00000000
00001000
00010000
,
00001000
00000010
00000001
00000100
,
00001000
00000000
00010000
00000000
00001000
00000000
00010000
00001000
,
00010000
00100000
10000000
01000000
,
00010000
00001000
00010000
00001000
00000000
00011000
00000000
00000000
,
00000010
00000001
00001000
00000001
00000000
00000000
00000100
00000000
,
00000010
00000100
00001000
00010000
00000000
00000000
00010000
00000000
,
00100000
10000000
00010000
10000000
00000000
00000000
01000000
00000000
,
00100000
01000000
00010000
00001000
00000000
00000000
00001000
00000000
,
00001000
00000010
00000001
00001000
,
00000010
00000100
00001000
00000000
,
00011000
00110000
10100000
00010000
,
00100000
01000000
00010000
00011000
,
00001000
00000100
00000001
00000011
,
00000001
00000000
00000100
00000000
00001000
00010000
00001000
00000000
,
00010000
01000000
10000000
10100000
,
10000000
00000000
01000000
00000000
00010000
00000000
00001000
00010000
,
00001000
00000000
00000100
00000000
00000001
00000010
00000001
00000100
,
00000010
00000100
00001000
00010000
,
00010000
00000000
01000000
00000000
10000000
00100000
10000000
01000000
,
00100000
01000000
00010000
00001000
,
00000200
00001000
00000010
00000001
,
00000010
00001300
00010000
00000000
,
02000000
00010000
00100000
10000000
,
00100000
03010000
00001000
00000000
,
00010000
00000000
00001000
00000100
00000010
00000000
00000001
00000000
,
00000010
00000000
00010000
00001000
00010000
00000000
00000000
00000000
,
00001000
00000000
00010000
01000000
00100000
00000000
10000000
00000000
,
00100000
00000000
00001000
00010000
00001000
00010000
00001000
00000000
,
00000010
00000000
00000001
00000000
00001000
00000001
00001000
00000001
,
00000000
00000000
00000100
00000000
00001000
00010000
00001000
00010000
,
00100000
00000000
10000000
00000000
00010000
10000000
00010000
10000000
,
00000000
01100000
00000000
00110000
00000000
00011000
00000000
00000100
,
00000010
00000000
00000001
00000000
00000100
00000001
00000100
00000010
,
00000000
00000000
00000100
00000000
00001000
00010000
00001000
00010000
,
00100000
00000000
10000000
00000000
01000000
10000000
01000000
00100000
,
00000000
01000000
00010000
00001000
,
00000010
00000000
00000001
00000000
00001000
00000010
00000100
00000001
,
00000000
00000100
00001000
00010000
,
00100000
00000000
10000000
00000000
00010000
00100000
01000000
11000000
,
00000000
01100000
00000000
00110000
00000000
00011000
00001000
00000000
,
00000010
00000000
00000001
00000000
00001000
00000010
00000100
00000001
,
00000000
00000000
00000010
00000000
00000001
00000100
00001000
00010000
,
00000000
00000000
00100000
00000000
10000000
00010000
10000000
00010000
,
00000000
10000000
00000000
00010000
00000000
00001000
00000000
00000000
,
00000002
00000000
00000000
00000000
00000000
00000000
00000000
00000003
,
00000000
00000000
00000000
00000000
;
#NOTES:
     dance-double:
     :
     Hard:
     11:
     :
00000000
00000000
00000000
00000000
,
00000000
00000000
00000000
00000000
,
00000000
00000000
00000000
00000000
,
00000000
00000000
00000000
00000000
,
00000000
00000000
00000000
00000000
,
00001000
00000010
00000001
00001000
,
00000010
00000100
00001000
00000000
,
00010000
00100000
10000000
00010000
,
00100000
01000000
00010000
00000000
,
00001000
00000000
00010000
00001000
00000000
00000000
00000000
00000000
00000010
00000000
00000001
00000000
00001000
00000000
00000000
00000000
,
00000001
00000000
00001000
00000001
00000000
00000000
00000000
00000000
00000100
00000000
00001000
00000000
00010000
00000000
00000000
00000000
,
00010000
00000000
00001000
00010000
00000000
00000000
00000000
00000000
00100000
00000000
10000000
00000000
00010000
00000000
00000000
00000000
,
10000000
00000000
00010000
10000000
00000000
00000000
00000000
00000000
01000000
00000000
00010000
00000000
00001000
00000000
00000000
00000000
,
00001000
00000000
00010000
00001000
00000000
00000000
00000000
00000000
00000010
00000000
00000001
00000000
00001000
00000000
00000000
00000000
,
00000001
00000000
00001000
00000001
00000000
00000000
00000000
00000000
00000100
00000000
00001000
00000000
00010000
00000000
00000000
00000000
,
00010000
00000000
00001000
00010000
00000000
00000000
00000000
00000000
00100000
00000000
10000000
00000000
00010000
00000000
00000000
00000000
,
10000000
01000000
00100000
00010000
00000000
00001000
00010000
00001000
,
00000010
00000001
00000100
00000010
00000000
00000000
00000100
00000000
,
00000010
00000100
00000001
00000100
00000000
00001000
00010000
00000000
,
00100000
10000000
01000000
00100000
00000000
00000000
01000000
00000000
,
00100000
01000000
10000000
01000000
00000000
00010000
00001000
00000000
,
00000010
00000000
00000001
00000100
00000000
00000000
00000001
00000000
00000000
00000000
00001000
00000000
00000001
00000000
00000000
00000000
,
00000010
00000000
00000001
00000100
00000000
00000000
00000001
00000000
00000000
00000000
00000100
00000000
00001000
00000000
00010000
00000000
,
00100000
00000000
10000000
01000000
00000000
00000000
10000000
00000000
00000000
00000000
01000000
00000000
10000000
00000000
00000000
00000000
,
00100000
00000000
10000000
01000000
00000000
00000000
10000000
00000000
00000000
00000000
01000000
00000000
00010000
00000000
00001000
00000000
,
00000010
00000000
00000100
00000000
00001000
00000001
00000100
00000001
,
00000010
00000000
00000100
00000000
00000001
00000100
00001000
00010000
,
00100000
00000000
01000000
00000000
00010000
10000000
01000000
00000000
,
00100000
00000000
01000000
00000000
10000000
01000000
00010000
00001000
,
00000010
00000000
00000001
00000000
00000100
00000001
00000100
00000001
,
00000010
00000000
00000001
00000000
00000100
00001000
00010000
00000000
,
00100000
00000000
10000000
00000000
01000000
10000000
01000000
10000000
,
00000000
00100000
10000000
00000000
01000000
00010000
00001000
00000000
,
00000200
00001000
00000010
00000001
,
00001000
00000000
00000010
00000000
00000301
00000100
00001000
00010000
,
02000000
00010000
00100000
10000000
,
00010000
00000000
00100000
00000000
13000000
01000000
00010000
00001000
,
00010000
00001000
00000010
00000001
00001000
00000100
00000010
00000100
,
00010000
00000100
00000010
00000001
00000100
00001000
00010000
00000000
,
00001000
00010000
00100000
10000000
00010000
01000000
00100000
10000000
,
00010000
01000000
00100000
10000000
01000000
00010000
00001000
00000000
,
00000010
00000000
00000001
00001000
00000000
00000000
00000100
00000000
00000000
00000000
00001001
00000000
00000000
00000000
00000110
00000000
,
00000000
00001000
00000001
00001000
00000001
00000100
00001000
00010000
,
00100000
00000000
10000000
00010000
00000000
00000000
01000000
00000000
00000000
00000000
10010000
00000000
00000000
00000000
11000000
00000000
,
00000000
01100000
01000000
00010000
10000000
01000000
00010000
00001000
,
00000010
00000000
00000001
00001000
00000000
00000000
00000100
00000000
00000010
00000000
00000100
00000000
00010000
00000000
00000100
00000000
,
00000010
00000000
00000001
00001000
00000000
00000000
00000010
00000000
00000100
00000000
00001000
00000000
00010000
00000000
00000000
00000000
,
00100000
00000000
10000000
00010000
00000000
00000000
01000000
00000000
00100000
00000000
10000000
00000000
00010000
00000000
01010000
00000000
,
00000000
00011000
00000000
00001100
00001000
00000100
00001000
00000100
,
00000010
00000000
00000001
00001000
00000000
00000000
00000100
00000000
00010000
00000000
00001000
00000000
00000100
00000000
00000001
00000000
,
00000100
00000010
00001000
00000010
00000100
00001000
00010000
00000000
,
00100000
00000000
10000000
00010000
00000000
00000000
01000000
00000000
00100000
00000000
10000000
00000000
01000000
00000000
11000000
00000000
,
00000000
00110000
00010000
00100000
01000000
00010000
00001000
00000000
,
00000010
00000000
00000100
00001000
00000000
00000000
00000001
00000000
00000100
00000000
00000010
00001000
00000000
00000000
00000001
00000000
,
00001000
00000000
00000010
00000100
00000000
00000000
00000001
00000000
00000100
00000000
00001000
00000000
00010000
00000000
00000000
00000000
,
00100000
00000000
01000000
00010000
00000000
00000000
10000000
00000000
01000000
00000000
00100000
00010000
00000000
00000000
11000000
00000000
,
00000000
00110000
00000000
00011000
00001000
00000100
00001000
00000001
,
00002000
00000000
00000000
00000000
00000000
00000000
00000000
00003000
,
00000000
00000000
00000000
00000000
;
