
//----- song ID: maxx2 -----//
#TITLE:MAX 360;
#ARTIST:BEMANI Sound Team "[𝑥]";
#BANNER:MAX 360.png;
#BACKGROUND:MAX 360-bg.png;
#CDTITLE:./CDTITLES/DDR A.png;
#MUSIC:MAX 360.ogg;
#SAMPLESTART:54.664;
#SAMPLELENGTH:15;
#BPMS:0=360,264=180,296=360,455=180,486=720,518=360;
#STOPS:327=0.167,518=0.167,641=0.167,644=0.167;
#NOTES:
     dance-single:
     :
     Beginner:
     9:
     :
0000
0000
0000
0000
,
0000
0000
0000
0000
,
0000
0000
0000
0000
,
0000
0000
0000
0000
,
0000
0000
0000
0000
,
0000
0000
0000
0000
,
0000
0000
0000
0000
,
0000
0000
0000
0000
,
0000
0000
0000
0000
,
0000
0000
0000
0000
,
0001
0000
0000
0000
,
1000
0000
0000
0000
,
0001
0000
0000
0000
,
1000
0000
0000
0000
,
0010
0000
0000
0000
,
0100
0000
0000
0000
,
0220
0000
0000
0000
,
0000
0000
0000
0330
,
0001
0000
1000
0000
,
0001
0000
0000
0000
,
1000
0000
0001
0000
,
1000
0000
0000
0000
,
0010
0000
0100
0000
,
0010
0000
0000
0000
,
0100
0000
0010
0000
,
0100
0000
0000
0000
,
0001
0000
0010
0000
,
0001
0000
0000
0000
,
1000
0000
0100
0000
,
1000
0000
0000
0000
,
0010
0000
1000
0000
,
0010
0000
0000
0000
,
0100
0000
0001
0000
,
0100
0000
0000
0000
,
0001
0000
0010
0000
,
0100
0000
0000
0000
,
0001
0000
0010
0000
,
0100
0000
0000
0000
,
1000
0000
0010
0000
,
0100
0000
0000
0000
,
1000
0000
0010
0000
,
0100
0000
0000
0000
,
0001
0000
1000
0000
,
0001
0000
1000
0000
,
0001
0000
1000
0000
,
0001
0000
1000
0000
,
0010
0000
0100
0000
,
0010
0000
0100
0000
,
0010
0000
0100
0000
,
0010
0000
0000
0000
,
1001
0000
0000
0000
,
1000
0000
0100
0000
,
0010
0000
0001
0000
,
1000
0000
0000
0000
,
1001
0000
0000
0000
,
0001
0000
0100
0000
,
0010
0000
1000
0000
,
0001
0000
0000
0000
,
1001
0000
0000
0000
,
0000
0000
0110
0000
,
1001
0000
0000
0000
,
0000
0000
0110
0000
,
1001
0000
0000
0000
,
0110
0000
0000
0000
,
1001
0000
0110
0000
,
1001
0000
0110
0000
,
0001
0000
0100
0000
0001
0100
0001
0000
,
1000
0000
0100
0000
1000
0100
1000
0000
,
0001
0000
0010
0000
0001
0010
0001
0000
,
1000
0000
0010
0000
1000
0010
1000
0000
,
0001
1000
1001
0000
,
0001
1000
1001
0000
,
0010
0100
0010
0100
,
0220
0000
0000
0330
,
1000
0100
1000
0000
,
0100
0000
0010
0000
,
0001
0010
0001
0000
,
0010
0000
0001
0000
,
0100
0001
0100
0000
,
0001
0000
1000
0000
,
0010
1000
0010
0000
,
1000
0000
0010
0000
,
0000
1001
0000
1000
,
0001
1000
0000
0010
,
0000
0100
0000
0010
,
0100
0010
0000
1000
,
0000
1000
0000
0001
,
0000
0001
0000
1000
,
0001
1000
0001
1000
,
0001
1000
0000
0001
,
0000
0001
0000
1000
,
0000
1000
0000
0010
,
0000
0010
0000
0100
,
0000
0100
0000
0001
,
0000
0001
0000
0010
,
0000
0010
0000
0010
,
0000
0100
0000
0100
,
0000
1000
0000
1000
,
0000
0001
0000
0001
,
0000
0100
0000
0100
,
0000
0010
0000
0010
,
0000
1000
0000
0001
,
0100
0001
0000
1000
,
0000
1000
0000
0001
,
0100
0001
0000
1000
,
0000
0001
0000
1000
,
0100
1000
0000
0001
,
0000
1000
0000
0000
,
0000
0010
0000
1000
,
0010
1000
0000
0001
,
0000
0010
0001
0010
,
0000
0001
0000
1000
,
0010
1000
0000
0001
,
0010
0001
0000
0001
,
0010
0000
0001
0010
0001
0000
1000
0000
,
0010
0000
1000
0010
1000
0000
0001
0000
,
0100
0000
0001
0100
0001
0000
1000
0000
,
0100
0000
1000
0100
1000
0000
1000
0000
,
0001
1001
0000
0001
,
1000
1001
0000
0100
,
0010
0100
0010
1000
,
0001
1000
2002
0000
,
0000
0000
0000
0000
,
0000
0000
0000
0000
,
0000
0000
0000
0000
,
0000
0000
0000
0000
,
0000
0000
0000
0000
,
0000
0000
0000
0000
,
0000
0000
0000
0000
,
0000
0000
3003
0001
,
1000
0010
0000
1000
,
0001
0010
0000
0001
,
1000
0010
0000
1000
,
0001
0010
0000
0001
,
1000
0100
0000
1000
,
0001
0100
0000
0001
,
1000
0100
0000
1000
,
0001
0100
0000
0010
,
0000
0001
0000
1000
,
0000
0100
0000
0110
,
0000
1001
0000
0110
,
0000
1001
0000
0001
,
0010
0001
0000
0100
,
1000
0100
0000
0001
,
1000
0001
1000
0010
,
0100
0010
0000
1001
,
0000
0110
0000
1001
,
0000
0000
0000
0110
,
0000
1001
0000
0110
,
0000
0000
0000
0010
,
0000
0000
0000
0100
,
0000
0000
0000
0110
,
0000
1001
0000
0110
,
0000
0000
0000
1000
,
0010
1000
0000
0100
,
0000
0000
0000
0001
,
0010
0001
0000
0100
,
0000
0000
0000
1000
,
0001
1000
0000
0110
,
0000
0000
0000
0002
,
0000
0003
2000
0000
,
3000
0001
0000
1000
,
0000
2002
0000
0000
,
0000
0000
0000
0000
,
0000
0000
0000
0000
,
0000
0000
0000
0000
,
3003
0000
0000
0000
,
0000
0000
0000
0000
;
#NOTES:
     dance-single:
     :
     Easy:
     12:
     :
0000
0000
0000
0000
,
0000
0000
0000
0000
,
0000
0000
0000
0000
,
0000
0000
0000
0000
,
0000
0000
0000
0000
,
0000
0000
0000
0000
,
0000
0000
0000
0000
,
0000
0000
0000
0000
,
0000
0000
0000
0000
,
0000
0000
0000
0000
,
0001
0000
0100
0000
,
0001
0000
0010
0000
,
0001
0000
0100
0000
,
0010
0010
0010
0000
,
1000
0000
0100
0000
,
1000
0000
0100
0000
,
0010
0001
0010
0001
,
1000
0100
1000
0100
,
1000
0000
0010
0000
,
0100
0001
0100
0000
,
0001
0010
0001
0000
,
0100
0001
0100
0000
,
0010
0000
1000
0000
,
0001
0010
0001
0000
,
1000
0000
0001
0000
,
0100
0010
0100
0010
,
0100
0000
0001
0000
,
1000
0100
1000
0000
,
0001
0010
0001
0000
,
1000
0010
1000
0000
,
0001
0001
0001
0000
,
1000
1000
1000
0000
,
0001
0010
0100
1000
,
0001
0010
0100
1000
,
0001
0000
0100
0000
,
0010
1000
0001
0000
,
0010
0000
0100
0000
,
1000
0001
0100
0000
,
0010
0000
1000
0000
,
0100
0010
0001
0000
,
1000
0000
0001
0000
,
0010
0100
1000
0000
,
0001
0100
0001
0100
,
0001
1000
0001
1000
,
0001
0010
0001
0010
,
0001
1000
0001
1000
,
0010
0000
1000
0100
,
1000
0001
1000
0001
,
1000
0010
1000
0010
,
0100
0001
0010
0100
,
1000
0000
0001
0010
,
0100
0010
0001
0010
,
0100
0000
1000
0010
,
0100
0010
0010
0000
,
1010
0000
1000
0100
,
0010
0100
1000
0100
,
0010
0000
0001
0100
,
0010
0100
0100
0000
,
0101
0000
1000
0100
,
0001
0100
0100
0000
,
1001
0000
0001
0100
,
1000
0100
0100
0000
,
2001
0000
3100
0000
,
1002
0000
0103
0000
,
0011
0000
1100
0000
,
1010
0000
0101
0000
,
0001
0100
0001
0000
1000
0100
1000
0000
,
0001
1000
0001
1000
0010
0100
0100
0000
,
1000
0010
1000
0000
0001
0010
0001
0000
,
1000
0001
1000
0001
0010
0100
0100
0000
,
1000
0001
1001
0000
0001
1000
1001
0000
,
0010
0100
0110
0000
0100
0010
0110
0000
,
0001
0010
0100
1000
0001
0010
0100
2000
,
0002
0000
0000
0000
3003
0000
0000
0000
0001
1000
0001
1000
0001
0000
0000
0000
,
1000
0100
0010
0000
,
0100
1000
0001
0000
,
1000
0100
0010
0000
,
0100
1000
0001
0100
,
0010
0100
0001
0000
,
1000
0001
0100
0000
,
0010
0100
0001
0000
,
1000
0100
0010
0001
,
0110
0000
0000
1000
,
0010
0100
0000
0010
,
1000
0001
0000
0010
,
0100
1000
0001
1000
,
1000
0100
0000
0001
,
0001
0100
0000
0001
,
1000
0100
0010
0001
,
1000
0100
0010
0001
,
0010
0001
0010
0100
,
1000
0100
1000
0001
,
1000
0001
1000
0001
,
0100
0001
0100
0010
,
1000
0010
1000
0001
,
1000
0001
1000
0001
,
0000
0100
0001
0100
,
0010
0100
0010
1000
,
0010
1000
0010
1000
,
0001
1000
0001
1000
,
0100
0001
0100
1000
,
0100
0001
0100
1000
,
0010
0100
0000
0100
,
0001
1000
0000
1000
,
0100
0010
0000
0010
,
0001
1000
0000
0010
,
0100
0001
0000
0001
,
0100
0010
0100
0001
,
0000
0001
0100
0001
,
0000
0001
0100
0010
,
0000
1000
0100
1000
,
0000
1000
0010
0100
,
0000
0001
0010
0100
,
1000
0000
0100
0000
0010
0000
0001
0010
,
0001
0000
1000
0010
1000
0000
0010
0100
,
0010
0100
0001
0001
0001
0000
1000
0010
,
1000
0000
0001
0010
0001
0000
0010
0100
,
0010
0100
1000
1000
1000
0000
1000
0100
,
0010
0000
0010
0001
1000
0000
1000
0001
,
0100
0000
0010
1000
0001
0000
0001
0010
,
0100
0000
0000
0000
0000
0000
0100
0000
0000
1000
0000
0000
0001
0000
0000
0000
0000
0000
0001
0000
1000
0000
0001
0000
,
1000
0001
1000
0100
0000
0000
2002
0000
0000
0000
0000
0000
,
0000
0000
0000
0000
,
0000
0000
0000
0000
,
0000
0000
0000
0000
,
0000
0000
0000
0000
,
0000
0000
0000
0000
,
0000
0000
0000
0000
,
0000
0000
0000
0000
,
0000
0000
3003
0001
,
0100
0010
1000
0010
,
1000
0100
0000
1000
,
0100
0010
0001
0010
,
0001
1000
0000
0001
,
0100
0001
1000
0001
,
0100
0010
0000
1000
,
0100
1000
0001
1000
,
0100
0010
0000
0001
,
1000
0001
1000
0010
,
0100
0010
0100
0001
,
1000
0010
0100
0001
,
1000
0010
0100
0001
,
0010
0001
0001
1000
,
0100
1000
1000
0010
,
1000
0001
0100
0010
,
1000
0001
0100
0010
,
1000
0001
1000
1001
,
0000
0000
0000
0010
,
0001
1000
0001
1001
,
0000
0000
0000
0010
,
0001
0100
0000
0010
,
1000
0100
0000
0010
,
0001
0100
0010
0110
,
0000
0000
0000
1000
,
0010
0100
0001
1001
,
0000
0000
0000
0001
,
0100
0010
1000
1001
,
0000
0000
0000
1000
,
0100
0001
0100
0110
,
0000
0000
0000
2002
,
0000
3003
0220
0000
,
0330
1100
0000
0101
,
0000
2002
0000
0000
,
0000
0000
0000
0000
,
0000
0000
0000
0000
,
0000
0000
0000
0000
,
3003
0000
0000
0000
,
0000
0000
0000
0000
;
#NOTES:
     dance-single:
     :
     Medium:
     16:
     :
0000
0000
0000
0000
,
0000
0000
0000
0000
,
0000
0000
0000
0000
,
0000
0000
0000
0000
,
0000
0000
0000
0000
,
0000
0000
0000
0000
,
0000
0000
0000
0000
,
0000
0000
0000
0000
,
0000
0000
0000
0000
,
0000
0000
0000
0000
,
0010
1000
0100
0000
,
0010
0001
0100
0000
,
0010
1000
0100
0000
,
0010
0001
0100
0000
,
0010
1000
0001
0100
,
0010
1000
0001
0100
,
0001
0100
0010
1000
,
0001
0100
0010
1000
0001
0100
0010
1000
,
0010
0100
0001
0100
,
1000
0100
1000
0100
,
0001
0100
1000
0100
,
0001
0100
1000
0100
,
0001
0010
0001
0010
,
1000
0010
1000
0010
,
0001
0010
1000
0010
,
0001
0010
1000
0010
,
0001
0100
0001
0100
,
0010
1000
0010
1000
,
0001
0100
0010
1000
,
0001
0100
0010
1000
,
0001
0010
0001
0010
,
0100
1000
0100
1000
,
0001
0010
0100
1000
,
0001
0010
0001
0000
1000
0000
0000
0000
,
1000
0100
1000
0000
0001
0000
0100
0000
,
0001
0100
0010
1000
,
0001
1000
0001
0000
1000
0000
0010
0000
,
1000
0010
0100
0010
,
1000
0010
1000
0000
0001
0000
0010
0000
,
0001
0010
0100
0010
,
0001
1000
0001
0000
1000
0000
0001
0000
,
0100
0001
0010
0000
,
0001
0010
0001
0000
1000
0000
0100
0000
,
1000
0100
1000
0000
0001
0000
0010
0000
,
0001
0100
0001
0000
1000
0000
0010
0000
,
1000
0010
1000
0000
0001
0000
0100
0000
,
0001
0000
0010
0000
0100
1000
0100
0000
,
1000
0000
0001
0000
0100
0001
0100
0000
,
0001
1000
0010
0100
,
0010
0010
0010
0000
,
0001
0010
1000
0100
,
0001
0010
1000
0100
,
0001
0010
1000
0100
,
0000
0010
0100
0010
,
0010
0001
0100
1000
,
0010
0001
0100
1000
,
0010
0001
0100
1000
,
0000
0100
0010
0100
,
0010
1000
0100
0001
,
0010
0100
0010
0100
,
0010
0001
0100
1000
,
0010
0100
0010
0100
,
0110
0000
0000
0000
0100
0001
0100
0000
,
0110
0000
0000
0000
0100
1000
0100
0000
,
0110
0010
0110
0000
,
0110
0100
0110
0000
,
0001
0000
0100
0000
0001
0100
0000
0000
1000
0000
0100
0000
1000
0100
0000
0000
,
0001
0000
0100
0000
0001
0100
0000
0000
1000
0000
0100
0000
0010
0000
0000
0000
,
1000
0000
0100
0000
1000
0100
0000
0000
0001
0000
0100
0000
0001
0100
0000
0000
,
1000
0000
0100
0000
1000
0100
0000
0000
0001
0000
0100
0000
0010
0000
0000
0000
,
0001
0010
0011
0100
1000
0010
1010
0000
,
0001
1000
1100
0010
0001
0100
0101
0000
,
1000
0100
0001
0100
1000
0010
0001
0010
,
1000
0001
1000
0001
1000
0001
1000
0001
1000
0001
1000
0001
1000
0000
0000
0000
,
0001
0000
0010
0000
0100
1000
0000
0100
,
1000
0000
0010
0000
0100
0001
0000
0100
,
0001
0000
1000
0000
0100
0001
0000
0100
,
1000
0001
1001
0000
,
1000
0000
0100
0000
0010
0001
0000
0010
,
0001
0000
0100
0000
0010
1000
0000
0010
,
1000
0000
0001
0000
0100
1000
0000
0100
,
0001
1000
0001
0100
,
1001
0000
0010
0100
0000
0010
0100
0000
,
0001
0000
0010
0100
0000
0010
0100
0000
,
1000
0000
0100
0010
0000
0001
1000
0000
,
0010
0110
0000
1000
,
0001
0000
0100
0010
0000
0100
0010
0000
,
1000
0000
0100
0010
0000
0100
0010
0000
,
0001
0000
0010
0100
0000
1000
0001
0000
,
0100
0000
0110
0000
0000
0000
1000
0100
,
1000
0000
0100
0000
0010
0000
0001
0100
,
0001
0000
0100
0000
0010
0000
1000
0100
,
1000
0000
0100
0000
0010
0000
0001
0100
,
0001
0000
0100
0000
0010
0000
0100
0001
,
0100
0000
0001
0000
0010
0000
0100
1000
,
0100
1000
0100
1000
,
0010
1000
0010
0000
0100
0000
0100
0000
,
0001
0010
0001
0000
0100
0000
0100
0000
,
0010
1000
0010
0000
0100
0000
0100
0000
,
0001
0010
0001
0000
0100
0000
0010
0000
,
0100
0000
0010
0100
0010
0000
0100
0010
,
0100
0000
0010
0100
0010
0000
1010
0000
,
0010
0110
0100
0101
,
0001
1001
0000
1001
,
0001
0011
0010
0110
,
0100
1100
0000
1001
,
0001
1001
1000
1001
,
0001
1000
0100
1000
,
0000
1001
1000
1100
,
0100
0110
0000
0011
,
0001
0101
0100
0110
,
0010
1010
0000
1001
,
0001
0011
0010
0110
,
0100
0000
1100
0000
0000
0000
0001
0100
,
1000
0100
0000
0000
0001
0000
0100
0000
1000
0100
0000
0000
0001
0000
0100
0000
,
1000
0100
0001
0010
0010
0000
1000
0100
,
0001
0100
0000
0000
1000
0000
0100
0000
0001
0100
0000
0000
1000
0000
0100
0000
,
0001
0100
1000
0010
0010
0000
1000
0100
,
0110
0000
0001
0100
0110
0000
1000
0010
,
0110
0000
0001
0010
0110
0000
0001
0001
,
0001
0000
0000
0000
0000
0000
1000
0000
0000
1000
0000
0000
1000
0000
0000
0000
0000
0000
0001
0000
1000
0000
0001
0000
,
1000
0001
1000
0100
0000
0000
2002
0000
0000
0000
0000
0000
,
0000
0000
0000
0000
,
0000
0000
0000
0000
,
0000
0000
0000
0000
,
0000
0000
0000
0000
,
0000
0000
0000
0000
,
0000
0000
0000
0000
,
0000
0000
0000
0000
,
0000
0000
0000
0000
3003
0000
0001
0010
,
0001
1000
0100
0010
,
0001
0000
0010
0000
0100
0000
1000
0001
,
1000
0000
0010
0000
0100
0000
0001
1000
,
0010
0000
0100
0000
0010
0000
1000
0001
,
0010
0100
1000
0001
,
0010
0000
0100
0000
0010
0000
0001
0010
,
0001
0000
1000
0100
1000
0000
0100
0010
,
0100
0000
0010
0001
0010
0000
0001
0000
,
0100
0010
1000
0000
0001
0000
1000
0010
,
0100
0001
0000
1000
,
0100
0010
0001
0000
1000
0000
0001
0010
,
0100
0010
0001
0000
0000
0000
0010
0000
,
0001
1000
0010
0000
0100
0001
1000
0000
,
0010
0100
0001
0000
1000
0000
0010
0000
,
0100
0000
0001
0000
1000
0000
0010
0100
,
0001
1000
0010
0100
0001
1000
0001
0000
,
1000
0100
0010
1001
,
0010
0000
0000
0010
0000
0000
1000
0000
,
0001
0010
0100
1001
,
0100
0000
0000
0100
0000
0000
1000
0000
,
0010
0101
0000
0001
,
0010
1100
0000
0100
,
0010
0000
0001
0010
0100
1000
0001
0000
,
0010
0000
0000
0010
0000
0000
1000
0000
,
0100
0000
0001
0100
0000
0100
2000
0000
,
0001
0000
0000
3010
0000
0000
0001
0000
,
0100
0000
1000
0100
0000
0100
0002
0000
,
1000
0000
0000
0013
0000
0000
1000
0001
,
0100
0010
1000
0100
0010
0001
1000
0100
,
0010
0000
0000
0001
0000
0000
1000
0000
0000
0001
0000
0000
0100
0000
0000
0010
0000
0000
1000
0000
0000
0000
0001
0000
,
0000
1000
0000
0000
0000
0000
0001
0000
1000
0000
0001
0000
,
0000
0000
0000
0010
0000
0100
0000
0010
0000
0100
0000
0010
,
0000
0100
0000
2002
0000
0000
0000
0000
0000
0000
0000
0000
,
0000
0000
0000
0000
,
0000
0000
0000
0000
,
0000
0000
0000
0000
,
3003
0000
0000
0000
,
0000
0000
0000
0000
;
#NOTES:
     dance-single:
     :
     Hard:
     18:
     :
0000
0000
0000
0000
,
0000
0000
0000
0000
,
0000
0000
0000
0000
,
0000
0000
0000
0000
,
0000
0000
0000
0000
,
0000
0000
0000
0000
,
0001
0000
0100
0000
0010
1000
0000
0010
,
1000
0000
0100
0000
0010
0001
0000
0010
,
0001
0000
1000
0000
0001
0100
0000
0010
,
1000
0001
0001
0000
,
1000
0000
0100
0000
0010
0001
0000
0010
,
0001
0000
0100
0000
0010
1000
0000
0010
,
1000
0000
0001
0000
1000
0100
0000
0010
,
0001
1000
1000
0000
,
0001
0000
1000
0100
1000
0100
1000
0100
,
1000
0000
0001
0100
0001
0100
0001
0100
,
0010
1000
0010
0000
0100
0001
0100
0000
,
0001
0010
0100
1000
0010
0100
0001
0000
,
1000
0000
0010
0000
0100
0001
0100
0000
,
0001
0000
0010
0000
0100
0010
0100
0000
,
0010
0000
0001
0000
0100
0001
0100
0000
,
0010
0000
0100
0000
0001
0100
0001
0000
,
0010
0000
0100
0000
1000
0100
1000
0000
,
0001
0000
1000
0000
0100
1000
0100
1000
,
0001
0000
0100
0000
0001
0100
0001
0000
,
1000
0100
1000
0000
0001
1000
0001
0000
,
1000
0000
0010
0000
1000
0010
1000
0000
,
0001
0000
0100
0000
0001
0100
0001
0000
,
0010
0000
0001
0000
0010
0001
0010
0000
,
0100
0000
1000
0000
0100
1000
0100
0000
,
1000
0000
0001
0000
1000
0100
0010
0000
,
0001
0000
1000
0000
0001
0010
0100
0000
,
1000
0000
0001
0000
0010
0001
1000
0000
,
0010
1000
0100
1000
0001
0010
0001
0000
,
1000
0001
0010
0000
0100
0000
1000
0000
,
0100
1000
0010
0000
0100
0001
0010
0000
,
0100
1000
0001
0000
0010
0000
0100
0000
,
1000
0010
1000
0000
0001
0100
0001
0000
,
0010
0100
1000
0000
0001
0000
1000
0000
,
0001
1000
0100
0000
0010
0001
1000
0000
,
0001
0100
0001
0000
1000
0100
1000
0000
,
0010
1000
0001
0000
0010
0000
0100
0000
,
1000
0100
1000
0100
1000
0100
0010
0001
,
0010
0001
1000
0100
,
0010
0001
0010
0001
0010
0100
1000
0100
,
1000
0010
1000
0001
,
0010
0100
0010
0100
0010
0001
1000
0100
,
0010
0001
1000
0100
,
0010
0001
0010
0001
1000
0100
1000
0100
,
0010
0001
1000
0100
0010
0001
1000
0010
,
0100
0000
0100
0000
0001
1000
0001
0000
,
1000
0000
1000
0000
0100
0010
0100
0000
,
0010
0001
1000
0000
0010
1000
0001
0000
,
1000
0001
1000
0001
,
1001
0000
0100
0000
0010
0100
0010
0000
,
1000
0000
0001
0000
1000
0001
1000
0000
,
0010
1000
0001
0000
0100
0001
1000
0000
,
0010
0100
0010
0100
,
0110
0000
0010
0000
1000
0001
0100
0000
,
0010
1000
0001
1000
,
0110
0000
0010
0000
1000
0001
0100
0000
,
0010
0100
0010
0100
,
0110
0000
0000
0000
0100
0001
0100
0000
,
0101
0000
0000
0000
0010
1000
0010
0000
,
1010
0001
1000
0010
,
1000
0010
0100
0001
1000
0010
0100
0001
,
1000
1000
0001
0001
,
1000
0000
0100
0000
0010
0001
1000
0000
,
0001
0100
0020
0030
1000
0100
0020
0030
,
0001
1000
0001
1000
0001
1000
2000
3000
,
0001
0000
0100
0000
0010
1000
0000
0010
1000
0000
0100
0000
0010
0001
0000
0010
,
0001
0000
1000
0000
0001
0100
0000
0010
1000
0000
0001
0000
0001
0000
0000
0000
,
1000
0000
1000
0000
1000
0100
0000
0100
0001
0020
0100
0000
1030
0000
0010
0001
,
0100
0000
0010
0000
1000
0010
0100
0001
0010
0000
1010
0000
0101
0000
0000
0000
,
0001
0000
1000
0000
0010
1000
0010
0000
,
1000
0000
0100
0000
0010
0001
0010
0000
,
0001
0000
1000
0000
0001
1000
0001
1000
,
0001
0010
0001
1000
,
0100
0000
0010
0000
0100
0010
0100
0000
,
0010
0000
0001
0000
0100
0010
0100
0000
,
0010
0000
1000
0000
0001
1000
0001
1000
,
0001
0010
0100
1000
,
1001
0000
0000
0010
1000
0000
0010
0000
,
1000
0000
0010
1000
0100
0000
0010
0000
,
0100
0000
0010
0001
0100
0000
0001
1000
,
0100
1000
0001
1000
0010
0000
0100
0000
,
0001
0000
0010
0001
0010
0000
0100
0000
,
1000
0000
0100
1000
0100
0000
0010
0001
,
1000
0100
0010
0001
1000
0100
0010
0100
,
0010
0001
1000
0100
0010
0001
0100
0000
,
0001
0000
0100
0001
0100
0000
0010
0000
,
1000
0000
0010
1000
0010
0000
0100
0000
,
0001
0000
0100
0001
0100
0000
0010
0000
,
1000
0000
0010
1000
0010
0000
0100
0000
,
0001
0000
0100
0001
0100
0000
0001
0000
,
1000
0000
0100
1000
0100
0000
1001
0000
,
0001
0010
0001
0000
0010
0100
0010
0000
,
0001
0100
0010
1000
,
0001
0100
0001
0000
0100
0010
0100
0000
,
0010
1000
0001
0100
,
0001
1000
0001
1000
0001
0000
0010
0000
,
0001
0000
1000
0000
0000
0000
0001
1000
,
0001
0000
1000
0001
1000
0000
0001
0100
,
0001
0000
0100
0010
0100
0000
0010
1000
,
0010
0000
1000
0100
1000
0000
0100
0010
,
0100
0000
0010
0001
0010
0000
0001
0100
,
0001
0000
1000
0100
1000
0000
0001
0010
,
0001
0000
1000
0100
1000
0000
2002
0000
,
3003
0000
0001
1000
0100
0000
0010
0001
,
0100
0000
0001
1000
0010
0000
0100
0001
,
1000
0000
0100
1000
0001
0000
0010
0001
,
1000
0000
0010
0100
0001
0000
1000
0100
,
0010
0000
0001
1000
0001
0000
1000
0100
,
0010
0000
0100
0000
0000
0000
1000
0010
,
0100
0000
0001
0000
0010
0000
0100
0000
0010
0000
0001
0000
1000
0100
1000
0000
,
0001
0100
0001
0000
0100
0000
0010
0000
0010
0000
0000
0000
1000
0100
1000
0000
,
0001
0100
0000
0001
0100
0001
0100
0000
0010
1000
0000
0010
1000
0010
1000
0000
,
0010
0100
0010
0000
1000
0100
0010
0001
1000
0000
0000
0000
0001
0000
0100
0000
,
0010
1000
0000
0010
1000
0000
0100
0000
0010
0001
0000
0010
0001
0000
0100
0000
,
0010
1000
0010
1000
0010
0000
0100
0000
0100
0000
0000
0000
1001
0000
0001
0100
,
0001
0000
0000
0100
0000
0000
0001
0000
0000
0100
0000
0000
0001
0000
0000
0000
0000
0000
1000
0000
0000
0100
0000
0000
1000
0000
0000
0100
0000
0000
1000
0000
0000
0100
0000
0000
1000
0000
0000
0000
0001
0000
0000
0000
1000
0000
0000
0000
,
0001
1000
0001
0100
0000
0000
2002
0000
0000
0000
0000
0000
,
0000
0000
0000
0000
,
0000
0000
0000
0000
,
0000
0000
0000
0000
,
0000
0000
0000
0000
,
0000
0000
0000
0000
,
0000
0000
0000
0000
,
0000
0000
0000
0000
,
0000
0000
0000
0000
3003
0000
1000
0010
,
1000
0010
1000
0001
1000
0001
0010
0001
,
0010
0001
1000
0001
1000
0010
1000
0010
,
1000
0010
1000
0001
1000
0001
0100
0001
,
1000
0001
0100
0001
0010
0001
0010
0100
,
1000
0100
1000
0001
1000
0001
0100
0001
,
0100
0001
0100
0010
0100
0010
0100
0001
,
0100
0001
1000
0001
1000
0001
0100
0001
,
1000
0001
0100
0001
0100
0001
1000
0100
,
1000
0100
0010
0001
0010
0001
1000
0010
,
1000
0010
0100
0001
0100
0001
0010
0100
,
1000
0001
0010
0100
1000
0001
0100
0010
,
1000
0001
0100
0010
1000
0001
0010
0100
,
1000
0001
0100
0010
1000
0001
0010
0100
,
1000
0010
0100
0001
0010
0100
1000
0100
,
0010
0001
0100
0010
1000
0100
0010
0001
,
0100
0010
1000
0100
0010
0001
0100
0000
,
0001
0000
0010
0001
0000
0010
0001
0000
,
0011
0000
0000
1100
0000
0000
0010
0000
,
1000
0000
0010
1000
0000
0010
1000
0000
,
1010
0000
0000
0101
0000
0000
0001
0100
,
0010
1000
0100
0000
0010
0000
0001
0010
,
0100
1000
0100
0000
0010
0000
0001
1000
,
0010
0100
0001
1000
0010
0100
0001
0000
,
0110
0000
0000
1001
0000
0000
0001
0010
,
0100
1000
0100
0010
0001
1000
0010
0000
,
0110
0000
0000
1001
0000
0000
1000
0100
,
0010
0001
1000
0100
0010
0001
0010
0000
,
1001
0000
0000
0110
0000
0000
0001
0010
,
0100
1000
0010
0100
0001
0010
0100
0000
,
0110
0000
0000
0000
0000
0000
0000
0000
0000
1001
0000
0000
0000
0000
0000
0000
0000
0000
0001
0000
0000
0000
0001
0000
,
0000
0001
0000
0000
0000
0000
1000
0000
1000
0000
1000
0000
,
0000
0000
0000
0010
0000
0010
0000
0010
0000
0100
0000
0100
,
0000
0100
0000
2002
0000
0000
0000
0000
0000
0000
0000
0000
,
0000
0000
0000
0000
,
0000
0000
0000
0000
,
0000
0000
0000
0000
,
3003
0000
0000
0000
,
0000
0000
0000
0000
;
#NOTES:
     dance-single:
     :
     Challenge:
     19:
     :
0000
0000
0000
0000
,
0000
0000
0000
0000
,
0000
0000
0000
0000
,
0000
0000
0000
0000
,
0000
0000
0000
0000
,
0000
0000
0000
0000
,
0000
0000
0000
0000
,
0000
0000
0000
0000
,
0000
0000
0000
0000
,
0000
0000
0000
0000
,
0000
0000
0000
0000
,
0000
0000
0000
0000
,
0000
0000
0000
0000
,
0000
0000
0000
0000
,
0000
0000
0000
0000
,
0000
0000
0000
0000
,
0000
0000
0000
0000
,
0000
0000
0000
0000
,
0001
0000
0010
0000
0100
0000
1000
0000
0000
0001
0000
0000
0010
0000
0000
0100
0000
0000
1000
0000
0000
0001
0000
0000
,
0010
0100
0010
0001
0010
0100
1000
0000
,
0001
0000
0100
0000
0010
0000
1000
0000
0000
0001
0000
0000
0100
0000
0000
0010
0000
0000
1000
0000
0000
0001
0000
0000
,
0100
0010
0100
0001
0100
0010
1000
0000
,
0010
1000
0010
1000
0001
0100
0001
0100
,
0001
0010
0100
1000
0001
1000
0100
0000
,
1000
0100
1000
0000
0001
0100
0001
0000
,
0100
0000
0001
0000
0100
0000
0001
0000
0000
1000
0000
0000
0100
0000
1000
0000
0100
0000
1000
0000
0000
0001
0000
0000
,
0010
0001
1000
0100
1000
0001
0010
0100
,
0010
0000
0000
0001
0000
0000
1000
0000
0000
0010
0000
0000
0100
0000
0001
0000
0100
0000
0001
0000
0000
0000
0000
0000
,
1000
0100
0010
0100
1000
0001
0010
0100
,
0010
0000
0000
0001
0000
0000
1000
0000
0000
0010
0000
0000
0100
0000
0001
0000
0100
0000
0001
0000
0000
0000
0000
0000
,
1000
0100
0010
0000
0001
0100
0001
0000
,
1000
0010
0100
0000
0010
1000
0010
0000
,
1000
0010
0100
0001
1000
0100
0010
0001
,
1000
0000
0000
0010
0000
0000
1000
0000
0000
0100
0000
0000
1000
0000
0100
0000
1000
0000
0100
0000
1000
0000
0001
0000
,
1000
0010
0100
0001
0100
0001
1000
0010
,
1000
0001
0010
0100
0010
0001
1000
0000
,
0010
1000
0001
0010
0100
1000
0001
0100
,
0010
0100
0001
1000
0100
1000
0001
0000
,
1000
0100
1000
0001
0100
0010
1000
0001
,
0010
0100
0010
0001
1000
0010
0100
0001
,
1000
0010
0100
0000
0001
0010
0100
0000
,
1000
0001
0100
0000
0010
1000
0001
0000
,
1000
0001
0010
0100
1000
0001
0100
0010
,
1000
1010
0011
1010
,
0100
0001
1000
0100
0010
0100
1000
0001
,
0010
0101
1100
0101
,
0210
0000
0000
0000
0301
1000
0010
0100
,
0001
1000
0100
0010
0001
0010
0100
1000
,
0001
0100
0010
0000
1000
0100
0010
0000
,
0100
0010
0001
0000
0100
0010
1000
0000
,
0010
1000
0010
1000
0001
0010
0001
0010
,
0100
1000
0100
1000
0001
0100
0001
0100
,
0010
1000
0100
0010
0001
0100
0010
1000
,
0010
1010
0011
1001
,
0100
0001
0100
0001
1000
0100
1000
0100
,
0010
0001
0010
0001
1000
0010
1000
0010
,
0100
0001
0010
0100
1000
0010
0100
0001
,
0100
0101
1100
1001
,
0001
0000
0010
0000
0001
0000
0010
0000
0000
0100
0000
0000
1000
0000
0000
0001
0000
0000
0100
0000
0000
0010
0000
0000
,
1000
0101
0110
1010
,
1000
0000
0010
0000
1000
0000
0010
0000
0000
0100
0000
0000
0001
0000
0000
1000
0000
0000
0100
0000
0000
0010
0000
0000
,
0100
1100
0110
0011
,
0001
0000
0010
0000
0001
0000
0010
0000
0000
0001
0000
0000
0010
0000
0000
0000
0000
0000
1100
0000
0000
0000
0000
0000
,
1000
0000
0010
0000
1000
0000
0010
0000
0000
1000
0000
0000
0010
0000
0000
0000
0000
0000
0101
0000
0000
0000
0000
0000
,
0001
0010
0100
1000
0010
0100
0001
1000
,
0100
0010
0001
0100
0010
1000
0001
0010
,
0100
1000
0001
0000
0100
0010
1000
0001
0010
0100
1000
0000
0010
0100
0010
1000
,
0001
0010
0100
0000
1000
0001
0010
0100
1000
0000
0001
0000
0110
0000
1001
0000
,
0010
0001
1000
0000
0010
0100
0001
1000
0100
0010
0001
0000
0100
0010
0100
0001
,
1000
0100
0010
0000
0001
1000
0100
0010
0001
0000
1000
0000
0110
0000
1001
0000
,
0010
0000
0101
0000
0100
0001
0100
0001
0010
0000
1100
0000
0100
1000
0100
1000
,
0010
0000
0101
0000
0010
0100
0010
0100
0010
0000
0100
0000
1001
0000
0000
0000
,
1100
0000
0000
0100
0010
0000
0000
0010
0001
0000
1000
0000
0001
0000
1000
0000
,
2002
0000
0000
3003
,
0001
0000
0010
0000
0100
0000
1000
0000
0000
0000
0000
0000
1000
0000
0000
0001
0000
0000
0000
0000
0000
0001
0000
0000
,
1000
0000
0100
0000
0010
0000
0001
0000
0000
0000
0000
0000
1000
0000
0000
0001
0000
0000
0000
0000
0000
0001
0000
0000
,
1000
0000
0100
0000
1000
0000
0001
0000
0000
0000
0000
0000
0010
0000
0000
0100
0000
0000
0000
0000
0000
0100
0000
0000
,
0010
0000
0001
0000
0010
0000
0001
0000
0000
0100
0000
0000
0010
0000
0000
1000
0000
0000
0001
0000
0000
0000
0000
0000
,
1000
0000
0100
0000
0010
0000
0001
0000
0000
0000
0000
0000
0001
0000
0000
1000
0000
0000
0000
0000
0000
1000
0000
0000
,
0001
0000
0010
0000
0100
0000
1000
0000
0000
0000
0000
0000
0001
0000
0000
1000
0000
0000
0000
0000
0000
1000
0000
0000
,
0001
0000
0010
0000
0001
0000
1000
0000
0000
0000
0000
0000
0100
0000
0000
0010
0000
0000
0000
0000
0000
0010
0000
0000
,
0100
0000
1000
0000
0100
0000
1000
0000
0000
0010
0000
0000
0100
0000
0000
0001
0000
0000
1000
0000
0000
0000
0000
0000
,
1001
0000
1000
0010
0100
0000
0001
0100
,
0010
1000
0010
0100
0001
0000
0010
0001
,
1000
0100
0010
0001
0100
0010
1000
0001
,
0100
0010
1000
0001
0100
0000
0001
0100
,
0010
0000
1000
0001
0100
0000
0010
1000
,
0001
0010
0100
1000
0010
0000
0100
0001
,
1000
0000
0100
1000
0001
0000
1000
0100
,
0010
0001
0010
0100
1000
0001
1000
0000
,
0100
0010
0001
0010
,
0010
0001
0001
0100
,
0001
1000
0010
1000
,
1000
0100
0100
0010
,
0100
1000
0010
0100
,
0100
0001
0001
1001
,
0010
0000
0001
0010
0100
0010
0001
0000
,
1000
0000
0010
1000
0001
1000
0010
0000
,
0100
0000
0001
1000
0100
1000
0001
0000
,
0010
0000
0100
1000
0001
1000
0100
0000
,
0010
0001
0010
0000
0001
0010
0100
1000
,
0001
0010
0100
1000
0001
0000
1000
0100
,
0010
0000
0010
0001
0100
0000
0100
0001
,
0010
0000
0010
0100
1000
0000
1000
0001
,
0100
0000
0100
0010
1000
0000
1000
0001
,
0010
0000
0010
0100
1000
0000
1000
0010
,
0100
0000
0100
0010
1000
0000
0100
1000
,
0100
0010
0001
0100
0010
1000
0100
0010
,
0001
0000
0001
0100
0010
0000
0010
1000
,
0001
0000
0001
0010
0100
0000
0100
1000
,
0001
0000
0001
1000
0010
0000
0010
1000
,
0100
0000
0100
1000
0001
0000
0001
0010
,
0100
0000
0100
1000
0010
0000
0010
0100
,
0001
0000
1001
0000
0000
0000
0001
0100
,
0010
1000
0000
0010
1000
0000
0100
0000
0010
0001
0000
0010
0001
0000
1000
0000
,
0001
0100
0000
0010
1000
0000
0001
0000
0001
0000
0000
0000
1000
0000
0100
0000
,
0010
0001
0000
0010
0001
0000
0100
0000
0010
1000
0000
0010
1000
0000
0001
0000
,
1000
0100
0000
0010
0001
0000
1000
0000
1000
0000
0000
0000
0001
0000
0010
0000
,
0100
1000
0000
1000
0001
0000
0100
0000
0001
0010
0000
0010
0100
0000
1000
0000
,
0001
0100
0000
0100
0010
0000
1000
0000
1000
0000
0000
0000
0001
0000
1000
0100
,
0010
0000
0000
0001
0000
0000
0100
0000
0000
0010
0000
0000
1000
0000
0000
0000
0000
0000
0001
0000
0000
0010
0000
0000
0100
0000
0000
1000
0000
0000
0010
0000
0000
0100
0000
0000
0001
0000
0000
0000
0010
0000
0000
0000
0100
0000
0000
0000
,
1000
0100
0010
0001
0000
0000
2002
0000
0000
0000
0000
0000
,
0000
0000
0000
0000
,
0000
0000
0000
0000
,
0000
0000
0000
0000
,
0000
0000
0000
0000
,
0000
0000
0000
0000
,
0000
0000
0000
0000
,
0000
0000
0000
0000
,
0000
0000
0000
0000
0000
0000
3003
0000
0000
0001
1000
0100
,
1000
0000
0000
0010
0000
0000
0100
0000
0000
0010
0000
0000
0100
0000
0000
0001
0000
0000
0100
0000
0001
0000
0010
0000
,
0100
0000
0000
0010
0000
0000
0100
0000
0000
1000
0000
0000
0010
0000
0000
1000
0000
0000
0010
0000
1000
0000
0100
0000
,
1000
0000
0000
0100
0000
0000
1000
0000
0000
0001
0000
0000
0100
0000
0000
0001
0000
0000
0100
0000
0001
0000
1000
0000
,
0100
0000
0000
1000
0000
0000
0010
0000
0000
0100
0000
0000
0001
0000
0000
1000
0000
0000
0100
0000
0010
0000
0001
0000
,
1000
0000
0000
0100
0000
0000
1000
0000
0000
0001
0000
0000
0100
0000
0000
0010
0000
0000
1000
0000
0001
0000
1000
0000
,
0010
0000
0000
0100
0000
0000
0010
0000
0000
0100
0000
0000
0001
0000
0000
1000
0000
0000
0001
0000
0100
0000
0010
0000
,
1000
0000
0000
0010
0000
0000
1000
0000
0100
0000
0010
0000
0001
0000
0000
0010
0000
0000
0001
0000
1000
0000
0001
0000
,
0100
0000
0000
0010
0000
0000
1000
0000
0001
0000
1000
0000
0100
0000
0000
1000
0000
0000
0001
0000
0100
0000
0001
0000
,
1000
0000
0000
0010
0000
0000
0100
0000
0000
0001
0000
0000
0010
0000
0000
0100
0000
0000
1000
0000
0001
0000
0010
0000
,
0100
0000
0000
1000
0000
0000
0010
0000
0000
0100
0000
0000
0001
0000
0000
0100
0000
0000
0010
0000
1000
0000
0001
0000
,
0010
0000
0000
0100
0000
0000
1000
0000
0000
0001
0000
0000
0100
0000
0000
0010
0000
0000
1000
0000
0001
0000
0010
0000
,
0100
0000
0000
1000
0000
0000
0010
0000
0000
1000
0000
0000
0100
0000
0000
0010
0000
0000
0100
0000
1000
0000
0001
0000
,
0100
0000
0000
0001
0000
0000
1000
0000
0100
0000
1000
0000
0100
0000
0000
0010
0000
0000
0001
0000
0010
0000
0001
0000
,
0100
0000
0000
0010
0000
0000
1000
0000
0100
0000
1000
0000
0001
0000
0000
0010
0000
0000
0100
0000
1000
0000
0010
0000
,
1000
0000
0000
0001
0000
0000
0100
0000
0001
0000
0100
0000
0010
0000
0000
1000
0000
0000
0010
0000
0100
0000
0001
0000
,
1000
0000
0000
0000
0000
0000
0100
0000
0000
0000
0000
0000
0010
0000
0000
0000
0001
0000
0000
0000
1000
0000
0000
0000
0100
0000
0000
0000
0000
0000
0010
0000
0000
0000
0000
0000
0001
0000
0000
1000
0000
0000
0001
0000
0000
0000
0000
0000
,
0100
0001
1000
0100
0010
0001
1000
0000
,
0020
0000
0000
0000
0030
0000
0110
0000
0000
0000
0000
0000
0100
0001
0100
0000
,
0010
1000
0001
1000
0100
0010
0001
0000
,
2000
0000
0000
0000
3000
0000
1001
0000
0000
0000
0000
0000
0001
0010
0100
0000
,
1000
0000
0001
0000
0010
0000
0100
0000
0010
0000
0001
0000
1000
0010
0100
0000
,
0001
0000
1000
0000
0010
0000
0100
0000
0001
0000
0100
0000
0001
1000
0100
0000
,
0010
0001
1000
0100
1000
0001
1000
0000
,
0002
0000
0000
0000
0003
0000
1001
0000
0000
0000
0000
0000
1000
0001
0010
0000
,
0100
0010
0001
1000
0100
0010
0100
0000
,
2000
0000
0000
0000
3000
0000
1001
0000
0000
0000
0000
0000
0001
0100
0010
0000
,
1000
0001
0100
0010
1000
0010
0100
0000
,
0002
0000
0000
0000
0003
0000
0011
0000
0000
0000
0000
0000
0010
0100
1000
0000
,
0001
0010
0001
1000
0100
0010
0001
0000
,
2000
0000
0000
0000
0000
0000
3000
0000
0000
1100
0000
0000
0000
0000
0000
0000
0000
0000
0001
0000
0000
0000
0001
0000
,
0000
0001
0000
0000
0000
0000
1000
0000
1000
0000
1000
0000
,
0000
0001
0100
0010
0000
0010
0000
0010
1000
0100
0000
0100
,
0000
0100
0000
2002
0000
0000
0000
0000
0000
0000
0000
0000
,
0000
0000
0000
0000
,
0000
0000
0000
0000
,
0000
0000
0000
0000
,
3003
0000
0000
0000
,
0000
0000
0000
0000
;
#NOTES:
     dance-double:
     :
     Easy:
     12:
     :
00000000
00000000
00000000
00000000
,
00000000
00000000
00000000
00000000
,
00000000
00000000
00000000
00000000
,
00000000
00000000
00000000
00000000
,
00000000
00000000
00000000
00000000
,
00000000
00000000
00000000
00000000
,
00000000
00000000
00000000
00000000
,
00000000
00000000
00000000
00000000
,
00000000
00000000
00000000
00000000
,
00000000
00000000
00000000
00000000
,
00000001
00000000
00000001
00000000
,
00000010
00000000
00000010
00000000
,
00000100
00000000
00000100
00000000
,
00001000
00001000
00001000
00000000
,
00000010
00000000
00010000
00000000
,
00001000
00000000
00010000
00000000
,
00001000
00010000
00100000
00000000
,
10000000
00010000
10000000
00010000
,
10000000
00000000
00100000
00000000
,
01000000
00010000
01000000
00000000
,
00100000
10000000
01000000
00000000
,
00010000
00000000
00001000
00000000
,
00000010
00000001
00000010
00000000
,
00000100
00001000
00000100
00000000
,
00010100
00000000
00011000
00000000
,
00001000
00010000
00001000
00010000
,
00001000
00000000
00010000
00000000
,
00100000
01000000
00100000
00000000
,
10000000
00010000
10000000
00000000
,
01000000
00010000
00001000
00000000
,
00010000
00010000
00010000
00000000
,
00001000
00001000
00001000
00000000
,
00001000
00000100
00000010
00000100
,
00000001
00001000
00000001
00000000
,
00000001
00000100
00000010
00000000
,
00001000
00000010
00010000
00000000
,
00001000
00010000
00001000
00000000
,
00010000
00100000
10000000
00000000
,
00010000
00000000
01000000
00000000
,
00100000
10000000
01000000
00000000
,
00010000
00000000
00001000
00000000
,
00010000
00001000
00010000
00000000
,
00001000
00000010
00001000
00000010
,
00000001
00000010
00000001
00000000
,
00000010
00000100
00001000
00000100
,
00000010
00000001
00001000
00000000
,
00000001
00000100
00001000
00000000
,
00010000
00001000
00010000
00000000
,
00100000
10000000
00100000
10000000
,
00010000
01000000
00010000
01000000
,
00100000
00000000
10000000
01000000
,
00100000
01000000
00010000
00001000
,
00010000
00000000
00001000
00010000
,
00001000
00000100
00000010
00000000
,
00000101
00000000
00000001
00000100
,
00000010
00000100
00000001
00000100
,
00001000
00000000
00010000
00001000
,
00010000
01000000
00100000
00000000
,
00110000
00000000
00010000
10000000
,
01000000
00010000
00001000
00000000
,
00011000
00000000
00001000
00000010
,
00000001
00000010
00000100
00000000
,
00001000
00000100
00001000
00000000
,
00000001
00000010
00000001
00000000
,
00000011
00000000
00000101
00000000
,
00001100
00000000
00011000
00000000
,
00001000
00010000
00001000
00000000
00010000
01000000
10000000
00000000
,
01000000
00100000
00010000
00100000
01000000
00010000
00001000
00000000
,
00010000
00001000
00010000
00000000
00001000
00000100
00000001
00000000
,
00000100
00000010
00001000
00000010
00000100
00001000
00010000
00000000
,
00001000
00010000
01000000
00000000
10000000
01000000
00100000
00000000
,
00010000
00100000
00001000
00000000
00010000
00000010
00001000
00000000
,
00000001
00000100
00000010
00000100
00001000
00010000
00001000
00000000
,
00022000
00000000
00000000
00033000
,
00001000
00010000
00100000
00000000
,
10000000
00010000
10000000
00000000
,
01000000
00010000
00001000
00000000
,
00010000
00001000
00010000
00001000
,
00000010
00000001
00001000
00000000
,
00000001
00001000
00000010
00000000
,
00000100
00000001
00000100
00000000
,
00001000
00010000
00001000
00010000
,
01100000
00000000
00000000
10000000
,
00010000
01000000
00000000
00100000
,
10000000
01000000
00000000
00010000
,
00001000
00010000
00001000
00000010
,
00000010
00000010
00000000
00000100
,
00000100
00000100
00000000
00001000
,
00000100
00000010
00000001
00001000
,
00000010
00000100
00000000
00000100
,
00000001
00000100
00000001
00001000
,
00000010
00001000
00000010
00010000
,
00001000
00010000
00001000
00100000
,
01000000
10000000
00000000
00100000
,
10000000
00100000
10000000
00010000
,
01000000
00010000
01000000
00001000
,
00000000
00001000
00010000
00001000
,
00010000
00000010
00001000
00000001
,
00000100
00000001
00000100
00000010
,
00001000
00000001
00001000
00000001
,
00000100
00001000
00000000
00010000
,
00001000
00010000
00000000
00001000
,
00010000
00100000
00000000
10000000
,
00010000
01000000
00000000
00100000
,
10000000
00010000
00000000
00100000
,
00001000
00010000
00000000
00001000
,
00010000
00001000
00000000
00000100
,
00000010
00000100
00000010
00000100
,
00000000
00000001
00001000
00000100
,
00000000
00000010
00000001
00001000
,
00000000
00000010
00000100
00000010
,
00000000
00000100
00000010
00000100
,
00000000
00000001
00000100
00001000
,
00010000
00000000
00001000
00000000
00000000
00000000
00001000
00010000
,
00001000
00000000
00010000
00100000
10000000
00000000
00100000
01000000
,
00100000
01000000
00001000
00010000
00001000
00000000
00010000
00001000
,
00010000
00000000
00001000
00000010
00000001
00000000
00000010
00000100
,
00000010
00000100
00010000
00001000
00010000
00000000
00001000
00010000
,
00100000
00000000
00100000
10000000
01000000
00000000
01000000
00010000
,
00001000
00000000
00001000
00010000
00001000
00000000
00001000
00000010
,
00000001
00000000
00000000
00000000
00000000
00000000
00000001
00000000
00000000
00001000
00000000
00000000
00000100
00000000
00000000
00000000
00000000
00000000
00000010
00000000
00000100
00000000
00000010
00000000
,
00000100
00000010
00000100
00000010
00000000
00000000
00002002
00000000
00000000
00000000
00000000
00000000
,
00000000
00000000
00000000
00000000
,
00000000
00000000
00000000
00000000
,
00000000
00000000
00000000
00000000
,
00000000
00000000
00000000
00000000
,
00000000
00000000
00000000
00000000
,
00000000
00000000
00000000
00000000
,
00000000
00000000
00000000
00000000
,
00000000
00000000
00003003
00000001
,
00000100
00000001
00000100
00000010
,
00001000
00000010
00001000
00000100
,
00000010
00000100
00000010
00001000
,
00010000
00001000
00010000
01000000
,
00100000
01000000
00100000
00010000
,
01000000
00010000
01000000
00100000
,
10000000
00100000
10000000
01000000
,
00100000
01000000
00100000
00010000
,
01000000
00010000
00000000
10000000
,
01000000
10000000
00000000
00010000
,
10000000
01000000
00000000
00010000
,
00001000
00010000
00000000
00001000
,
00000010
00000001
00000010
00001000
,
00000010
00000001
00000000
00000001
,
00000100
00001000
00010000
00001000
,
00010000
00100000
00000000
10000000
,
00100000
01000000
00000000
01010000
,
00000000
00000000
00000000
00100000
,
00001000
00010000
00000000
00011000
,
00000000
00000000
00000000
00001000
,
00000010
00000001
00000000
00000001
,
00000010
00000100
00000000
00001000
,
00000100
00010000
00000000
00011000
,
00000000
00000000
00000000
00010000
,
01000000
10000000
01000000
00010000
,
00000000
00000000
00000000
00001000
,
00000100
00000001
00000100
00001000
,
00000000
00000000
00000000
00010000
,
00001000
00010000
00001000
00010000
,
00000000
00000000
00000000
00002000
,
00000000
00003000
00020000
00000000
,
00030000
00001000
00000000
00010000
,
00000000
00022000
00000000
00000000
,
00000000
00000000
00000000
00000000
,
00000000
00000000
00000000
00000000
,
00000000
00000000
00000000
00000000
,
00033000
00000000
00000000
00000000
,
00000000
00000000
00000000
00000000
;
#NOTES:
     dance-double:
     :
     Medium:
     16:
     :
00000000
00000000
00000000
00000000
,
00000000
00000000
00000000
00000000
,
00000000
00000000
00000000
00000000
,
00000000
00000000
00000000
00000000
,
00000000
00000000
00000000
00000000
,
00000000
00000000
00000000
00000000
,
00000000
00000000
00000000
00000000
,
00000000
00000000
00000000
00000000
,
00000000
00000000
00000000
00000000
,
00000000
00000000
00000000
00000000
,
10000000
01000000
10000000
01000000
,
00100000
00000000
00110000
00000000
,
00001000
00010000
00001000
00010000
,
00000100
00000000
00000110
00000000
,
00000001
00000010
00000001
00000010
,
00000100
00001000
00000100
00001000
,
00000001
00000010
00000100
00001000
,
00000100
00000010
00000100
00000010
00000100
00000000
00000000
00000000
,
00001000
00000100
00010000
00000100
,
00001000
00000100
00010000
00000000
,
00001000
00010000
00001000
00100000
,
00001000
00010000
00001000
00000000
,
00001000
00010000
00001000
00010000
,
00100000
10000000
00100000
10000000
,
00010000
01000000
10000000
01000000
,
00010000
01000000
10000000
00000000
,
01000000
00010000
01000000
00010000
,
10000000
01000000
00010000
00000000
,
00001000
00010000
00001000
00100000
,
00001000
00010000
00001000
00000000
,
00000100
00000010
00000100
00000010
,
00001000
00000001
00001000
00000000
,
00000001
00000100
00000010
00001000
,
00000001
00000010
00000001
00000000
00001000
00000000
00000000
00000000
,
00000001
00000100
00000001
00000000
00000100
00000000
00001000
00000000
,
00010000
00001000
00010000
00100000
,
10000000
00010000
10000000
00000000
00100000
00000000
01000000
00000000
,
00010000
10000000
01000000
00000000
,
10000000
01000000
10000000
00000000
01000000
00000000
00010000
00000000
,
00001000
00100000
00001000
00010000
,
00001000
00010000
00001000
00000000
00000100
00000000
00000010
00000000
,
00001000
00000001
00001000
00000000
,
00000001
00000010
00000001
00000000
00001000
00000000
00000001
00000000
,
00001000
00000100
00001000
00000000
00000001
00000000
00001000
00000000
,
00000001
00000100
00001000
00010000
,
00100000
10000000
00010000
10000000
,
01000000
00000000
00000000
01000000
00010000
00000000
00000000
00010000
,
00001000
00000000
00000000
00001000
00000010
00000000
00000000
00000010
,
00000001
00001000
00000100
00001000
,
00000010
00000010
00000010
00000000
,
00000001
00001000
00000010
00000100
,
00000001
00001000
00000010
00000100
,
00000001
00000100
00001000
00010000
,
00100000
10000000
10000000
00000000
,
00010000
10000000
01000000
00100000
,
00010000
10000000
01000000
00100000
,
00010000
10000000
01000000
00010000
,
00001000
00000010
00000010
00000000
,
00000001
00000100
00001000
00010000
,
00100000
10000000
10000000
00000000
,
10000000
01000000
00010000
00001000
,
00000010
00000001
00000001
00000000
,
00000011
00000000
00000000
00000011
,
00000110
00000000
00000000
00000110
,
00001100
00000000
00010100
00000000
,
00011000
00000000
00010000
00001000
00010000
00000000
00000000
00000000
,
00100000
00000000
10000000
00000000
00100000
10000000
00000000
00000000
00010000
00000000
01000000
00000000
00010000
01000000
00000000
00000000
,
00100000
00010000
00001000
00000010
00000001
00000010
00000100
00000000
,
00000010
00000000
00000001
00000000
00000010
00000001
00000000
00000000
00001000
00000000
00000100
00000000
00001000
00000100
00000000
00000000
,
00000010
00001000
00010000
00100000
10000000
00100000
01000000
00000000
,
00100000
10000000
10010000
00000000
00100000
00010000
10010000
00000000
,
00100000
10000000
01000000
00010000
00001000
00010000
00011000
00000000
,
00001000
00000100
00000001
00000100
00000001
00000010
00001000
00000010
,
00000220
00000000
00000000
00000330
,
00000001
00000000
00000001
00000000
00000010
00000100
00000000
00001000
,
00000100
00000000
00000010
00000000
00000001
00000100
00000000
00000010
,
00001000
00000000
00000100
00000000
00010000
00001000
00000000
00100000
,
00010000
00100000
01000000
00000000
,
10000000
00000000
10000000
00000000
00100000
01000000
00000000
00010000
,
01000000
00000000
00100000
00000000
10000000
00100000
00000000
01000000
,
00010000
00000000
00100000
00000000
00001000
00010000
00000000
00000100
,
00001000
00000100
00000010
00000001
,
00000001
00000000
00000010
00000001
00000000
00000010
00000001
00000000
,
00000100
00000000
00000010
00001000
00000000
00000010
00001000
00000000
,
00000100
00000000
00010000
00001000
00000000
00010000
00001000
00000000
,
00010000
01000000
00100000
00010000
,
00010000
00000000
10000000
01000000
00000000
00100000
01000000
00000000
,
00100000
00000000
00001000
00010000
00000000
00001000
00000100
00000000
,
00000001
00000000
00001000
00000010
00000000
00000100
00000001
00000000
,
00001000
00000000
00001001
00000000
00000000
00000000
00000001
00000100
,
00000001
00000100
00001000
00010000
,
00001000
00000000
00010000
00000000
00100000
00000000
10000000
00010000
,
10000000
00100000
01000000
00010000
,
10000000
00000000
10010000
00000000
00000000
00000000
10000000
01000000
,
10000000
01000000
00010000
00001000
,
00010000
00001000
00000010
00000001
,
00000010
00000001
00000010
00000000
00000100
00001000
00000100
00000000
,
00000010
00000100
00000010
00000000
00000001
00000000
00000100
00000000
,
00000010
00001000
00000010
00000000
00010000
00001000
00010000
00000000
,
00000010
00001000
00000010
00000000
00010000
00000000
00001000
00000000
,
00010000
00000000
00100000
00000000
10000000
00000000
00010000
10000000
,
00010000
00000000
10000000
00010000
10000000
00000000
00100000
00000000
,
10000000
00100000
01000000
00010000
,
00100000
01000000
00100000
01000000
,
10000000
01000000
00010000
00001000
,
00010000
00100000
00010000
00001000
,
00000100
00000010
00000100
00000001
,
00000010
00000100
00001000
00000100
,
00000000
00000100
00000010
00000001
,
00000010
00000100
00001000
00000001
,
00000100
00001000
00010000
00100000
,
00010000
00001000
00000010
00001000
,
00010000
01000000
10000000
00010000
,
01000000
00000000
00100000
00000000
00000000
00000000
10000000
00100000
,
01000000
00010000
00000000
00000000
10000000
00000000
00100000
00000000
01000000
00010000
00000000
00000000
10000000
00000000
01000000
00000000
,
00010000
00001000
00000100
00000001
00001000
00000000
00000001
00000010
,
00000100
00001000
00000000
00000000
00000001
00000000
00000010
00000000
00000100
00001000
00000000
00000000
00000001
00000000
00000010
00000000
,
00001000
00010000
00100000
10000000
00010000
00000000
00100000
00010000
,
10000000
00100000
01000000
00001000
00010000
00000100
00001000
00000010
,
00000100
00000001
00000010
00000100
00010000
00000000
00000100
00010000
,
00011000
00000000
00000000
00000000
00000000
00000000
01000000
00000000
00000000
00001000
00000000
00000000
00011000
00000000
00000000
00000000
00000000
00000000
00010000
00000000
00001000
00000000
00010000
00000000
,
00001000
00010000
00001000
00010000
00000000
00000000
00022000
00000000
00000000
00000000
00000000
00000000
,
00000000
00000000
00000000
00000000
,
00000000
00000000
00000000
00000000
,
00000000
00000000
00000000
00000000
,
00000000
00000000
00000000
00000000
,
00000000
00000000
00000000
00000000
,
00000000
00000000
00000000
00000000
,
00000000
00000000
00000000
00000000
,
00000000
00000000
00033000
00000010
,
00001000
00000000
00000010
00000000
00001000
00000000
00000001
00000100
,
00000001
00001000
00000010
00000100
,
00000001
00000000
00000100
00000000
00001000
00000000
00010000
00001000
,
00010000
00001000
00100000
00001000
,
00010000
00000000
01000000
00000000
10000000
00000000
00010000
01000000
,
00010000
10000000
00100000
00010000
,
00100000
00000000
01000000
00000000
00100000
00000000
00010000
00001000
,
00010000
00000000
00011000
00000000
00000000
00010000
00001000
00000000
,
00000000
00001000
00000100
00000000
00000000
00000100
00000001
00000000
,
00000000
00000001
00001000
00000000
00000000
00001000
00000001
00000000
,
00000000
00000001
00000010
00000000
00000000
00000010
00001000
00000000
,
00000000
00001000
00010000
00000000
00000000
00010000
00100000
00000000
,
10000000
00010000
01000000
00000000
00010000
00100000
00001000
00000000
,
00010000
00000100
00000100
00000010
,
00000001
00001000
00000010
00000000
00000100
00000001
00001000
00000000
,
00000010
00000100
00000100
00000001
,
00000100
00001000
00010000
00011000
,
00000000
00000000
00000000
10000000
,
01000000
00010000
00001000
00011000
,
00000000
00000000
00000000
00000001
,
00001000
00010000
10000000
10000000
,
00010000
00001000
00000001
00000001
,
00001000
00010000
10000000
10010000
,
00000000
00000000
00000000
10000000
,
01000000
00000000
00010000
00001000
00010000
00001000
00010000
00000000
,
00000010
00000000
00000000
00000100
00000000
00000000
00000001
00000000
,
00000100
00000000
00001000
00010000
00001000
00010000
00001000
00000000
,
00100000
00000000
00000000
01000000
00000000
00000000
00100000
00000000
,
00001000
00000000
00010000
00001000
00010000
00001000
00010000
00000000
,
00000010
00000000
00000000
00000000
00000000
00000000
00000000
00000000
00000000
00000100
00000000
00000000
00000000
00000000
00000000
00000000
00000000
00000000
00000010
00000000
00000000
00000000
00000100
00000000
,
00000000
00000010
00000000
00000000
00000000
00000000
00001000
00000000
00000001
00000000
00001000
00000000
,
00000000
00000000
00000000
00000001
00000000
00000100
00000000
00001000
00000000
00010000
00000000
00001000
,
00000000
00010000
00000000
00022000
00000000
00000000
00000000
00000000
00000000
00000000
00000000
00000000
,
00000000
00000000
00000000
00000000
,
00000000
00000000
00000000
00000000
,
00000000
00000000
00000000
00000000
,
00033000
00000000
00000000
00000000
,
00000000
00000000
00000000
00000000
;
#NOTES:
     dance-double:
     :
     Hard:
     18:
     :
00000000
00000000
00000000
00000000
,
00000000
00000000
00000000
00000000
,
00000000
00000000
00000000
00000000
,
00000000
00000000
00000000
00000000
,
00000000
00000000
00000000
00000000
,
00000000
00000000
00000000
00000000
,
00100000
00000000
00100000
00000000
10000000
01000000
10000000
00000000
,
00010000
00000000
00010000
00000000
01000000
00010000
01000000
00000000
,
00010000
00000000
00010000
00000000
00100000
00001000
00100000
00000000
,
00001000
00010000
00000100
00000000
,
00001000
00000000
00001000
00000000
00000001
00000100
00000001
00000000
,
00000100
00000000
00000100
00000000
00000010
00010000
00000010
00000000
,
00010000
00000000
00010000
00000000
00001000
00010000
01000000
00000000
,
10000000
00100000
01000000
00000000
,
00010000
00000000
01000000
00010000
01000000
00010000
00000000
01000000
,
00001000
00000000
00010000
00001000
00010000
00001000
00000000
00010000
,
00000100
00001000
00000100
00000000
00001000
00000001
00001000
00000000
,
00000001
00000100
00000010
00001000
00000100
00000010
00000001
00001000
,
00000001
00000010
00000100
00001000
,
00000010
00000100
00000001
00000010
,
00001000
00010000
01000000
10000000
,
00100000
00000000
01000000
00000000
00000000
00010000
00000000
00010000
,
01000000
00010000
00100000
01000000
,
10000000
00100000
00010000
00001000
,
00000010
00000001
00000100
00001000
,
00010000
00000000
01000000
10000000
00000000
00100000
01000000
00000000
,
00010000
00100000
01000000
10000000
,
00100000
00010000
00001000
00000100
,
00000001
00000100
00000010
00010000
,
00001000
00000000
00100000
00000000
01000000
10000000
01000000
10000000
,
00010000
10000000
00100000
00010000
,
00001000
00000010
00000001
00000100
,
00000010
00001000
00000010
00000000
00010000
00001000
00010000
00000000
,
00100000
10000000
01000000
10000000
00010000
00100000
00010000
00000000
,
10000000
00010000
10000000
00000000
01000000
00000000
00010000
00000000
,
00001000
00000000
00000100
00000000
00000001
00001000
00000010
00000000
,
00010000
00001000
00010000
01000000
,
00100000
00000000
01000000
00000000
00010000
00001000
00010000
00000000
,
00001000
00000000
00000100
00000000
00000001
00000010
00000001
00000000
,
00000010
00000000
00001000
00000000
00010000
00001000
00010000
00000000
,
01000000
00000000
10000000
00000000
00010000
10000000
00100000
00000000
,
00010000
00000000
00001000
00000000
00000100
00000010
00001000
00000000
,
00000001
00000000
00000100
00000001
00000100
00000000
00000001
00000010
,
00000001
00000000
00000010
00001000
00000010
00000000
00001000
00010000
,
00001000
00000000
00010000
00100000
00010000
00000000
00100000
10000000
,
00100000
00000000
10000000
00100000
01000000
00000000
00010000
00100000
,
00001000
00000000
00010000
00000010
00001000
00000000
00000001
00000100
,
00000010
00000000
00000100
00001000
00010000
00000000
00001000
00100000
,
00010000
00000000
10000000
01000000
00100000
00000000
00010000
00100000
,
00001000
00000000
00010000
00000010
00001000
00000000
00000001
00001000
,
00000100
00000010
00000001
00000010
,
00001000
00010000
01000000
10000000
,
00010000
01000000
00010000
00000000
10000000
01000000
10000000
00000000
,
00100000
10100000
01100000
01001000
,
00011000
00000000
00010000
00001000
,
00000010
00000001
00000100
00000001
,
00001000
00000100
00001000
00000000
00000001
00000100
00000001
00000000
,
00001000
00001010
00010010
00011000
,
00101000
00000000
00000000
00000000
00001000
00010000
00100000
00000000
,
01000000
01100000
10100000
10010000
,
11000000
00000000
00000000
00000000
01000000
00010000
00001000
00000000
,
00010000
00010100
00000110
00000011
,
00001001
00000000
00000000
00000000
00000100
00001000
00000100
00000000
,
00010100
00000000
00000000
00000000
00001000
00010000
00001000
00000000
,
00101000
00010000
01100000
10000000
,
00110000
01100000
10010000
00000000
,
10000000
10000000
01000000
01000000
,
00010000
00000000
00010000
00000000
00001000
00000100
00000001
00001000
,
00000001
00000001
00000010
00000010
,
00001000
00000000
00000000
00000000
00001000
00000000
00000000
00000000
00010000
00000000
01000000
00000000
10000000
00010000
10000000
00000000
,
00100000
00000000
00100000
00000000
10000000
01000000
10000000
00000000
00010000
00000000
00010000
00000000
01000000
00010000
01000000
00000000
,
00010000
00000000
00010000
00000000
00100000
00001000
00100000
00000000
00001000
00000000
00010000
00000000
00000100
00000000
00000000
00000000
,
00010000
00000000
00010000
00000000
00001000
00010000
00000000
00001000
00000100
00000000
00000001
00000000
00000010
00001000
00000000
00010000
,
00001000
00000000
00010000
00000000
01000000
10000000
00000000
01000000
00100000
00000000
00001000
00000000
00011000
00000000
00000000
00000000
,
00001000
00010000
00001000
00010000
00001000
00010000
00001000
00000000
,
00010000
00100000
00010000
00100000
00010000
00100000
00010000
00000000
,
00100000
10000000
00100000
10000000
00100000
10000000
00100000
00000000
,
10000000
01000000
10000000
00000000
10010000
00000000
00000000
00000000
,
00010000
10000000
00010000
10000000
00010000
10000000
00010000
00000000
,
01000000
00001000
01000000
00001000
01000000
00001000
01000000
00000000
,
00001000
00010000
00001000
00010000
00001000
00010000
00001000
00000000
,
00010000
00000100
00010000
00000000
00000100
00000000
00000100
00000000
,
00000110
00000000
00000001
00000010
00000000
00000000
00000100
00001000
,
00000100
00000010
00000100
00001000
00000100
00000000
00000010
00000001
,
00000010
00000100
00000010
00000001
00000010
00000000
00000001
00001000
,
00000100
00001000
00000001
00001000
00000100
00000000
00000010
00000000
,
00000010
00000000
00001000
00010000
00000000
00000000
00010000
00000000
,
00010000
00000000
00001000
00010000
00000000
00000000
00100000
01000000
,
00100000
00000000
10000000
00010000
10000000
00000000
00010000
01000000
,
00100000
10000000
00010000
00100000
01000000
00000000
10000000
01000000
,
10000000
00010000
10000000
00100000
,
01000000
00010000
10000000
01000000
,
00100000
00001000
00010000
00000100
,
00001000
00000001
00000100
00000010
,
00001000
00000001
00000010
00000100
,
00001000
00000000
00000100
00000010
00000100
00000010
00000100
00000000
,
00000010
00000001
00000100
00000010
,
00001000
00000100
00010000
00001000
,
01000000
00010000
00100000
01000000
,
10000000
00100000
01000000
00010000
,
10000000
00000000
01000000
00100000
01000000
00100000
01000000
00000000
,
00100000
00000000
01100000
00000000
00000000
00000000
00010000
00100000
,
00010000
00000000
00100000
01000000
00100000
00000000
01000000
10000000
,
01000000
00000000
10000000
00010000
10000000
00000000
00100000
01000000
,
00010000
00000000
00100000
00001000
00010000
00000000
00001000
00010000
,
00000100
00000000
00000010
00000001
00000100
00000000
00000001
00001000
,
00000001
00000000
00001000
00000001
00001000
00000000
00000001
00000010
,
00000001
00000000
00001000
00000100
00001000
00000000
00002002
00000000
,
00003003
00000000
00000001
00001000
00000100
00000000
00000010
00000100
,
00001000
00000000
00000100
00010000
00001000
00000000
00010000
00001000
,
00100000
00000000
01000000
10000000
01000000
00000000
00100000
00010000
,
00100000
00000000
01000000
10000000
00010000
00000000
00100000
00010000
,
10000000
00000000
01000000
00100000
00010000
00000000
10000000
00010000
,
01000000
00000000
00100000
10000000
01000000
00000000
10000000
01000000
,
00100000
00010000
00000000
00100000
00010000
00000000
01000000
00000000
00100000
10000000
00000000
00100000
10000000
00000000
00010000
00000000
,
10000000
01000000
00000000
00100000
00010000
00000000
00001000
00000000
00001100
00000000
00000000
00000000
00000001
00000000
00000100
00000000
,
00000010
00001000
00000000
00000010
00001000
00000000
00000100
00000000
00000010
00000001
00000000
00000010
00000001
00001000
00000001
00000000
,
00000100
00000001
00000000
00001000
00000100
00000000
00010000
00000000
00011000
00000000
00000000
00000000
00100000
00010000
00100000
00000000
,
01000000
10000000
00000000
01000000
10000000
01000000
10000000
00000000
00010000
01000000
00000000
00010000
01000000
00100000
01000000
00000000
,
00100000
01000000
00100000
00000000
10000000
00000000
01000000
00000000
00010000
00000000
00000000
00000000
00001000
00000100
00001000
00000000
,
00000100
00000000
00000000
00000010
00000000
00000000
00000000
00000000
00000000
00000000
00000000
00000000
00001000
00000000
00000000
00000001
00000000
00000000
00001000
00000000
00000000
00000000
00000000
00000000
00000010
00000000
00000000
00000100
00000000
00000000
00000000
00000000
00000000
00000000
00000000
00000000
00000001
00000000
00000000
00000000
00001000
00000000
00000000
00000000
00000001
00000000
00000000
00000000
,
00001000
00000001
00001000
00000100
00000000
00000000
00002002
00000000
00000000
00000000
00000000
00000000
,
00000000
00000000
00000000
00000000
,
00000000
00000000
00000000
00000000
,
00000000
00000000
00000000
00000000
,
00000000
00000000
00000000
00000000
,
00000000
00000000
00000000
00000000
,
00000000
00000000
00000000
00000000
,
00000000
00000000
00000000
00000000
,
00000000
00000000
00003003
00000001
,
00001000
00000000
00000001
00000100
00000001
00000100
00000001
00000000
,
00000010
00000000
00001000
00010000
00001000
00010000
00001000
00000000
,
00010000
00000000
00100000
10000000
00100000
10000000
00100000
00000000
,
01000000
00000000
00010000
10000000
00010000
10000000
00010000
00000000
,
00100000
00000000
00001000
00010000
00001000
00010000
00001000
00000000
,
00000100
00000000
00000001
00000010
00000001
00000010
00000001
00000000
,
00000100
00000000
00000010
00001000
00000010
00001000
00000010
00000000
,
00010000
00000000
00001000
00100000
00001000
00000000
00010000
00000100
,
00010000
00000100
00001000
00000010
00001000
00000010
00001000
00000001
,
00001000
00000001
00000100
00000001
00000100
00000001
00001000
00000010
,
00001000
00000010
00010000
00001000
01000000
00010000
01000000
00100000
,
10000000
00100000
10000000
01000000
00100000
00010000
00100000
00001000
,
00010000
00001000
00010000
00000100
00001000
00000001
00000010
00000001
,
00000010
00000100
00001000
00000100
00001000
00000100
00010000
00001000
,
00010000
00001000
00100000
00010000
10000000
01000000
00010000
01000000
,
10000000
00010000
00100000
01000000
10000000
00010000
10000000
00000000
,
00100000
00000000
01000000
00010000
00000000
01000000
00010000
00000000
,
01010000
00000000
00000000
10100000
00000000
00000000
10000000
00000000
,
01000000
00000000
00100000
00010000
00000000
00100000
00010000
00000000
,
00110000
00000000
00000000
00101000
00000000
00000000
00010000
00000000
,
00001000
00000000
00000010
00000001
00000000
00000010
00000001
00000000
,
00000100
00000000
00000010
00001000
00000000
00000010
00001000
00000000
,
00000001
00000000
00000010
00000100
00000000
00001000
00000001
00000000
,
00001001
00000000
00000000
00000110
00000000
00000000
00000001
00000010
,
00000100
00000000
00001000
00000100
00000010
00000000
00000001
00000000
,
00000110
00000000
00000000
00011000
00000000
00000000
00001000
00010000
,
01000000
00000000
00100000
01000000
10000000
00000000
00010000
00000000
,
11000000
00000000
00000000
00110000
00000000
00000000
10000000
00100000
,
01000000
00000000
00010000
10000000
00100000
00000000
00010000
00000000
,
00011000
00000000
00000000
00000000
00000000
00000000
00000000
00000000
00000000
00001010
00000000
00000000
00000000
00000000
00000000
00000000
00000000
00000000
00000001
00000000
00000000
00000000
00000100
00000000
,
00000000
00001000
00000000
00000000
00000000
00000000
10000000
00000000
01000000
00000000
00010000
00000000
,
00000000
00000000
00000000
00001000
00000000
00001000
00000000
00001000
00000000
00010000
00000000
00010000
,
00000000
00010000
00000000
00022000
00000000
00000000
00000000
00000000
00000000
00000000
00000000
00000000
,
00000000
00000000
00000000
00000000
,
00000000
00000000
00000000
00000000
,
00000000
00000000
00000000
00000000
,
00033000
00000000
00000000
00000000
,
00000000
00000000
00000000
00000000
;
#NOTES:
     dance-double:
     :
     Challenge:
     19:
     :
00000000
00000000
00000000
00000000
,
00000000
00000000
00000000
00000000
,
00000000
00000000
00000000
00000000
,
00000000
00000000
00000000
00000000
,
00000000
00000000
00000000
00000000
,
00000000
00000000
00000000
00000000
,
00000000
00000000
00000000
00000000
,
00000000
00000000
00000000
00000000
,
00000000
00000000
00000000
00000000
,
00000000
00000000
00000000
00000000
,
00000000
00000000
00000000
00000000
,
00000000
00000000
00000000
00000000
,
00000000
00000000
00000000
00000000
,
00000000
00000000
00000000
00000000
,
00000000
00000000
00000000
00000000
,
00000000
00000000
00000000
00000000
,
00000000
00000000
00000000
00000000
,
00000000
00000000
00000000
00000000
,
00010000
00001000
00010000
00000100
00000010
00000100
00001000
00000001
,
00000010
00000100
00001000
00000100
00010000
00001000
00010000
00000000
,
00001000
00010000
00100000
01000000
00100000
10000000
00010000
01000000
,
00010000
00100000
00001000
00010000
00001000
00000100
00000010
00000000
,
00001000
00000001
00000010
00000001
00001000
00000010
00010000
00001000
,
00010000
00100000
01000000
00010000
10000000
00100000
01000000
00000000
,
00010000
00100000
00001000
00000000
00010000
00001000
00010000
00000000
,
00000100
00010000
00000100
00001000
00000100
00000010
00000001
00000000
,
00001000
00000001
00000100
00000010
00001000
00000010
00010000
00001000
,
00100000
00001000
00010000
01000000
10000000
00010000
10000000
00000000
,
00100000
01000000
00010000
00100000
00001000
00010000
00001000
00000100
,
00000010
00000100
00000001
00001000
00000010
00001000
00000001
00000000
,
00000100
00000010
00000100
00000010
00001000
00000001
00000100
00000000
,
00000010
00010000
00001000
00010000
00001000
00100000
00010000
00000000
,
10000000
01000000
00100000
00000000
00001000
00010000
00000100
00000000
,
00000010
00000000
00000000
00000001
00000000
00000000
00000010
00000000
00000000
00000100
00000000
00000000
00001000
00000000
00000100
00000000
00000010
00000000
00000100
00000000
00000010
00000000
00000100
00000000
,
00001000
00000001
00000010
00000001
00000100
00000010
00001000
00000100
,
00010000
00001000
00100000
00010000
10000000
01000000
00100000
00000000
,
00010000
10000000
00100000
01000000
00010000
00100000
00001000
00010000
,
00000100
00001000
00000100
00000010
00000001
00001000
00000001
00000000
,
00000010
00000100
00001000
00000100
00010000
00001000
00010000
01000000
,
10000000
00010000
00100000
01000000
10000000
00010000
01000000
00000000
,
00010000
00100000
00001000
00000000
00010000
00001000
00010000
00000000
,
00000100
00001000
00000001
00000000
00000010
00000001
00000010
00000000
,
00000001
00001000
00000010
00000000
00010010
00000000
00011000
00000000
,
00001000
00100000
00010000
00000000
10010000
00000000
11000000
00000000
,
10000000
00010000
01000000
00000000
01001000
00000000
00011000
00000000
,
00010000
00000010
00001000
00000000
00001001
00000000
00000101
00000000
,
00002001
00000000
00000000
00000000
00003010
00010000
00001000
00100000
,
00010000
10000000
00100000
00000000
01000000
00010000
00100000
00000000
,
00001000
00010000
00001000
00000000
00000100
00000010
00001000
00000000
,
00000001
00001000
00000010
00000000
00000100
00000010
00001000
00000000
,
00001001
00000000
00000001
00001000
00000010
00000100
00000010
00001000
,
00000100
00000000
00000010
00000100
00010000
00001000
00010000
01000000
,
00100000
00000000
01000000
10000000
01000000
00100000
00001000
00010000
,
00001000
00010100
00001100
00000110
,
00001001
00000000
00000001
00001000
00000100
00000010
00000100
00001000
,
00000001
00000000
00000010
00000100
00010000
00001000
00100000
00010000
,
01000000
00000000
00010000
10000000
00100000
01000000
00001000
00010000
,
00001000
00010010
00011000
00101000
,
00011000
00000000
00000100
00001000
00000001
00000100
00000010
00001000
,
00000100
00010100
00011000
00101000
,
00011000
00000000
00100000
00010000
10000000
00100000
01000000
00010000
,
00100000
00101000
00011000
00010100
,
00011000
00000000
00010000
00001000
00100000
00000000
00110000
00000000
,
01010000
00000000
01000000
00100000
01000000
00000000
10100000
00000000
,
00010000
00100000
01000000
10000000
00010000
00100000
00001000
00100000
,
00001000
00010000
00001000
00010000
00000100
00001000
00000100
00001000
,
00000100
00000010
00000001
00000000
00001000
00000100
00000010
00000001
00000100
00000010
00001000
00000000
00000010
00000100
00000001
00001000
,
00000100
00010000
00001000
00000000
00100000
00010000
10000000
00100000
10000000
00000000
00100000
00000000
00110000
00000000
01100000
00000000
,
00100000
01000000
00010000
00000000
10000000
00100000
01000000
00010000
10000000
01000000
00100000
00000000
00010000
00100000
00001000
00010000
,
00000100
00000010
00000100
00000000
00001000
00000100
00000010
00000001
00001000
00000000
00000100
00000000
00000110
00000000
00001100
00000000
,
00000010
00000000
00000011
00000000
00000001
00000010
00000100
00000000
00001000
00000000
00001100
00000000
00010000
00001000
00100000
00000000
,
00001000
00000000
00101000
00000000
00100000
00010000
10000000
00000000
01000000
00000000
10000000
00000000
10010000
00000000
00000000
00000000
,
00100000
00000000
00000000
00100000
00010000
00000000
00000000
00010000
00001000
00000000
00000010
00000000
00000001
00000000
00000010
00000000
,
00002002
00000000
00000000
00003003
,
00000001
00000000
00000100
00000000
00000010
00000000
00001000
00000000
00000000
00000000
00000000
00000000
00000010
00000000
00000000
00000100
00000000
00000000
00000000
00000000
00000000
00001000
00000000
00000000
,
00010000
00000000
00001000
00000000
00010000
00000000
01000000
00000000
00000000
00000000
00000000
00000000
00100000
00000000
00000000
01000000
00000000
00000000
00000000
00000000
00000000
10000000
00000000
00000000
,
00010000
00000000
10000000
00000000
00100000
00000000
01000000
00000000
00000000
00000000
00000000
00000000
00100000
00000000
00000000
00010000
00000000
00000000
00000000
00000000
00000000
00010000
00000000
00000000
,
00001000
00000100
00000001
00000010
,
00000001
00000000
00000010
00000000
00000100
00000000
00001000
00000000
00000000
00000000
00000000
00000000
00000100
00000000
00000000
00010000
00000000
00000000
00000000
00000000
00000000
00010000
00000000
00000000
,
00001000
00000000
00010000
00000000
00001000
00000000
00100000
00000000
00000000
00000000
00000000
00000000
00010000
00000000
00000000
00100000
00000000
00000000
00000000
00000000
00000000
00100000
00000000
00000000
,
00010000
00000000
10000000
00000000
01000000
00000000
00100000
00000000
00000000
00000000
00000000
00000000
01000000
00000000
00000000
00010000
00000000
00000000
00000000
00000000
00000000
00010000
00000000
00000000
,
00001000
00000010
00000100
00001000
,
00001001
00000000
00000001
00000010
00000100
00000000
00001000
00000100
,
00000010
00000100
00010000
00001000
00010000
00000000
00001000
00010000
,
00000010
00010000
00001000
01000000
00010000
00000000
10000000
00100000
,
01000000
00010000
10000000
00010000
00100000
00000000
00001000
00010000
,
00000100
00000000
00001000
00000100
00000010
00000000
00000001
00001000
,
00000010
00000000
00001000
00000001
00000010
00000000
00000001
00000010
,
00000001
00000010
00000100
00001000
00000100
00010000
00001000
00100000
,
00010000
01000000
00100000
10000000
00100000
01000000
00010000
00000000
,
01000000
00100000
01000000
00100000
,
00100000
10000000
10000000
01000000
,
00100000
00001000
00010000
00001000
,
00001000
00010000
00010000
00001000
,
00000100
00000010
00001000
00000001
,
00001000
00000100
00000100
00001001
,
00000001
00000000
00000010
00000100
00001000
00000100
00000010
00000000
,
00000001
00000000
00001000
00000010
00010000
00000010
00001000
00000000
,
00000100
00000000
00010000
00001000
00100000
00001000
00010000
00000000
,
00001000
00000000
00100000
00010000
00100000
01000000
00100000
00000000
,
01000000
00000000
10000000
01000000
00100000
00010000
00100000
00001000
,
00010000
00000100
00001000
00000100
00000010
00000001
00001000
00000001
,
00000010
00000000
00000010
00000001
00001000
00000000
00001000
00000010
,
00000100
00000000
00000100
00000010
00010000
00000000
00010000
00001000
,
00100000
00000000
00100000
01000000
10000000
00000000
10000000
00010000
,
00100000
00000000
00100000
01000000
00010000
00000000
00010000
00000100
,
00000010
00000000
00000010
00000001
00001000
00000000
00000001
00000100
,
00001000
00000100
00001000
00010000
00001000
00010000
00100000
00010000
,
00100000
00000000
00100000
10000000
00010000
00000000
00010000
10000000
,
01000000
00000000
01000000
00010000
00001000
00000000
00001000
00000010
,
00000100
00000000
00000100
00001000
00000001
00000000
00000001
00000100
,
00001000
00000000
00001000
00010000
00100000
00000000
00100000
10000000
,
01000000
00000000
01000000
10000000
00010000
00000000
00010000
00100000
,
01000000
00000000
10010000
00000000
00000000
00000000
00010000
01000000
,
00100000
10000000
00000000
00100000
10000000
00000000
01000000
00000000
00100000
00001000
00000000
00100000
00001000
00000000
00010000
00000000
,
00000100
00000010
00000000
00000001
00001000
00000000
00000100
00000000
00000100
00000000
00000000
00000000
00001000
00000000
00000100
00000000
,
00000010
00000001
00000000
00000010
00000001
00000000
00000100
00000000
00000010
00010000
00000000
00000010
00010000
00000000
00001000
00000000
,
00010000
00100000
00000000
01000000
10000000
00000000
01000000
00000000
01000000
00000000
00000000
00000000
00010000
00000000
00100000
00000000
,
01000000
10000000
00000000
10000000
00010000
00000000
00100000
00000000
00001000
00010000
00000000
00010000
00001000
00000000
00000100
00000000
,
00000010
00001000
00000000
00001000
00000001
00000000
00000010
00000000
00000010
00000000
00000000
00000000
00000001
00000000
00000010
00000100
,
00001000
00000000
00000000
00000001
00000000
00000000
00000000
00000000
00000000
00000001
00000000
00000000
00000100
00000000
00000000
00000000
00000000
00000000
00000010
00000000
00000000
00010000
00000000
00000000
00001000
00000000
00000000
00010000
00000000
00000000
00000000
00000000
00000000
00010000
00000000
00000000
00001000
00000000
00000000
00000000
00100000
00000000
00000000
00000000
00001000
00000000
00000000
00000000
,
00010000
00000100
00010000
00001000
00000000
00000000
00022000
00000000
00000000
00000000
00000000
00000000
,
00000000
00000000
00000000
00000000
,
00000000
00000000
00000000
00000000
,
00000000
00000000
00000000
00000000
,
00000000
00000000
00000000
00000000
,
00000000
00000000
00000000
00000000
,
00000000
00000000
00000000
00000000
,
00000000
00000000
00000000
00000000
,
00000000
00000000
00000000
00000000
00000000
00000000
00033000
00000000
00000000
00001000
00010000
00001000
,
00010000
00001000
00100000
00010000
10000000
00100000
01000000
00010000
,
00100000
00000000
00000000
01000000
00000000
00000000
10000000
00000000
00000000
00100000
00000000
00000000
10000000
00000000
00000000
00010000
00000000
00000000
10000000
00000000
01000000
00000000
00100000
00000000
,
00010000
00100000
00001000
00010000
00001000
00100000
00010000
00100000
,
00001000
00000000
00000000
00010000
00000000
00000000
00000100
00000000
00000000
00001000
00000000
00000000
00000001
00000000
00000000
00000010
00000000
00000000
00000001
00000000
00000010
00000000
00000100
00000000
,
00001000
00000100
00001000
00000001
00000100
00000010
00000100
00000001
,
00001000
00000000
00000000
00000001
00000000
00000000
00000100
00000000
00000000
00000010
00000000
00000000
00001000
00000000
00000000
00000100
00000000
00000000
00010000
00000000
00001000
00000000
00010000
00000000
,
00001000
00000000
00000000
00100000
00000000
00000000
00010000
00000000
00000000
00100000
00000000
00000000
00001000
00000000
00000000
00010000
00000000
00000000
00000100
00000000
00001000
00000000
00000100
00000000
,
00010000
00000000
00000000
00001000
00000000
00000000
00100000
00000000
00000000
00010000
00000000
00000000
01000000
00000000
00000000
00100000
00000000
00000000
10000000
00000000
00100000
00000000
01000000
00000000
,
00010000
10000000
00100000
01000000
00010000
00100000
01000000
10000000
,
01000000
00000000
00000000
00100000
00000000
00000000
00010000
00000000
00000000
00100000
00000000
00000000
00001000
00000000
00000000
00010000
00000000
00000000
00001000
00000000
00000100
00000000
00000010
00000000
,
00000100
00000001
00001000
00000010
00000100
00000001
00000010
00000100
,
00001000
00000000
00000000
00000100
00000000
00000000
00000010
00000000
00000000
00000001
00000000
00000000
00000100
00000000
00000000
00001000
00000000
00000000
00010000
00000000
00100000
00000000
01000000
00000000
,
10000000
00000000
00000000
01000000
00000000
00000000
00010000
00000000
00000000
00100000
00000000
00000000
01000000
00000000
00000000
10000000
00000000
00000000
01000000
00000000
00100000
00000000
00010000
00000000
,
00100000
00000000
00000000
00001000
00000000
00000000
00010000
00000000
00000000
00001000
00000000
00000000
00000100
00000000
00000000
00000010
00000000
00000000
00001000
00000000
00000001
00000000
00000100
00000000
,
00000010
00000000
00000000
00000100
00000000
00000000
00001000
00000000
00000000
00010000
00000000
00000000
00100000
00000000
00000000
01000000
00000000
00000000
00010000
00000000
10000000
00000000
01000000
00000000
,
00100000
00000000
00001000
00000000
00010000
00000000
00001000
00000000
00000100
00000000
00000010
00000000
00001000
00000001
00001000
00000000
,
00000010
00001000
00000100
00000010
00000001
00001000
00000001
00000000
,
00000200
00000000
00000000
00000000
00000300
00000000
00011000
00000000
00000000
00000000
00000000
00000000
00010000
10000000
00010000
00000000
,
00100000
01000000
10000000
01000000
00010000
01000000
00100000
00000000
,
02000000
00000000
00000000
00000000
03000000
00000000
00011000
00000000
00000000
00000000
00000000
00000000
00000001
00000010
00000100
00000000
,
00001000
00000000
00000100
00000000
00000010
00000000
00001000
00000000
00010000
00000000
00100000
00000000
10000000
00010000
01000000
00000000
,
00100000
00000000
10000000
00000000
01000000
00000000
00010000
00000000
00001000
00000000
00010000
00000000
00001000
00000100
00000010
00000000
,
00000100
00000001
00001000
00000010
00001000
00010000
01000000
00000000
,
00200000
00000000
00000000
00000000
00300000
00000000
10010000
00000000
00000000
00000000
00000000
00000000
10000000
01000000
00100000
00000000
,
00010000
10000000
00100000
01000000
00010000
00100000
00010000
00000000
,
00200000
00000000
00000000
00000000
00300000
00000000
00011000
00000000
00000000
00000000
00000000
00000000
00000010
00001000
00000100
00000000
,
00000010
00000001
00001000
00000100
00000001
00000100
00001000
00000000
,
00000200
00000000
00000000
00000000
00000300
00000000
00011000
00000000
00000000
00000000
00000000
00000000
00010000
00001000
00100000
00000000
,
00010000
10000000
01000000
00100000
00010000
10000000
00100000
00000000
,
02000000
00000000
00000000
00000000
00000000
00000000
03000000
00000000
00000000
00011000
00000000
00000000
00000000
00000000
00000000
00000000
00000000
00000000
00010000
00000000
00000000
00000000
00000100
00000000
,
00000000
00001000
00000000
00000000
00000000
00000000
00000010
00000000
00010000
00000000
00001000
00000000
,
00000000
01000000
00010000
10000000
00000000
00100000
00000000
01000000
00000000
00001000
00000000
00010000
,
00000000
00000100
00000000
00000022
00000000
00000000
00000000
00000000
00000000
00000000
00000000
00000000
,
00000000
00000000
00000000
00000000
,
00000000
00000000
00000000
00000000
,
00000000
00000000
00000000
00000000
,
00000033
00000000
00000000
00000000
,
00000000
00000000
00000000
00000000
;
