
//----- song ID: lumi -----//
#TITLE:ルミナスデイズ;
#ARTIST:ここなつ;
#TITLETRANSLIT:Luminous days;
#ARTISTTRANSLIT:CocoNatsu;
#BANNER:Luminous days.png;
#BACKGROUND:Luminous days-bg.png;
#CDTITLE:./CDTitles/DDR A.png;
#MUSIC:Luminous days.ogg;
#SAMPLESTART:71.176;
#SAMPLELENGTH:15;
#DISPLAYBPM:145;
#BPMS:0=144.8,4=145,288=136,292=115,296=96;
#NOTES:
     dance-single:
     :
     Beginner:
     2:
     :
0000
0000
0000
0000
,
0000
0000
0000
0000
,
0000
0000
0000
0000
,
0000
0000
0000
0000
,
0000
0000
0000
0000
,
1000
0000
0000
0000
,
0001
0000
0000
0000
,
1000
0000
0000
0000
,
0001
0000
0000
0000
,
0010
0000
0000
0000
,
0010
0000
0000
0000
,
0010
0000
0000
0000
,
0010
0000
0000
0000
,
1000
0000
1000
0000
,
0010
0000
0010
0000
,
0001
0000
0001
0000
,
0100
0000
0100
0000
,
1000
0000
0000
0000
,
0001
0000
0000
0000
,
1000
0000
1000
0000
,
0100
0000
0100
0000
,
0001
0000
0001
0000
,
0010
0000
0010
0000
,
1000
0000
0000
0000
,
0001
0000
0000
0000
,
1001
0000
0000
0000
,
0000
0000
0000
0000
,
1000
0000
0001
0000
,
1000
0000
0000
0000
,
0001
0000
0001
0000
,
1000
0000
1000
0000
,
0001
0000
0001
0000
,
1000
1000
1000
0000
,
0001
0000
0001
0000
,
1000
0000
1000
0000
,
0001
0000
0001
0000
,
1000
0000
0000
0000
,
0010
0000
0010
0000
,
0100
0000
0100
0000
,
0010
0000
0010
0000
,
0100
0100
0100
0000
,
0010
0000
0010
0000
,
0100
0000
0000
0000
,
0001
0001
0001
0000
,
1000
1000
1000
0000
,
0001
0000
0010
0000
,
0001
0000
0000
0000
,
1000
1000
1000
0000
,
0001
0001
0001
0000
,
1000
0000
0010
0000
,
1000
0000
0000
0000
,
0001
0001
0001
0000
,
1000
1000
1000
0000
,
0001
0000
0100
0000
,
0001
0000
0000
0000
,
1000
1000
1000
0000
,
0001
0001
0001
0000
,
1000
0000
0100
0000
,
1000
0000
0000
0000
,
0010
0010
0010
0000
,
0100
0100
0100
0000
,
0001
0000
1000
0000
,
0001
0000
0000
0000
,
0010
0010
0010
0000
,
0100
0100
0100
0000
,
1000
0000
0001
0000
,
1000
0000
0000
0000
,
0001
0000
0000
0000
,
0010
0000
0000
0000
,
1000
0000
0000
0000
,
0100
0000
0000
0000
,
0001
0000
0000
0000
,
0100
0000
0000
0000
,
1000
0000
0000
0000
,
0001
0000
0000
0000
,
1000
0000
0000
0000
,
0000
0000
0000
0000
;
#NOTES:
     dance-single:
     :
     Easy:
     5:
     :
0000
0000
0000
0000
,
0000
0000
0000
0000
,
0000
0000
0000
0000
,
0000
0000
0000
0000
,
0000
0000
0000
0000
,
0001
0000
0010
0000
,
2000
3000
0002
0003
,
1000
0000
0010
0000
,
0001
0000
0100
0000
,
0001
0100
0001
0000
,
1000
0100
1000
0000
,
0001
0010
0001
0000
,
1000
0000
0001
0000
,
1000
1000
0010
0000
,
0001
0001
0010
0000
,
2000
0000
3100
0000
,
0002
0000
0103
0000
,
1000
0001
1000
0000
,
0100
0010
0100
0000
,
0001
0001
0010
0000
,
1000
1000
0010
0000
,
0002
0000
0103
0000
,
2000
0000
3100
0000
,
0001
1000
0001
0000
,
0100
0010
0100
0000
,
0002
0000
0000
0003
,
2000
0000
0000
3000
,
0001
0001
1000
1000
,
1001
0000
0000
0000
,
0001
0000
0010
0000
,
1000
0000
0010
0000
,
0001
0000
0010
0000
,
1000
1000
1000
0000
,
0001
0000
0100
0000
,
1000
0000
0100
0000
,
0001
0000
0100
0000
,
1000
0000
0001
0000
,
2000
0000
3010
0000
,
0002
0000
0013
0000
,
2000
0000
3010
0000
,
0001
1000
0001
0000
,
2000
0000
3100
0000
,
0001
0010
0100
0100
,
1000
0100
1000
0001
,
0100
0001
0000
0000
,
0010
0001
1000
0000
,
0010
1000
0001
0000
,
0001
0100
0001
1000
,
0100
1000
0000
0000
,
0010
1000
0001
0000
,
2000
0000
3001
0000
,
1000
0010
1000
0001
,
0010
0001
0000
0000
,
0100
1000
0010
0000
,
0100
0001
0010
0000
,
0001
0010
0001
1000
,
0010
1000
0000
0000
,
0001
1000
0001
0000
,
0020
0000
0130
0000
,
0010
0010
0001
0010
,
0010
1000
0000
0000
,
0001
0100
1000
0000
,
1000
0100
0001
0000
,
0010
0010
1000
0010
,
0010
0001
0000
0000
,
1000
0100
0001
0000
,
0001
0100
1000
0000
,
0002
0000
0003
0000
,
0020
0000
0030
0000
,
2000
0000
3000
0000
,
0200
0000
0300
0000
,
0001
0001
0000
0000
,
1000
0000
0010
0000
,
0002
0000
0003
0000
,
2000
0000
3000
0000
,
0002
0000
0000
0000
,
0000
0000
0000
0000
,
0003
0000
0000
0000
,
0000
0000
0000
0000
;
#NOTES:
     dance-single:
     :
     Medium:
     8:
     :
0000
0000
0000
0000
,
0000
0000
0000
0000
,
0000
0000
0000
0000
,
0000
0000
0000
0000
,
0000
0000
0000
0000
,
0001
0000
1000
0000
,
0001
0010
1000
0100
,
0002
0000
0103
0000
,
2000
0000
3100
0000
,
0010
0000
0010
0000
1000
0001
0100
0000
,
0010
0000
0010
0000
1000
0010
0100
0000
,
0001
0000
0001
0000
1000
0001
0010
0000
,
0001
0100
0001
0000
1000
0100
1000
0000
,
0001
0000
0010
0000
1000
0001
0100
0000
,
0010
0000
1000
0000
0001
1000
0100
0000
,
0002
0010
2003
0010
,
3002
0100
2003
0100
,
3001
0000
0100
0000
0010
1000
0010
0000
,
1000
0010
0001
0100
,
1000
0000
0010
0000
0001
1000
0100
0000
,
0010
0000
0001
0000
1000
0001
0100
0000
,
2000
0010
3002
0010
,
2003
0100
3002
0100
,
1003
0000
0100
0000
0010
0001
0010
0000
,
0001
0010
1000
0100
,
1000
0000
0001
0010
0001
0000
1000
0000
,
0001
0000
1000
0010
1000
0000
0001
0000
,
0010
0001
0100
0000
0010
1000
0100
0000
,
0220
0000
0000
0000
0330
0000
0000
0001
,
0002
0000
0000
0013
0020
0000
0000
0130
,
0200
0000
0000
1300
2000
0000
0000
3001
,
0002
0000
0000
0103
0200
0000
0000
0310
,
0010
0000
1000
0000
0001
0000
0000
0010
,
0020
0000
0000
0031
0002
0000
0000
0103
,
0200
0000
0000
0310
0020
0000
0000
1030
,
1000
0000
0001
1000
0100
0000
0010
0000
,
0100
0000
0000
0100
1000
0000
0000
0000
,
0020
0000
0030
1000
0100
0000
0000
0100
,
0020
0000
0030
0001
0100
0000
0000
0100
,
0020
0000
0030
1000
0001
0000
0000
0001
,
0010
0000
0001
0000
0100
0000
0000
0001
,
2000
0000
3000
0001
0010
0000
0100
0000
,
0010
1000
0001
0110
,
1000
0100
0001
0000
0100
0000
1000
0100
,
0001
0100
1000
1000
,
0010
0100
0010
0100
0010
0000
0001
0000
,
0010
0001
0100
0000
0010
0000
1000
0000
,
0001
0100
1000
0000
0100
0000
0001
0100
,
1000
0100
0001
0001
,
0010
0100
0010
0100
0010
0000
1001
0000
,
0110
0000
0001
1000
0100
0000
0010
0000
,
1000
0010
0001
0000
0010
0000
1000
0010
,
0001
0010
1000
1000
,
0100
0010
0100
0010
0100
0000
0001
0000
,
0100
0001
0010
0000
0100
0000
1000
0000
,
0001
0010
1000
0000
0010
0000
0001
0010
,
1000
0010
0001
0001
,
0100
0010
0100
0010
0100
0000
1001
0000
,
0110
0000
1000
0001
,
1000
0100
0001
0000
0100
0000
1000
0100
,
0001
0100
1000
1000
,
0001
0010
1000
0100
,
0001
0101
1000
1100
,
0001
0100
1000
0000
0100
0000
0001
0100
,
1000
0100
0001
0001
,
1000
0010
0001
0100
,
1000
1100
0001
0101
,
1000
0010
1000
0020
0000
0000
0030
0000
,
0001
0010
0001
0020
0000
0000
0030
0000
,
0100
0000
0000
0010
0100
0000
0000
0000
,
0010
0001
0100
1000
,
0001
1000
0001
0100
0000
0000
0010
0000
,
1000
0100
0010
0001
,
2000
0000
3010
0000
,
0002
0000
0013
0000
,
0200
0000
0000
0000
,
0000
0000
0000
0000
,
0300
0000
0000
0000
,
0000
0000
0000
0000
;
#NOTES:
     dance-single:
     :
     Hard:
     12:
     :
0000
0000
0000
0000
,
0000
0000
0000
0000
,
0000
0000
0000
0000
,
0000
0000
0000
0000
,
0000
0000
0000
0000
,
0010
1000
0001
0100
0000
0000
0010
0000
,
1000
0010
0001
0100
,
2000
0000
3100
0000
,
0002
0000
0103
0000
,
0010
1000
0010
1000
0001
1000
0001
1000
,
0001
0010
0001
0010
0100
0010
0100
0010
,
0100
1000
0100
1000
0001
0100
0001
0100
,
0010
0100
0010
0100
0010
1000
0001
0000
,
1000
0010
0001
0010
0001
0010
1000
0000
,
0001
0010
1000
0010
1000
0010
0001
0000
,
1001
1000
0100
0000
1001
0001
0100
0000
,
1001
1000
0010
0000
1001
0001
0010
0000
,
0001
0100
1000
0001
1000
0100
0001
0000
,
0011
1010
1100
0101
,
1000
0100
0001
0100
0001
0100
1000
0000
,
0001
0100
1000
0100
1000
0100
0001
0000
,
1001
1000
0010
0000
1001
0001
0010
0000
,
1001
1000
0100
0000
1001
0001
0100
0000
,
0001
0010
1000
0001
1000
0010
0001
0000
,
0101
0000
1100
0000
1010
0000
0011
1000
,
0001
0000
0001
0100
1000
0000
1000
0100
,
0001
0000
0000
0000
0001
0000
0100
0000
1000
0000
0000
0000
1000
0000
0100
0010
,
0100
0001
1000
0100
0010
0001
0100
0010
,
2020
0000
0000
0000
3030
0000
0001
1000
,
1100
0000
0010
0001
0011
0000
1000
0010
,
1010
0000
0001
0100
0101
0000
0010
0100
,
0110
0000
0001
1000
1001
0000
0010
0001
,
0011
0000
0100
0000
1000
0000
0001
0100
,
0101
0000
1000
0100
1100
0000
0001
0010
,
0011
0000
1000
0010
1010
0000
0100
0010
,
0110
0000
0010
1000
0001
0000
0010
0000
,
1000
0000
0010
0100
0001
0000
1000
0000
,
0120
0000
0031
0100
0120
0000
1030
0100
,
0012
0000
0103
0010
2010
0000
3100
0010
,
1002
0000
0103
0010
2001
0000
3100
0010
,
0001
0000
0010
0000
1000
0000
0100
0010
,
0012
0000
0103
0010
2010
0000
3100
0000
,
0010
0100
0010
0110
,
0001
0100
1000
0010
0001
1000
0001
0010
,
1000
0100
0001
0000
0100
1000
0010
0000
,
0100
0010
0001
0010
0100
0010
1000
0010
,
1000
0001
0100
0000
0010
0000
0010
0000
,
1000
0100
0001
0010
1000
0001
1000
0010
,
0001
0100
1000
0000
0100
0001
0010
0000
,
0100
0010
1000
0010
0100
0000
1001
0000
,
0110
0000
1000
0001
0100
0000
0010
0000
,
0001
0010
1000
0100
0001
1000
0001
0100
,
1000
0010
0001
0000
0010
1000
0100
0000
,
0010
0100
0001
0100
0010
0100
1000
0100
,
1000
0001
0010
0000
0100
0000
0100
0000
,
1000
0010
0001
0100
1000
0001
1000
0100
,
0001
0010
1000
0000
0010
0001
0100
0000
,
0010
0100
1000
0100
0010
0000
1001
0000
,
0110
0000
1000
0001
,
1000
0100
0001
0100
1000
0001
1000
0010
,
0001
0010
1000
0000
0001
1000
0100
0000
,
0020
0000
0000
0000
0030
0000
0100
0010
0100
0000
0000
0000
0000
0000
0000
0000
,
0011
1100
0101
1010
,
0001
0100
1000
0100
0001
1000
0001
0010
,
1000
0010
0001
0000
1000
0001
0100
0000
,
0020
0000
0000
0000
0030
0000
0100
0010
0100
0000
0000
0000
0000
0000
0000
0000
,
1010
0101
1100
0011
,
1000
0010
0001
0200
0000
0000
0300
0000
,
1000
0100
0001
0020
0000
0000
0030
0000
,
0100
0000
0000
0000
0000
0000
1000
0001
0100
0000
0000
0000
0000
0000
0000
0000
,
0010
0000
0000
0000
1000
0000
0000
0000
0100
0000
0000
0000
0001
0000
1000
0001
,
1000
0100
0010
0001
0000
0000
0100
0000
,
0010
0001
0010
1000
,
0002
0000
0103
0000
,
2000
0000
3010
0000
,
0200
0000
0000
0000
,
0000
0000
0000
0000
,
0300
0000
0000
0000
,
0000
0000
0000
0000
;
#NOTES:
     dance-double:
     :
     Easy:
     5:
     :
00000000
00000000
00000000
00000000
,
00000000
00000000
00000000
00000000
,
00000000
00000000
00000000
00000000
,
00000000
00000000
00000000
00000000
,
00000000
00000000
00000000
00000000
,
00002000
00000000
00003000
00000000
,
00020000
00000000
00030000
00000000
,
00001000
00000000
00010000
00000000
,
00100000
00000000
10000000
00000000
,
00010000
10000000
01000000
00000000
,
10000000
00010000
01000000
00000000
,
00010000
10000000
01000000
00000000
,
00010000
00000000
00001000
00000000
,
00000010
00000001
00000010
00000000
,
00000100
00001000
00000100
00000000
,
00000001
00000000
00000100
00000000
,
00001000
00000000
00010000
00000000
,
00100000
01000000
00100000
00000000
,
10000000
00010000
01000000
00000000
,
00100000
10000000
01000000
00000000
,
00010000
00001000
00010000
00000000
,
00001000
00000000
00000010
00000000
,
00000001
00000000
00000100
00000000
,
00000010
00000100
00000010
00000000
,
00000100
00001000
00010000
00000000
,
00200000
00000000
00000000
00300000
,
00020000
00000000
00000000
00030000
,
01000000
00100000
10000000
01000000
,
10000000
00000000
00000000
00000000
,
10000000
00000000
01000000
00000000
,
00010000
00000000
00001000
00000000
,
00000100
00000000
00000001
00000000
,
00001000
00000001
00001000
00000000
,
00000001
00000000
00000010
00000000
,
00001000
00000000
00010000
00000000
,
00100000
00000000
10000000
00000000
,
00010000
00000000
01000000
00000000
,
00020000
00000000
01030000
00000000
,
20000000
00000000
31000000
00000000
,
00020000
00000000
00031000
00000000
,
00010000
00001000
00010000
00000000
,
00002000
00000000
00003010
00000000
,
00000001
00000010
00001000
00000100
,
00000001
00000001
00000100
00001000
,
00001000
00000100
00000000
00000000
,
00000010
00000001
00000100
00000000
,
00001000
00010000
00001000
00000000
,
00100000
00100000
00010000
01000000
,
01000000
00010000
00000000
00000000
,
10000000
01000000
00100000
00000000
,
00020000
00000000
10030000
00000000
,
10000000
10000000
01000000
00010000
,
00010000
00001000
00000000
00000000
,
00010000
00001000
00000010
00000000
,
00000001
00000010
00000100
00000000
,
00000010
00000010
00000001
00000010
,
00000010
00001000
00000000
00000000
,
00000001
00000100
00000010
00000000
,
00002000
00000000
00003001
00000000
,
00000001
00000001
00000100
00001000
,
00001000
00000100
00000000
00000000
,
00010000
00001000
00010000
00000000
,
00001000
00010000
00100000
00000000
,
10000000
10000000
01000000
00010000
,
00010000
01000000
00000000
00000000
,
10000000
00100000
00010000
00000000
,
10000000
01000000
00010000
00000000
,
00002000
00000000
00003000
00000000
,
00020000
00000000
00030000
00000000
,
00000020
00000000
00000030
00000000
,
00002000
00000000
00003000
00000000
,
00000002
00000000
00000003
00000000
,
00000020
00000000
00000030
00000000
,
00000200
00000000
00000300
00000000
,
00020000
00000000
00030000
00000000
,
00002000
00000000
00000000
00000000
,
00000000
00000000
00000000
00000000
,
00003000
00000000
00000000
00000000
,
00000000
00000000
00000000
00000000
;
#NOTES:
     dance-double:
     :
     Medium:
     8:
     :
00000000
00000000
00000000
00000000
,
00000000
00000000
00000000
00000000
,
00000000
00000000
00000000
00000000
,
00000000
00000000
00000000
00000000
,
00000000
00000000
00000000
00000000
,
00010000
00000000
10000000
00000000
,
00100000
10000000
01000000
00010000
,
00002000
00000000
01003000
00000000
,
00020000
00000000
00030100
00000000
,
00001000
00000000
00001000
00000000
00000100
00000010
00000001
00000000
,
00000100
00000000
00000100
00000000
00000010
00001000
00000100
00000000
,
00010000
00000000
00010000
00000000
00001000
00100000
00010000
00000000
,
01000000
00100000
10000000
00000000
01000000
00100000
00010000
00000000
,
10000000
00000000
00010000
00000000
00100000
00010000
01000000
00000000
,
00001000
00000000
00010000
00000000
00000010
00001000
00000100
00000000
,
00020000
00000010
00001000
00000010
,
00032000
00100000
00010000
00100000
,
00013000
00000000
00100000
00000000
01000000
00100000
01000000
00000000
,
00100000
10000000
01000000
00010000
,
00001000
00000000
00001000
00000000
00000010
00001000
00000100
00000000
,
00010000
00000000
00001000
00000000
00100000
00010000
01000000
00000000
,
00002000
00100000
00010000
00100000
,
00023000
00000010
00001000
00000010
,
00031000
00000000
00000010
00000000
00000100
00000010
00000100
00000000
,
00000010
00000001
00000100
00001000
,
00010000
00000000
00001000
00010000
00001000
00000000
00100000
00000000
,
00001000
00000000
00010000
00001000
00010000
00000000
00100000
00000000
,
01000000
00100000
01000000
00000000
00100000
10000000
00010000
00000000
,
02200000
00000000
00000000
00000000
03300000
00000000
00000000
10000000
,
20000000
00000000
00000000
31000000
02000000
00000000
00000000
03010000
,
00020000
00000000
00000000
00031000
00002000
00000000
00000000
00003010
,
00000020
00000000
00000000
00000031
00000002
00000000
00000000
00000103
,
00000100
00000000
00000010
00000000
00000100
00000000
00000000
00000001
,
00000002
00000000
00000000
00000103
00000200
00000000
00000000
00001300
,
00002000
00000000
00000000
00013000
00020000
00000000
00000000
00130000
,
00100000
00000000
01000000
00100000
10000000
00000000
00100000
00000000
,
01000000
00000000
00000000
01000000
00010000
00000000
00000000
00000000
,
10000000
00000000
00000000
10000000
01000000
00000000
00000000
01000000
,
00010000
00000000
00000000
00010000
00001000
00000000
00000000
00001000
,
00000100
00000000
00000000
00000100
00000001
00000000
00000000
00000001
,
00000010
00000000
00000100
00000000
00000010
00000000
00000000
00000001
,
00000100
00000000
00000000
00000100
00001000
00000000
00010000
00000000
,
00001000
00100000
00010000
01000000
,
00100000
10000000
01000000
00000000
00100000
00000000
00010000
01000000
,
00100000
10000000
01000000
01000000
,
00010000
00001000
00010000
00001000
00010000
00000000
00000010
00000000
,
00000100
00000010
00000100
00000000
00000010
00000000
00000010
00000000
,
00000100
00000001
00000010
00000000
00000100
00000000
00001000
00000010
,
00000100
00000001
00001000
00001000
,
00000001
00000010
00000001
00000010
00000001
00000000
00000100
00000000
,
00001000
00000000
00010000
00001000
00010000
00000000
00001000
00000000
,
00100000
00010000
01000000
00000000
00100000
00000000
10000000
01000000
,
00100000
00010000
01000000
01000000
,
00001000
00010000
00001000
00010000
00001000
00000000
00000010
00000000
,
00000100
00000010
00000100
00000000
00000010
00000000
00000010
00000000
,
00000100
00000001
00000010
00000000
00000100
00000000
00001000
00000010
,
00000100
00000001
00001000
00001000
,
00000001
00000010
00000001
00000010
00000001
00000000
00000100
00000000
,
00001000
00000000
00010000
00001000
,
00100000
00010000
00100000
00000000
00001000
00000000
00100000
00010000
,
00100000
00001000
00010000
00010000
,
00100000
10000000
01000000
00100000
,
00002000
00010000
00100000
00010000
,
01003000
00010000
01000000
00000000
00001000
00000000
01000000
00010000
,
01000000
00001000
00010000
00010000
,
00001000
00000100
00000001
00000010
,
00000002
00000013
00002000
00003010
,
00000100
00000010
00000100
00000020
00000000
00000000
00000030
00000000
,
00010000
00001000
00010000
00002000
00000000
00000000
00003000
00000000
,
00100000
00000000
00000000
01000000
00100000
00000000
00000000
00000000
,
00010000
00100000
10000000
01000000
,
00010000
01000000
00010000
01000000
00000000
00000000
00100000
00000000
,
10000000
01000000
00010000
00001000
,
00020000
00000000
00030010
00000000
,
00002000
00000000
00103000
00000000
,
00020000
00000000
00000000
00000000
,
00000000
00000000
00000000
00000000
,
00030000
00000000
00000000
00000000
,
00000000
00000000
00000000
00000000
;
#NOTES:
     dance-double:
     :
     Hard:
     11:
     :
00000000
00000000
00000000
00000000
,
00000000
00000000
00000000
00000000
,
00000000
00000000
00000000
00000000
,
00000000
00000000
00000000
00000000
,
00000000
00000000
00000000
00000000
,
00000001
00000010
00000100
00001000
00000000
00000000
00000001
00000000
,
00000100
00001000
00010000
00001000
,
00021000
00000000
01000000
00000000
,
00032000
00000000
00000100
00000000
,
00013000
00001000
00010000
00001000
00010000
00100000
00010000
00100000
,
10000000
00100000
10000000
00100000
10000000
01000000
10000000
01000000
,
00010000
01000000
00010000
01000000
00010000
00001000
00010000
00001000
,
00000010
00001000
00000010
00001000
00000010
00000001
00001000
00000000
,
00000001
00000100
00000010
00000100
00000010
00000100
00000001
00000000
,
00001000
00000100
00010000
00001000
00010000
00001000
00100000
00000000
,
00021000
00230000
00302000
00203000
,
00320000
00230000
00302000
00103000
,
00010000
00100000
01000000
00100000
01000000
00100000
10000000
00000000
,
11000000
01010000
00011000
00110000
,
10000000
01000000
00100000
01000000
00100000
01000000
10000000
00000000
,
00010000
01000000
00001000
00010000
00001000
00010000
00000010
00000000
,
00012000
00003020
00020030
00030020
,
00002030
00003020
00020030
00030010
,
00001000
00000010
00000100
00000010
00000100
00000010
00000001
00000000
,
00000101
00001100
00011000
01010000
,
00100000
00000000
10000000
01000000
00100000
00000000
00010000
00000000
,
01000000
00000000
00000000
00000000
00100000
00000000
10000000
00000000
01000000
00000000
00000000
00000000
00010000
00000000
00001000
00010000
,
00001000
00010000
00000100
00001000
00000001
00000010
00000100
00001000
,
00000002
00000000
00000000
00000000
00000003
00000000
00000100
00000001
,
00000101
00000000
00000010
00001000
00001010
00000000
00010000
00001000
,
00011000
00000000
00100000
00010000
00110000
00000000
10000000
00100000
,
10100000
00000000
00010000
01000000
01010000
00000000
10000000
01000000
,
11000000
00000000
00100000
00000000
00010000
00000000
00001000
00010000
,
00011000
00000000
00000010
00001000
00001010
00000000
00010000
00001000
,
00011000
00000000
00100000
00010000
00110000
00000000
01000000
10000000
,
11000000
00000000
00010000
01000000
10000000
00000000
01000000
00000000
,
00010000
00000000
10000000
00010000
10000000
00000000
00000000
00000000
,
10100000
00000000
10000000
01000000
11000000
00000000
01000000
00010000
,
01010000
00000000
00010000
00001000
00011000
00000000
00001000
00000010
,
00001010
00000000
00000010
00000001
00000011
00000000
00000001
00000100
,
00000101
00000000
00000010
00000000
00000100
00000000
00001000
00010000
,
00011000
00000000
00010000
00100000
00110000
00000000
10000000
00000000
,
00100000
00010000
01000000
10000000
,
00100000
10000000
01000000
00010000
01000000
10000000
00100000
00010000
,
00001000
00000100
00000001
00000000
00000010
00000001
00000100
00000000
,
00000010
00001000
00000010
00001000
00010000
01000000
00010000
01000000
,
00100000
10000000
01000000
00000000
10000000
00000000
10000000
00000000
,
01000000
10000000
00100000
00010000
00100000
10000000
01000000
00010000
,
00001000
00000010
00000001
00000000
00000100
00000001
00000010
00000000
,
00000100
00001000
00000100
00001000
00010000
00000000
00001000
00000000
,
00000100
00000000
00000010
00000001
00000100
00000000
00000001
00000000
,
00000010
00000001
00000100
00001000
00000100
00000001
00000010
00001000
,
00010000
01000000
10000000
00000000
00100000
10000000
01000000
00000000
,
00100000
00010000
00100000
00010000
00001000
00000100
00001000
00000100
,
00000010
00000001
00000100
00000000
00000001
00000000
00000001
00000000
,
00000100
00000001
00000010
00001000
00000010
00000001
00000100
00001000
,
00010000
00100000
10000000
00000000
01000000
10000000
00100000
00000000
,
01000000
00010000
01000000
00010000
00001000
00000000
00010000
00000000
,
01000000
00000000
00001000
00011000
,
00010000
00100000
01000000
00100000
00010000
00001000
00010000
01000000
,
00100000
01000000
00010000
00000000
00001000
00010000
00001000
00000000
,
00000020
00000000
00000000
00000000
00000030
00000000
00000100
00000010
00000100
00000000
00000000
00000000
00000000
00000000
00000000
00000000
,
00000011
00000101
00001100
00011000
,
00001000
00000010
00000100
00000010
00001000
00010000
00001000
00000100
,
00000010
00000100
00001000
00000000
00010000
00001000
00010000
00000000
,
00200000
00000000
00000000
00000000
00300000
00000000
01000000
00100000
01000000
00000000
00000000
00000000
00000000
00000000
00000000
00000000
,
10100000
11000000
01010000
00011000
,
00010000
00001000
00000010
00000002
00000000
00000000
00000003
00000000
,
00001000
00000010
00000100
00000002
00000000
00000000
00000003
00000000
,
00001000
00000000
00000000
00000000
00000000
00000000
00000100
00001000
00000100
00000000
00000000
00000000
00000000
00000000
00000000
00000000
,
00001000
00000000
00000000
00000000
00010000
00000000
00000000
00000000
00100000
00000000
00000000
00000000
01000000
00000000
10000000
00010000
,
10000000
00100000
10000000
01000000
00000000
00000000
00100000
00000000
,
00010000
01000000
00100000
00010000
,
00012000
00000000
00000100
00000000
,
00023000
00000000
01000000
00000000
,
00032000
00000000
00000000
00000000
,
00000000
00000000
00000000
00000000
,
00003000
00000000
00000000
00000000
,
00000000
00000000
00000000
00000000
;
