
//----- song ID: suns2 -----//
#TITLE:Love♡Shine わんだふるmix;
#ARTIST:ARM (IOSYS) feat. 一ノ瀬月琉 (monotone);
#TITLETRANSLIT:Love♡Shine wonderful mix;
#ARTISTTRANSLIT:ARM (IOSYS) feat. Ruru Ichinose (monotone);
#BANNER:Love Shine wonderful mix.png;
#BACKGROUND:Love Shine wonderful mix-bg.png;
#CDTITLE:./CDTitles/SOUND VOLTEX BOOTH.png;
#MUSIC:Love Shine wonderful mix.ogg;
#SAMPLESTART:55.565;
#SAMPLELENGTH:15;
#BPMS:0=177;
#NOTES:
     dance-single:
     :
     Beginner:
     3:
     :
0000
0000
0000
0000
,
0000
0000
0000
0000
,
0000
0000
0000
0000
,
0000
0000
0000
0000
,
0000
0000
0000
0000
,
0001
0000
0001
0000
,
1000
0000
1000
0000
,
0001
0000
0000
0000
,
0000
0000
0000
0000
,
0010
0000
0010
0000
,
1000
0000
1000
0000
,
0001
0000
0001
0000
,
0100
0000
0100
0000
,
0010
0000
0000
0000
,
0100
0000
0000
0000
,
0001
0000
1000
0000
,
0001
0001
0001
0000
,
1000
0000
0000
0000
,
0000
0000
0000
0000
,
0010
0000
0001
0000
,
1000
0000
0010
0000
,
1000
0000
1000
0000
,
0001
0000
0001
0000
,
1000
0000
0001
0000
,
1001
0000
0000
0000
,
1000
0000
0010
0000
,
0100
0000
0001
0000
,
1000
0000
0100
0000
,
0010
0000
0001
0000
,
1000
0000
1000
0000
,
0001
0000
0001
0000
,
1000
0000
0001
0000
,
1001
0000
0000
0000
,
0010
0000
0000
0000
,
0010
0000
0000
0000
,
0100
0000
0000
0000
,
0100
0000
0000
0000
,
1001
0000
0000
0000
,
1001
0000
0000
0000
,
1001
0000
0000
0000
,
0000
0000
0000
0000
,
0001
0000
0001
0000
,
0001
0001
0001
0000
,
1000
0000
1000
0000
,
1000
1000
1000
0000
,
0010
0000
0010
0000
,
0010
0010
0010
0000
,
1001
0000
0000
0000
,
0000
0000
0000
0000
,
0001
0000
0001
0000
,
0010
0000
0010
0000
,
0100
0000
0100
0000
,
1000
0000
1000
0000
,
0001
0001
0001
0000
,
1000
1000
1000
0000
,
0001
0000
1000
0000
,
0001
0000
1000
0000
,
0010
0000
0000
0000
,
0100
0000
0100
0000
,
0001
0000
0001
0000
,
1000
0000
1000
0000
,
0001
0000
0000
0000
,
1000
0000
0000
0000
,
0010
0000
0010
0000
,
0000
0000
0000
0000
,
0001
0000
0000
0000
,
1000
0000
0000
0000
,
0100
0000
0000
0000
,
0010
0000
0000
0000
,
0001
0000
0010
0000
,
1000
0000
0010
0000
,
0001
0000
1000
0000
,
0010
0010
0010
0000
,
1001
0000
0000
0000
,
0000
0000
0000
0000
,
0001
0000
1000
0000
,
0001
0001
0001
0000
,
0010
0000
0100
0000
,
0010
0010
0010
0010
,
0000
0000
0000
0000
;
#NOTES:
     dance-single:
     :
     Easy:
     5:
     :
0000
0000
0000
0000
,
0000
0000
0000
0000
,
0000
0000
0000
0000
,
0000
0000
0000
0000
,
0000
0000
0000
0000
,
0001
0010
0001
0000
,
1000
0010
1000
0000
,
2002
0000
0000
3003
,
0010
0010
0010
0010
,
1000
0001
0100
0000
,
0001
1000
0100
0000
,
0010
0001
0100
0000
,
0010
0010
1000
1000
,
0002
0000
0000
0003
,
1000
0000
1001
0000
,
0010
0000
1001
0000
,
0001
0010
0100
0000
,
2002
0000
0000
3003
,
0000
0000
0000
0000
,
0100
0001
0010
0000
,
0100
1000
0010
0000
,
1000
0010
0100
0000
,
0001
0010
0100
0000
,
1000
0000
0001
0000
,
0220
0000
0000
0330
,
1000
0010
0100
0000
,
0001
0100
1000
0000
,
0001
0010
0100
0000
,
1000
0010
0001
0000
,
0002
0000
0013
0000
,
2000
0000
3010
0000
,
0001
0001
0001
0001
,
2000
0000
0000
3000
,
0010
0000
0010
0000
,
0001
0000
0001
0000
,
0100
0000
0100
0000
,
1000
0000
1000
0000
,
2002
0000
0000
3003
,
0010
0000
0100
0000
,
1000
1000
0001
0001
,
1000
0000
1001
0000
,
0010
0000
0001
0000
,
0100
0100
0100
0000
,
0010
0000
1000
0000
,
0100
0100
0100
0000
,
0001
0000
1000
0000
,
0010
0010
0010
0000
,
2002
0000
0000
3003
,
0010
0010
0010
0000
,
0001
0100
0001
0000
,
1000
0100
1000
0000
,
0001
0010
0001
0000
,
1000
1000
0001
0001
,
0010
0100
0010
0000
,
1000
0001
1000
0000
,
0001
0000
1000
0000
,
0010
0010
0010
0000
,
0100
0001
0010
0000
,
0100
1000
0010
0000
,
1000
1000
0001
0001
,
0100
0010
0100
0000
,
0001
0001
1000
0000
,
1000
1000
0001
0000
,
0010
0000
0100
0000
,
0000
0000
0000
0000
,
2000
0000
3010
0000
,
0002
0000
0013
0000
,
2000
0000
3100
0000
,
0002
0000
0103
0000
,
0002
0000
1003
0000
,
0100
0100
1000
0000
,
0001
0000
1000
0000
,
0010
1000
0001
0000
,
2002
0000
0000
0000
,
0000
0000
0000
3003
,
0010
0000
0010
0000
,
1000
1000
0001
0001
,
1000
0000
0001
0000
,
0100
0100
0100
0100
,
0000
0000
0000
0000
;
#NOTES:
     dance-single:
     :
     Medium:
     8:
     :
0000
0000
0000
0000
,
0000
0000
0000
0000
,
0000
0000
0000
0000
,
0000
0000
0000
0000
,
0000
0000
0000
0100
,
1001
1000
1000
1000
,
0001
0001
0001
0001
,
0020
0000
0000
0000
,
0100
0100
0130
1001
,
0100
0001
0010
1000
,
0100
1001
0010
1001
,
0100
1001
0010
1001
,
0100
0010
0100
0000
0001
0000
0001
0000
,
2000
0010
0010
3010
,
0001
0010
1000
0100
,
0001
0100
0001
0000
1000
0000
0100
0000
,
0010
0001
1000
0000
1100
0000
0000
0000
,
0011
0000
0000
0000
0200
0000
0000
0010
,
0000
0010
0000
0010
0310
0000
0001
0000
,
0010
0000
1000
0000
0100
1000
0001
0000
,
0010
0001
0100
1000
,
0001
0000
0100
0000
0010
1000
0010
0000
,
1000
0000
0100
0000
0010
0001
0010
0000
,
0001
0010
1000
0010
,
0220
0000
0000
0330
,
0001
0000
0100
0000
0010
1000
0001
0000
,
1000
0010
0001
0010
,
1000
0000
0100
0000
0010
0001
0100
0000
,
0001
0100
1000
0010
,
2000
0100
3002
0100
,
2003
0010
3002
0013
,
0001
0100
1000
0010
,
0220
0000
0000
0330
,
0001
0000
0001
0000
,
1000
0000
1000
0000
,
0010
0000
0010
0000
,
0100
0000
0100
0000
,
2002
0000
0000
3003
,
0202
0303
2200
3300
,
0001
0010
0001
0000
1000
0010
1000
0000
,
0001
0000
1001
0000
,
0100
0100
1000
1000
,
0010
0010
0001
1001
,
1000
1000
0100
0100
,
0001
0001
0010
0010
,
1000
0100
1000
0000
0001
0000
0001
0000
,
0100
0001
0100
0000
0010
0000
0010
0000
,
2002
0000
0000
0000
3003
0000
0001
1000
,
0000
0010
0100
0010
0100
0000
0010
0000
,
1000
0000
1000
0000
0010
0100
0001
0000
,
1000
0000
1000
0000
0100
0010
0001
0000
,
1000
0000
1000
0000
0010
0100
0001
0000
,
1010
0011
1010
0011
,
1000
0100
1000
0000
0001
0000
0001
0000
,
1000
0010
0001
0100
,
1000
0100
1000
0000
0001
0010
0001
0000
,
0010
0100
1001
0000
,
0010
1010
0100
0001
,
0010
0011
0100
1000
,
0001
0101
1000
1100
,
0010
0100
1001
0000
,
1000
0100
1000
0000
0001
0100
0001
0000
,
1000
0010
1000
0000
0001
0010
0001
0000
,
0100
1001
0010
1001
,
0000
1000
1000
1000
1000
1000
,
0002
0000
1003
0000
,
0010
1000
0110
0000
,
1000
0100
0010
0001
,
1000
0010
0100
0000
0010
0000
0010
0000
,
2000
0000
3001
0000
,
0010
0001
0100
1000
,
0010
0100
0010
0000
1000
0001
1000
0000
,
0110
1001
0110
1000
,
0022
0000
0000
0000
,
0000
0000
0000
0033
,
2002
3003
0220
0330
,
1001
0110
1001
0110
,
0001
0000
1000
0000
0010
1000
0010
0000
,
0100
0001
0100
0002
0000
1000
1003
0000
,
0000
0000
0000
0000
;
#NOTES:
     dance-single:
     :
     Hard:
     11:
     :
0000
0000
0000
0000
,
0000
0000
0000
0000
,
0000
0000
0000
0000
,
0000
0000
0000
0000
,
0000
0000
0000
0010
,
1001
0100
0001
0100
,
1001
0100
1001
0100
,
0020
0000
0000
0000
,
0100
0100
0130
1001
,
0010
0010
1000
0100
0000
0010
0001
0100
,
0010
0101
0010
1100
,
0010
1001
0100
1001
,
0010
0100
0010
0100
0001
1000
0100
2000
,
0001
0000
0001
0000
3001
0010
0001
2000
,
0000
3000
0000
0110
0000
0000
0000
0000
,
1000
0010
1000
0001
0010
0001
0100
0010
,
1000
0001
0100
0010
1000
0000
0000
0000
,
1100
0000
0000
0010
0020
0000
0000
0001
,
0000
0001
0000
0001
0031
0000
1001
0000
,
0100
0000
0001
0000
0010
0001
1000
0000
,
0002
0010
1000
0103
,
0010
1000
0010
0000
0100
0001
0100
0000
,
0001
0010
0001
0000
1000
0100
1000
0000
,
0011
1010
1100
0101
,
0220
0000
0000
0330
,
1020
0000
0130
0000
0001
1000
0100
0000
,
0021
0000
0130
0000
1000
0001
0100
0000
,
0001
0010
0100
0000
1000
0010
0100
0000
,
2000
0010
0001
3100
,
0011
0000
1100
0000
0001
1000
0100
0000
,
1010
0000
0101
0000
1000
0001
0100
0000
,
1000
0010
0001
0100
,
0220
0000
0000
0330
,
1000
0000
1000
0000
,
0001
0000
0001
0000
,
0100
0000
0100
0000
,
0010
0000
0010
0000
,
2002
0000
0000
3003
,
2020
3030
0202
0303
,
1000
0100
0010
0001
1000
0010
0100
0001
,
1000
0000
1001
0000
,
0010
0010
0001
0001
,
0100
0100
1000
1010
,
0001
0001
0100
0100
,
1000
1000
0010
0010
,
0001
0010
0100
0000
0010
0100
1000
0000
,
0100
1000
0010
0000
1000
0010
0100
0000
,
2002
0000
0000
0000
3003
0000
1000
0001
,
0000
0100
0010
0100
0020
0000
0130
0000
,
0000
1010
0000
0011
1000
0010
0100
0001
,
0000
0011
0000
1010
0001
0010
0100
1000
,
0000
1010
0000
0011
1000
0010
0100
0001
,
0201
1000
0001
1300
,
0001
1000
0100
1000
0000
0001
0100
0001
,
0010
0001
0100
0001
0110
0000
1001
0000
,
0000
0010
0001
0010
0100
1000
0100
1000
,
0001
0100
0010
1000
0001
0000
0000
0000
,
0010
0000
0100
0000
0010
1000
0100
0000
,
0010
0000
0100
0000
0010
0001
0100
0000
,
0011
1010
1100
0101
,
1000
0000
0000
1000
0000
0000
1000
0000
0001
0000
0000
0000
1000
0000
0000
0000
,
0001
0010
0100
1000
0001
0100
0010
1000
,
0001
0010
0001
1000
0010
1000
0001
0100
,
0010
1001
0100
1001
,
0000
0001
0100
1000
0010
0001
,
2000
0000
0000
3001
0101
0000
0000
0010
,
1000
0000
0000
1000
0000
0000
1000
0000
0011
0000
0000
0000
0000
0000
0010
0000
,
0100
1000
0110
0001
,
1000
0100
0001
0000
0100
0000
0100
0000
,
2000
0000
0000
3001
0101
0000
0000
1000
,
0010
0000
0100
0001
1001
0000
1000
0100
,
0010
0010
0010
0000
0100
0100
0100
0000
,
1000
0001
0110
0000
1001
0000
0010
0000
,
2200
0000
0000
0000
,
0000
0000
0000
3300
,
2020
3030
0022
0033
,
0101
1100
1010
0011
,
1001
0000
0110
0000
0001
0100
1000
0000
,
0100
0001
0010
0200
0000
0010
0310
0000
,
0000
0000
0000
0000
;
#NOTES:
     dance-single:
     :
     Challenge:
     14:
     :
0000
0000
0000
0000
,
0000
0000
0000
0000
,
0000
0000
0000
0000
,
0000
0000
0000
0000
,
0000
0000
0000
0000
0000
0000
0010
1000
,
0100
0000
0001
0100
1000
0000
0010
0001
,
1000
0000
0100
0010
1000
0000
0001
0010
,
2000
0000
0000
0000
,
3001
0000
1000
0000
0010
0100
1001
0000
,
0001
0010
0100
1000
0010
0100
0001
1000
,
0010
1000
1010
0001
0101
0010
0011
0000
,
1000
0000
0100
0000
0001
0000
0100
0000
0010
0000
0001
0000
1000
0000
0000
1000
,
0100
0000
0000
0100
0010
0000
0000
0010
0002
0000
1000
0000
1000
0000
1003
0000
,
0001
0010
1000
0010
0001
0010
0100
1000
,
0001
0000
0100
0000
1000
0000
0100
0000
0001
0000
0100
0000
0010
1000
0010
0000
,
0000
0100
0001
1000
0100
0010
0001
1000
,
1100
0010
0011
1000
1001
0000
0000
0000
,
0220
0000
0000
0000
0330
0000
0000
1001
,
0000
0110
0000
0011
0110
0000
1001
0000
,
0001
0000
0100
0000
0010
0000
1000
0000
0001
0100
0001
0000
0010
0000
0100
0000
,
1000
0000
0100
0000
0001
0000
0100
0000
1000
0000
0001
0000
0011
0000
0000
0001
,
1000
0000
0000
1000
0010
0000
0000
0010
0200
0000
0001
0000
0001
0000
0301
0000
,
0100
0000
0000
0100
0010
0000
0000
0010
2000
0000
0001
0000
0001
0000
3001
0000
,
1000
0100
0001
1000
0010
0001
1000
0002
,
2000
0000
0000
3003
,
1000
0000
0001
0000
0100
0000
1000
0000
0100
0010
0100
0000
0001
0000
1000
0000
,
0100
0010
0011
0000
1001
0010
1010
0000
,
1000
0000
0100
0000
0010
0000
0001
0000
1000
0100
1000
0000
0010
0000
0100
0000
,
0001
0000
0100
0000
1000
0000
0100
0000
0001
0000
1000
0000
1010
0000
0000
1000
,
0001
0000
0000
0001
0010
0000
0000
0010
0200
0000
1000
0000
1000
0000
1300
0000
,
0100
0000
0000
0100
0010
0000
0000
0010
0002
0000
1000
0000
1000
0000
1003
0000
,
0001
0100
1000
0001
0010
1000
0001
2000
,
0002
0000
0000
3003
,
1001
0000
0000
1000
0100
0000
0000
0100
,
0010
0000
0000
0010
0001
0000
0000
0001
,
2000
3100
0002
0103
,
0020
0031
0200
1300
,
0220
0000
0000
0330
,
2002
3003
0220
0330
,
0010
0001
0110
0000
1100
0000
0110
0001
,
0010
0000
1001
0000
,
0011
0011
0110
0110
,
1100
0011
0101
1010
,
0110
0110
0101
0101
,
0110
1001
0110
1001
,
1000
0100
0010
0100
0001
0100
1000
0100
,
0010
0001
0010
0000
0100
0000
1000
0000
0001
0100
0001
0000
1000
0010
1000
0010
,
0200
0000
0000
0000
0000
0000
0010
0310
,
0000
1000
1000
0100
0010
0001
1001
0000
,
0001
0000
0100
0000
0010
0000
1000
0000
0010
0100
0010
0000
1000
0000
0001
0000
,
1000
0000
0100
0000
0010
0000
0001
0000
1000
0100
1000
0000
0001
0000
0010
0000
,
0100
0000
1000
0000
0100
0000
0010
0000
0001
0010
0001
0000
0010
0000
0100
0000
,
1000
0000
0000
1000
0001
0000
0000
0001
0200
0000
0010
0000
0010
0000
0310
0000
,
0100
1000
0100
0001
0100
0010
0001
0010
,
1000
0100
0001
0100
0010
0001
0010
0100
,
1100
0000
0000
0100
0001
0000
0000
0000
1010
0000
0000
0010
0001
0000
0000
0000
,
1001
0100
0110
0001
0011
0000
0000
0000
,
1001
0100
0010
0000
1001
0010
0100
0000
,
0101
0010
1000
0000
1100
0010
0001
0000
,
0101
0000
0000
0100
1000
0000
0000
0000
0011
0000
0000
0010
1000
0000
0000
0000
,
1001
0000
0000
1100
0000
0000
0010
0000
1001
0000
0100
0000
0100
0000
0000
0000
,
1000
0100
1000
0100
0010
0001
0010
0001
,
0100
0010
0100
0000
0010
0000
0100
0000
0001
1000
0001
0000
1000
0000
0001
0000
,
0010
0100
1100
0000
1001
0010
0110
0000
,
0000
1000
0100
0001
0010
1000
,
0002
0000
0000
1003
1010
0000
0000
0000
,
0110
1001
0110
0000
,
0001
0100
0001
0100
0010
1000
0010
1000
,
0010
0100
0001
0010
0000
0100
1001
0000
,
2000
0000
0000
3100
0110
0000
0000
0011
,
0110
1100
1010
0101
,
0001
0010
0100
1000
0001
0100
0010
1000
,
0100
0010
0001
0010
0110
0000
1001
0000
,
0220
0000
0000
0000
,
0000
0000
0000
0330
,
2002
3003
0220
0330
,
0001
0010
0001
0000
1000
0000
0100
0000
0010
0001
0010
0000
0100
0000
1000
0000
,
1001
0000
0000
0000
0110
0000
0000
0001
1000
0000
0010
0000
0110
0000
0000
0000
,
0001
1000
0001
1000
0001
0000
0110
0000
0000
0000
1100
0000
0011
0000
0000
0000
,
0000
0000
0000
0000
;
#NOTES:
     dance-double:
     :
     Easy:
     5:
     :
00000000
00000000
00000000
00000000
,
00000000
00000000
00000000
00000000
,
00000000
00000000
00000000
00000000
,
00000000
00000000
00000000
00000000
,
00000000
00000000
00000000
00000000
,
00000010
00001000
00000010
00000000
,
00100000
00010000
00100000
00000000
,
00022000
00000000
00000000
00033000
,
00001000
00010000
00001000
00010000
,
00000010
00001000
00000100
00000000
,
00000010
00000001
00000100
00000000
,
00001000
00010000
00001000
00000000
,
00100000
00100000
00010000
00010000
,
02000000
00000000
00000000
03000000
,
00100000
00000000
10010000
00000000
,
00100000
00000000
10000000
00000000
,
01000000
00010000
00001000
00000000
,
00022000
00000000
00000000
00033000
,
00000000
00000000
00000000
00000000
,
00000010
00001000
00000010
00000000
,
00000100
00000001
00000100
00000000
,
00000001
00000010
00000100
00000000
,
00010000
00001000
00010000
00000000
,
00001000
00000000
00100000
00000000
,
20020000
00000000
00000000
30030000
,
00010000
01000000
00100000
00000000
,
10000000
01000000
00100000
00000000
,
00001000
00010000
00001000
00000000
,
00010000
00000010
00001000
00000000
,
00000001
00000000
00000100
00000000
,
00000010
00000000
00010000
00000000
,
00001000
00010000
00001000
00010000
,
00002000
00000000
00000000
00003000
,
00010000
00000000
01000000
00000000
,
10000000
00000000
01000000
00000000
,
00010000
00000000
00001000
00000000
,
00000100
00000000
00000001
00000000
,
00002002
00000000
00000000
00003003
,
00000010
00000000
00000100
00000000
,
00000001
00000001
00000100
00000100
,
00001000
00000000
00011000
00000000
,
00100000
00000000
00010000
00000000
,
10000000
10000000
10000000
00000000
,
01000000
00000000
00010000
00000000
,
00001000
00001000
00001000
00000000
,
00000100
00000000
00000001
00000000
,
00000010
00000010
00000010
00000000
,
00002002
00000000
00000000
00003003
,
00000010
00000010
00000010
00000000
,
00000001
00000100
00001000
00000000
,
00010000
00001000
00010000
00000000
,
00001000
00010000
01000000
00000000
,
10000000
10000000
00010000
00010000
,
10000000
01000000
00010000
00000000
,
00001000
00010000
00001000
00000000
,
00000100
00000000
00000001
00000000
,
00000010
00000010
00000010
00000000
,
00000100
00001000
00000010
00000000
,
00000100
00000001
00000010
00000000
,
00000001
00000001
00000100
00000100
,
00001000
00010000
00001000
00000000
,
00010000
01000000
00100000
00000000
,
00010000
01000000
00100000
00000000
,
10000000
00000000
00010000
00000000
,
00000000
00000000
00000000
00000000
,
20000000
30000000
02000000
03000000
,
00020000
00030000
00002000
00003000
,
00000200
00000300
00000002
00000003
,
00002000
00003000
00000001
00000000
,
00000002
00000003
00000200
00000300
,
00002000
00003000
00020000
00030000
,
02000000
03000000
20000000
30000000
,
00100000
00100000
01000000
00000000
,
20020000
00000000
00000000
00000000
,
00000000
00000000
00000000
30030000
,
00100000
00000000
10000000
00000000
,
01000000
01000000
00100000
00100000
,
00001000
00000000
00010000
00000000
,
00001000
00000100
00000010
00000100
,
00000000
00000000
00000000
00000000
;
#NOTES:
     dance-double:
     :
     Medium:
     8:
     :
00000000
00000000
00000000
00000000
,
00000000
00000000
00000000
00000000
,
00000000
00000000
00000000
00000000
,
00000000
00000000
00000000
00000000
,
00000000
00000000
00000000
00100000
,
10000000
01000000
00010000
00001000
,
00000100
00000001
00000010
00000001
,
00002000
00000000
00000000
00000000
,
00000010
00000010
00003010
00001001
,
00000001
00000100
00001000
00010000
,
00000010
00011000
00100000
00011000
,
00000100
00011000
01000000
00011000
,
00001000
00100000
00010000
00000000
10000000
00000000
10000000
00000000
,
01000000
00010000
00001000
00000010
,
00000001
00001000
00000010
00000010
,
00000100
00000000
00000010
00000000
,
00000010
00001000
00000100
00000000
00011000
00000000
00000000
00000000
,
00100000
00000000
00000000
00000000
02000000
00000000
00000000
00100000
,
00000000
00100000
00000000
00100000
03100000
00000000
00010000
00000000
,
01000000
00000000
10000000
00000000
00100000
10000000
00010000
00000000
,
10000000
01000000
00010000
00001000
,
00000100
00000000
00000001
00000000
00000010
00000001
00000010
00000000
,
00000100
00000000
00001000
00000000
00000001
00000100
00000001
00000000
,
00001000
00000010
00010000
00001000
,
00022000
00000000
00000000
00033000
,
01000000
00000000
00010000
00000000
00100000
00010000
01000000
00000000
,
00100000
10000000
01000000
00010000
,
00001000
00000000
00010000
00000000
00000010
00001000
00000100
00000000
,
00000010
00000001
00000010
00001000
,
00000001
00000100
00001000
00010000
,
01000000
10000000
00100000
01000000
,
00010000
00100000
10000000
01000000
,
02200000
00000000
00000000
03300000
,
10000000
00000000
01000000
00000000
,
00010000
00000000
00001000
00000000
,
00000100
00000000
00000001
00000000
,
00000010
00000000
00001000
00000000
,
00002002
00000000
00000000
00003003
,
00002200
00003300
00022000
00033000
,
00100000
00010000
10000000
00100000
,
01000000
00000000
10010000
00000000
,
00100000
10000000
00010000
01000000
,
00001000
00010000
00001000
00011000
,
00000100
00001000
00000001
00000010
,
00000100
00000100
00000010
00000010
,
00000001
00000100
00000010
00000000
00000100
00000000
00000100
00000000
,
00001000
00010000
00001000
00000000
00010000
00000000
00010000
00000000
,
00220000
00000000
00000000
00000000
00330000
00000000
01000000
10000000
,
00000000
00100000
01000000
00100000
01000000
00000000
00010000
00000000
,
10000000
00000000
10000000
00000000
01000000
00100000
01000000
00000000
,
00010000
00000000
00010000
00000000
00001000
00010000
00001000
00000000
,
00000010
00000000
00000010
00000000
00000100
00000010
00000100
00000000
,
00000101
00001100
00000101
00001100
,
00000001
00000010
00000100
00000000
00001000
00000000
00001000
00000000
,
00000001
00000100
00001000
00010000
,
00100000
01000000
00100000
00000000
10000000
00010000
10000000
00000000
,
01000000
00100000
10010000
00000000
,
10000000
00000000
01000000
00000000
00010000
00001000
00010000
00000000
,
00001000
00000000
00000010
00000000
00000001
00001000
00000001
00000000
,
00001000
00001010
00000001
00000011
,
00000100
00000010
00001001
00000000
,
00000001
00000010
00000001
00000000
00001000
00000100
00001000
00000000
,
00010000
00001000
00010000
00000000
01000000
00010000
01000000
00000000
,
00100000
10010000
01000000
10010000
,
00000000
00100000
00100000
00100000
00100000
00100000
,
20000000
00000000
30010000
00000000
,
10000000
01000000
01100000
00000000
,
00010000
00001000
00000010
00000001
,
00001000
00000001
00000100
00000000
00000010
00000000
00000010
00000000
,
00002000
00000000
00003001
00000000
,
00000100
00001000
00010000
01000000
,
00100000
00010000
00100000
00000000
01000000
10000000
01000000
00000000
,
01100000
10010000
01100000
10000000
,
02020000
00000000
00000000
00000000
,
00000000
00000000
00000000
03030000
,
00022000
00033000
00002020
00003030
,
00010000
00001000
00000100
00000001
,
00000011
00000000
00001100
00000000
00000010
00000001
00000100
00000000
,
00001000
00010000
00001000
00020000
00000000
00001000
00031000
00000000
,
00000000
00000000
00000000
00000000
;
#NOTES:
     dance-double:
     :
     Hard:
     11:
     :
00000000
00000000
00000000
00000000
,
00000000
00000000
00000000
00000000
,
00000000
00000000
00000000
00000000
,
00000000
00000000
00000000
00000000
,
00000000
00000000
00000000
00000010
,
00001001
00000100
00001000
00010000
,
00011000
01000000
10000000
00010000
,
00200000
00000000
00000000
00000000
,
01000000
01000000
01300000
10010000
,
00100000
10000000
01000000
10000000
00000000
00010000
01000000
00010000
,
00000000
00001000
00010000
00001000
00010000
00000010
00001000
00000001
,
00000000
00001000
00000100
00001000
00000000
00000001
00000100
00000001
,
00001000
00000110
00010000
00011000
,
00001000
00100000
00010000
01000000
00000000
00100000
10000000
01000000
,
00100000
01000000
00100000
01000000
10000000
01000000
00100000
00010000
,
00000000
00001000
00000100
00001000
00000100
00000010
00000001
00001000
,
00000001
00001000
00000100
00001000
00000001
00000000
00000000
00000000
,
00000101
00000000
00000000
00000010
00000020
00000000
00000000
00001000
,
00000000
00001000
00000000
00001000
00001030
00000000
00001001
00000000
,
00000100
00000000
00001000
00000000
00010000
01000000
10000000
00000000
,
00020000
00100000
10000000
00130000
,
10000000
00100000
10000000
00000000
00010000
01000000
00010000
00000000
,
00001000
00010000
00001000
00000000
00000010
00000100
00000010
00000000
,
00001000
00000010
00000001
00000010
,
00000220
00000000
00000000
00000330
,
00000001
00000000
00000100
00000000
00000010
00001000
00010000
00000000
,
01000000
00000000
00100000
00000000
10000000
00010000
01000000
00000000
,
00100000
10000000
01000000
00000000
00100000
00010000
01000000
00000000
,
00002000
00100000
00010000
00103000
,
00110000
00000000
00011000
00000000
00100000
00001000
00010000
00000000
,
00001010
00000000
00011000
00000000
00000010
00010000
00001000
00000000
,
00000100
00000001
00000010
00001000
,
00000220
00000000
00000000
00000330
,
00000001
00000000
00000100
00000000
,
00001000
00000000
00010000
00000000
,
01000000
00000000
10000000
00000000
,
00100000
00000000
00010000
00000000
,
00022000
00000000
00000000
00033000
,
00020020
00030030
00002002
00003003
,
00000001
00000010
00000100
00001000
00000001
00000100
00000010
00001000
,
00000001
00000000
00001001
00000000
,
00000001
00000100
00001000
00010000
,
01000000
10000000
00100000
10010000
,
10000000
01000000
00010000
00001000
,
00000100
00000001
00000010
00000010
,
00000001
00000010
00000001
00000000
00001000
00000100
00001000
00000000
,
00010000
00001000
00010000
00000000
00100000
01000000
00100000
00000000
,
20020000
00000000
00000000
00000000
30030000
00000000
00100000
00100000
,
00000000
10000000
01000000
00100000
00010000
00000000
11000000
00000000
,
00000000
00010000
00000000
00001000
00000010
00000001
00000010
00001000
,
00000000
00001000
00000000
00010000
00100000
10000000
00100000
00010000
,
00000000
00010000
00000000
00001000
00000100
00000001
00000100
00001000
,
00000100
00000101
00001100
00000101
,
00001000
00000001
00000010
00000001
00000000
00001000
00000100
00001000
,
00000010
00010000
00001000
00100000
00010000
00000000
01100000
00000000
,
00000000
00001000
00010000
01000000
00100000
00001000
01000000
00010000
,
00100000
00001000
01000000
00010000
10000000
00000000
00000000
00000000
,
10000000
00000000
01000000
00000000
00100000
00010000
00001000
00000000
,
00000100
00000000
00000010
00000000
00000001
00001000
00000100
00000000
,
00001010
00000011
00000101
00001100
,
00000001
00000000
00000000
00000001
00000000
00000000
00000001
00000000
00001000
00000000
00000000
00000000
00000001
00000000
00000000
00000000
,
00000100
00000010
00000100
00000010
00010000
00001000
00010000
00001000
,
00100000
00010000
01000000
00100000
10000000
01000000
00100000
00010000
,
10000000
01100000
00010000
01100000
,
00000000
10000000
01000000
00010000
00001000
00000010
,
00000002
00000000
00000000
00001003
00001100
00000000
00000000
00000010
,
00000001
00000000
00000000
00000100
00000000
00000000
00000010
00000000
00001010
00000000
00000000
00000000
00000000
00000000
00010000
00000000
,
01000000
00100000
10010000
01000000
,
00100000
10000000
01000000
00000000
00100000
00000000
00100000
00000000
,
00002000
00000000
00000000
00013000
00011000
00000000
00000000
00000010
,
00000100
00000000
00000010
00001000
00001001
00000000
00000100
00000000
,
00000010
00000001
00000100
00000000
00000010
00001000
00000100
00000000
,
00010000
00000100
00010100
00000000
00101000
00000000
00010000
00000000
,
22000000
00000000
00000000
00000000
,
00000000
00000000
00000000
33000000
,
20200000
30300000
00220000
00330000
,
00101000
00010100
00001001
00000110
,
00000011
00000000
00001100
00000000
00000010
00000001
00000100
00000000
,
00001000
00010000
01000000
20000000
00000000
00100000
30100000
00000000
,
00000000
00000000
00000000
00000000
;
#NOTES:
     dance-double:
     :
     Challenge:
     14:
     :
00000000
00000000
00000000
00000000
,
00000000
00000000
00000000
00000000
,
00000000
00000000
00000000
00000000
,
00000000
00000000
00000000
00000000
,
00000000
00000000
00000000
00000000
00000000
00000000
00100000
10000000
,
01000000
00000000
00010000
01000000
10000000
00000000
00100000
00010000
,
00001000
00000000
00000100
00000010
00001000
00000000
00000001
00000010
,
00002000
00000000
00000000
00000000
,
00013000
00000000
00001000
00000000
00000100
00000010
00000110
00000000
,
00000001
00000010
00001000
00010000
00001000
00000100
00001000
00010000
,
00100000
10000000
10100000
00010000
01010000
00100000
00110000
00000000
,
10000000
00000000
01000000
00000000
00010000
00000000
01000000
00000000
00100000
00000000
00001000
00000000
00010000
00000000
00000000
00010000
,
00000100
00000000
00000000
00000100
00000010
00000000
00000000
00000010
00000002
00000000
00001000
00000000
00001000
00000000
00001003
00000000
,
00000001
00000010
00001000
00000010
00000001
00000010
00000100
00001000
,
00000001
00000000
00000100
00000000
00001000
00000000
00000100
00000000
00000001
00000000
00000100
00000000
00001000
00010000
00001000
00000000
,
00000000
00010000
00100000
10000000
01000000
00010000
00001000
00000010
,
00001000
00010000
01000000
00010000
00011000
00000000
00000000
00000000
,
00002002
00000000
00000000
00000000
00003003
00000000
00000000
00000110
,
00000000
00000110
00000000
00001001
00000110
00000000
00001001
00000000
,
00000001
00000000
00000100
00000000
00001000
00000000
00010000
00000000
00001000
00010000
00001000
00000000
00010000
00000000
00100000
00000000
,
10000000
00000000
01000000
00000000
00010000
00000000
01000000
00000000
10000000
00000000
00100000
00000000
00110000
00000000
00000000
00010000
,
00100000
00000000
00000000
00100000
10000000
00000000
00000000
10000000
02000000
00000000
00100000
00000000
00100000
00000000
03100000
00000000
,
01000000
00000000
00000000
01000000
00010000
00000000
00000000
00010000
00002000
00000000
00000010
00000000
00000010
00000000
00003010
00000000
,
00000001
00000010
00001000
00010000
00100000
00010000
00001000
00020000
,
00002000
00000000
00000000
00033000
,
00010000
00000000
00001000
00000000
00000100
00000000
00000001
00000000
00000100
00000010
00000100
00000000
00000001
00000000
00000100
00000000
,
00001000
00000000
00010000
00000000
00001000
00000000
00000010
00000000
00001000
00000000
00010000
00000000
01000000
00100000
01000000
00000000
,
10000000
00000000
01000000
00000000
00010000
00000000
00001000
00000000
00010000
00001000
00010000
00000000
00001000
00000000
00000010
00000000
,
00000001
00000000
00000100
00000000
00001000
00000000
00000100
00000000
00000001
00000000
00000010
00000000
00001010
00000000
00000000
00001000
,
00000010
00000000
00000000
00000010
00000001
00000000
00000000
00000001
00000200
00000000
00000010
00000000
00000010
00000000
00000310
00000000
,
00000100
00000000
00000000
00000100
00001000
00000000
00000000
00001000
00020000
00000000
00100000
00000000
00100000
00000000
00130000
00000000
,
10000000
00100000
00010000
00001000
00000010
00001000
00010000
00002000
,
00020000
00000000
00000000
00033000
,
00011000
00000000
00000000
00001000
00000100
00000000
00000000
00000100
,
00000001
00000000
00000000
00000001
00001000
00000000
00000000
00001000
,
00020000
01000000
10000000
00100000
,
00032000
00000100
00000001
00003010
,
00000220
00000000
00000000
00000330
,
00002002
00003003
00022000
00033000
,
00000100
00001000
00010000
00001000
00000100
00000000
00010000
00001000
,
00010000
00000000
00011000
00000000
,
00011000
00011000
00110000
00110000
,
01100000
10010000
01100000
10010000
,
00110000
00110000
01100000
01100000
,
00101000
00011000
00010010
00011000
,
00001000
00000100
00000010
00000100
00000001
00000010
00000100
00000010
,
00000001
00000010
00000100
00000000
00010000
00000000
00001000
00000000
00010000
01000000
10000000
00000000
00010000
10000000
00010000
10000000
,
00020000
00000000
00000000
00000000
00000000
00000000
00100000
00130000
,
00000000
10000000
00010000
00001000
00000001
00001000
00001001
00000000
,
00000001
00000000
00000100
00000000
00001000
00000000
00010000
00000000
00001000
00010000
00001000
00000000
00010000
00000000
00100000
00000000
,
10000000
00000000
01000000
00000000
00010000
00000000
00001000
00000000
00010000
00001000
00010000
00000000
00001000
00000000
00000010
00000000
,
00000001
00000000
00000010
00000000
00001000
00000000
00010000
00000000
00001000
00010000
00001000
00000000
00010000
00000000
01000000
00000000
,
10000000
00000000
00000000
10000000
00010000
00000000
00000000
00010000
00200000
00000000
01000000
00000000
01000000
00000000
01300000
00000000
,
10000000
01000000
00010000
01000000
00100000
00001000
00010000
00001000
,
00000100
00000010
00000001
00000010
00000100
00001000
00010000
00001000
,
00001100
00000000
00000000
00000100
00000001
00000000
00000000
00000000
00000011
00000000
00000000
00000010
00001000
00000000
00000000
00000000
,
00011000
00001000
00011000
00010000
01010000
00000000
01100000
00000000
,
10000000
01000000
00100000
00010000
00001000
00000100
00000010
00000000
,
00000001
00000100
00000010
00001000
00010000
01000000
00100000
00000000
,
11000000
00000000
00000000
01000000
00010000
00000000
00000000
00000000
10100000
00000000
00000000
00100000
00010000
00000000
00000000
00000000
,
00011000
00000000
00000000
00001100
00000000
00000000
00000001
00000000
00001001
00000000
00000100
00000000
00000010
00000000
00000000
00000000
,
00000001
00000100
00000001
00000100
00001000
00010000
00001000
00010000
,
00100000
01000000
00100000
00000000
01000000
00000000
00100000
00000000
10000000
00010000
10000000
00000000
00010000
00000000
10000000
00000000
,
01000000
00100000
00110000
00000000
10010000
00100000
01100000
00000000
,
00000000
10000000
00010000
00001000
00000001
00001000
,
00020000
00000000
00000000
00031000
00011000
00000000
00000000
00000000
,
00000110
00001001
00000110
00000000
,
00000001
00000010
00000001
00000010
00001000
00010000
00001000
00010000
,
01000000
10000000
01000000
00010000
00000000
00001000
00011000
00000000
,
00002000
00000000
00000000
00003100
00001100
00000000
00000000
00000010
,
00000110
00000000
00000001
00001000
00001100
00000010
00000001
00000000
,
00000001
00000010
00001000
00010000
00100000
00010000
00001000
00000100
,
00000010
00001000
00010000
01000000
01100000
00000000
10010000
00000000
,
00022000
00000000
00000000
00000000
,
00000000
00000000
00000000
00033000
,
00002002
00003003
00000220
00000330
,
00000001
00000010
00000001
00000000
00001000
00000000
00000100
00000000
00000010
00000001
00000010
00000000
00001000
00000000
00010000
00000000
,
00011000
00000000
00000000
00000000
01100000
00000000
00000000
00010000
10000000
00000000
01000000
00000000
01100000
00000000
00000000
00000000
,
00010000
00100000
00010000
00100000
00010000
00000000
01100000
00000000
00000000
00000000
11000000
00000000
00110000
00000000
00000000
00000000
,
00000000
00000000
00000000
00000000
;
