
//----- song ID: lost -----//
#TITLE:ロストワンの号哭;
#ARTIST:Neru;
#TITLETRANSLIT:Lost one no goukoku;
#BANNER:Lost one no goukoku.png;
#BACKGROUND:Lost one no goukoku-bg.png;
#CDTITLE:./CDTitles/SDVX II -infinite infection-.png;
#MUSIC:Lost one no goukoku.ogg;
#SAMPLESTART:63.621;
#SAMPLELENGTH:15;
#BPMS:0=162;
#NOTES:
     dance-single:
     :
     Beginner:
     3:
     :
0000
0000
0000
0000
,
0000
0000
0000
0000
,
0000
0000
0000
0000
,
0001
0000
0000
0000
,
1000
1000
0000
0000
,
0010
0000
0000
0000
,
0001
0001
0000
0000
,
1000
0000
0000
0000
,
0001
0001
0000
0000
,
0010
0000
0000
0000
,
1000
1000
0000
0000
,
0010
0000
0010
0000
,
0010
0000
0000
0000
,
0001
0000
0001
0000
,
0001
0000
0000
0000
,
1000
0000
1000
0000
,
1000
0000
0000
0000
,
0010
0000
0010
0000
,
0010
0000
0000
0000
,
1000
0000
0000
0000
,
0001
0001
0000
0000
,
0010
0000
0000
0000
,
1000
1000
0000
0000
,
0001
0000
0000
0000
,
1000
1000
0000
0000
,
0010
0000
0000
0000
,
0001
0001
0000
0000
,
0010
0000
0010
0000
,
0010
0000
0000
0000
,
1000
0000
1000
0000
,
1000
0000
0000
0000
,
0001
0000
0001
0000
,
0001
0000
0000
0000
,
0010
0000
0010
0000
,
0010
0000
0000
0000
,
0001
0000
0000
0000
,
0010
0000
0000
0000
,
1000
0000
0000
0000
,
0010
0000
0000
0000
,
0001
0000
0000
0000
,
0100
0000
0000
0000
,
1000
0000
0000
0000
,
1001
0000
0000
0000
,
0001
0001
0001
0000
,
1000
0000
0100
0000
,
0010
0010
0010
0000
,
0100
0000
0000
0000
,
1000
1000
1000
0000
,
0001
0000
0100
0000
,
0010
0010
0010
0000
,
0100
0000
0000
0000
,
1000
1000
1000
0000
,
0001
0000
0010
0000
,
0100
0100
0100
0000
,
0010
0000
0000
0000
,
0001
0001
0001
0000
,
1000
0000
0010
0000
,
0100
0100
0100
0000
,
0010
0010
0010
0000
,
1001
0000
0000
0000
,
0000
0000
0000
0000
,
1001
0000
0000
0000
,
0000
0000
0000
0000
,
0001
0001
0000
0000
,
1000
1000
0000
0000
,
0001
0001
0000
0000
,
1000
1000
1000
0000
,
0001
0001
0001
0000
,
1000
0000
0100
0000
,
0010
0010
0010
0000
,
0100
0000
0000
0000
,
1000
1000
1000
0000
,
0001
0000
0100
0000
,
0010
0010
0010
0000
,
0100
0000
0000
0000
,
0010
0000
0010
0000
,
0001
0000
0000
0000
,
1000
1000
0000
0000
,
0010
0000
0000
0000
,
0001
0001
0000
0000
,
1000
0000
0000
0000
,
0001
0001
0000
0000
,
0010
0000
0000
0000
,
1000
1000
0000
0000
,
0010
0000
0010
0000
,
0010
0010
0010
0000
,
0100
0000
0100
0000
,
0100
0100
0100
0000
,
0000
0000
0000
0000
;
#NOTES:
     dance-single:
     :
     Easy:
     6:
     :
0000
0000
0000
0000
,
0000
0000
0000
0000
,
0000
0000
0000
0000
,
1000
0100
1000
0001
,
1000
0001
1000
0000
,
0010
0100
0010
0100
,
0001
0100
0001
0000
,
0001
0100
0001
1000
,
0001
1000
0001
0000
,
0010
0100
0010
0100
,
1000
0100
1000
0000
,
0010
0000
0010
0000
,
0010
1000
0100
0000
,
0001
0000
0001
0000
,
0100
1000
0010
0000
,
1000
0000
0001
0000
,
0010
0001
0100
0000
,
1000
0000
1000
0000
,
0100
0001
0010
0010
,
0001
0100
0001
1000
,
0001
1000
0001
0000
,
0010
0100
0010
0100
,
1000
0100
1000
0000
,
1000
0100
1000
0001
,
1000
0001
1000
0000
,
0010
0100
0010
0100
,
0001
0100
0001
0000
,
0100
0000
0100
0000
,
0100
0001
0010
0000
,
1000
0000
1000
0000
,
0010
0001
0100
0000
,
0001
0000
1000
0000
,
0100
1000
0010
0000
,
0001
0000
0001
0000
,
0010
1000
0100
0100
,
0010
0001
0010
1000
,
0010
0001
0100
0000
,
1000
1000
0100
0100
,
0001
0001
0010
0010
,
1000
1000
0010
0010
,
0001
0001
0100
0100
,
1000
0100
0001
0100
,
0001
0100
1000
0100
,
0001
0100
0001
1000
,
1000
0000
0100
0000
,
0010
0001
0010
0001
,
0100
0000
1000
0000
,
0100
0010
0100
0010
,
1000
0000
0001
0000
,
0001
0010
0100
0000
,
1000
0010
0100
0001
,
1000
0100
1000
0001
,
0001
0000
0100
0000
,
0010
1000
0010
1000
,
0100
0000
0001
0000
,
0100
0010
0100
0010
,
0001
0000
1000
0000
,
1000
0010
0100
0000
,
0001
0010
0100
0000
,
1001
0000
0000
0000
,
0110
0000
0000
0000
,
1001
0000
0000
0000
,
0110
0000
0000
0000
,
0001
0100
1000
0100
,
0001
0100
1000
0000
,
1000
0100
0010
1000
,
0001
0010
0001
0000
,
1000
0100
1000
0001
,
0001
0000
0100
0010
,
0010
1000
0010
1000
,
0100
0000
0001
0000
,
0100
0010
0100
0010
,
0001
0000
1000
0000
,
1000
0010
0100
0000
,
0001
0010
1000
0100
,
1001
0000
1001
1000
,
0001
0100
0001
1000
,
0001
1000
0001
0000
,
0010
0100
0010
0100
,
1000
0100
1000
0000
,
1000
0100
1000
0001
,
1000
0001
1000
0000
,
0010
0100
0010
0100
,
0001
0100
0001
0000
,
0110
0000
0110
0000
,
0110
0000
0110
1001
,
0110
0000
0110
0000
,
0110
0000
0110
0000
,
0000
0000
0000
0000
;
#NOTES:
     dance-single:
     :
     Medium:
     10:
     :
0000
0000
0000
0000
,
0000
0000
0000
0000
,
0000
0000
0000
0000
,
1000
0100
1000
0000
1000
0000
0001
0000
,
1000
0001
1000
1000
,
0010
0100
0010
0000
0010
0000
0100
0000
,
0001
0000
0100
0000
0001
1000
0001
1000
,
0001
0100
0001
1000
,
0001
1000
0001
0001
,
0010
0100
0010
0100
,
1000
0100
1000
1000
,
0001
0000
1000
0000
0010
1000
0100
0000
,
0010
0100
0001
0000
,
0001
0100
0001
1000
,
0100
1000
0010
0000
,
1000
0000
0001
0000
0010
0001
0100
0000
,
0010
0100
1000
0000
,
1000
0000
0100
0000
1000
0100
0001
0000
,
0100
0001
0010
0000
,
0001
0100
0001
0000
0001
0000
1000
0000
,
0001
1000
0001
0001
,
0010
0100
0010
0000
0010
0000
0100
0000
,
1000
0100
1000
0010
,
0001
0010
1000
0001
,
1000
0001
1000
1000
,
0010
0100
0010
0100
,
0001
0100
0001
0001
,
1000
0000
0001
0000
0010
0001
0100
0000
,
0010
0100
1000
0000
,
1000
0000
0100
0000
1000
0100
0001
0000
,
0100
0001
0010
0000
,
0001
0000
1000
0000
0010
1000
0100
0000
,
0010
0100
0001
0000
,
0001
0000
0100
0000
0001
0100
1000
0000
,
0100
1000
0010
0000
,
0010
0100
0001
0000
1000
0000
0100
0000
,
0010
0001
1000
0000
0100
0000
0000
0000
,
1000
0100
1000
0000
0100
0000
1000
0000
,
0001
0010
0001
0000
0010
0000
0001
0000
,
1000
0010
1000
0000
0010
0000
0010
0000
,
1000
0010
1000
0000
0100
0000
0100
0000
,
1000
0100
0010
0000
0001
0000
0100
0000
,
0001
0010
1000
0000
0010
0000
0001
0010
,
0001
0010
0001
0010
,
0001
0100
0000
0001
0100
0000
0000
0000
,
0010
1000
0010
1000
,
0100
0010
0000
0100
1000
0000
0000
0000
,
0100
0010
0100
0010
,
0001
0100
0000
0010
0001
0000
0001
0000
,
0001
0000
0010
0000
0100
0000
1000
0100
,
1000
0100
0110
0000
,
1000
0010
1000
0010
,
1000
0100
0000
1000
0100
0000
0000
0000
,
0010
0001
0010
0001
,
0100
0010
0000
0100
0001
0000
0000
0000
,
0100
0010
0100
0010
,
1000
0100
0000
0010
0001
0000
1000
0010
,
1000
0000
0010
0000
0100
0000
0001
0100
,
0001
0110
1010
0011
,
1001
1001
0000
0000
0000
0010
0100
0010
,
0000
0000
0000
0001
0100
0010
0000
0000
,
0001
0010
0000
0000
0000
0100
0010
0100
,
0000
0000
0000
0000
0000
0000
1000
0000
0001
0000
0000
0001
0000
0000
0001
0000
,
0001
1000
0100
0000
1000
0000
0100
0000
,
0001
0100
1000
0000
,
1000
0010
0100
0000
0010
0000
1000
0000
,
0001
0000
0010
0000
0100
0010
0100
0010
,
0001
0100
1000
0100
,
0001
0010
0001
0000
0100
0000
0010
0100
,
0010
0000
1000
0000
0010
0000
1000
0100
,
1000
0000
1000
0000
0001
0000
0100
0010
,
0100
0010
0100
0010
,
1000
0000
0001
0000
1000
0000
1000
0100
,
1000
0000
0010
0000
0100
0000
0001
0010
,
0001
0000
0010
0000
0100
0010
0100
0000
,
1000
0001
1000
0000
1000
0001
1000
0000
,
0001
0100
0001
0000
0001
0000
1000
0000
,
0001
1000
0001
0001
,
0010
0100
0010
0000
0010
0000
0100
0000
,
1000
0000
0100
0000
1000
0001
1000
0001
,
1000
0100
1000
0001
,
1000
0001
1000
1000
,
0010
0100
0010
0100
,
0001
0100
0001
0001
,
1000
0100
0000
0000
1000
0001
0000
0000
,
0011
0110
1100
0000
,
0001
0100
0000
0000
0100
0010
0000
0000
,
0110
1001
0101
0000
,
0000
0000
0000
0000
;
#NOTES:
     dance-single:
     :
     Hard:
     12:
     :
0000
0000
0000
0000
,
0000
0000
0000
0000
,
0000
0000
0000
0000
,
1000
0100
1000
0100
1000
0001
0100
0000
,
0001
0100
1000
0000
1000
0100
0001
0000
,
0010
0100
0010
0100
1000
0001
0100
0000
,
0001
0010
1000
0000
0010
0001
0010
0001
,
0001
0100
0001
0100
0001
1000
0100
0000
,
1000
0100
0001
0000
0001
0100
1000
0000
,
0010
0100
0010
0100
0001
1000
0100
0000
,
1000
0010
0001
0000
0001
0010
1000
0000
,
0001
0000
1000
0000
0010
1000
0100
1000
,
0010
0100
0001
0010
,
0001
0000
0100
0000
0001
0100
0010
1000
,
0100
0000
1000
0000
0100
0000
1000
0100
,
1000
0000
0001
0000
0010
0001
0100
0010
,
1000
0100
1000
0100
,
1000
0000
0100
0000
1000
0100
0010
0001
,
0100
0010
0001
0000
0010
0100
0001
0000
,
0001
0100
0001
1000
0001
0100
1000
0000
,
0001
0100
1000
0000
0001
0100
0001
0000
,
0010
0100
0010
0001
0010
0100
1000
0000
,
0010
0100
1000
0000
0100
0010
1000
0000
,
1000
0100
1000
0001
1000
0100
0001
0000
,
1000
0100
0001
0000
1000
0100
1000
0000
,
0010
0100
0010
1000
0010
0100
0001
0000
,
0010
0100
0001
0000
0100
0010
1000
0000
,
1000
0000
0001
0000
0010
0001
0100
0001
,
0010
0100
1000
0010
,
1000
0000
0100
0000
1000
0100
0010
0001
,
0100
0000
0001
0000
0100
0000
0001
0100
,
0001
0000
1000
0000
0010
1000
0100
0010
,
0001
0100
0001
0100
,
0001
0000
0100
0000
0001
0100
0010
1000
,
0100
0010
0001
0100
0010
0100
1000
0000
,
0100
0010
1000
0000
0010
1000
0001
0000
,
0010
0001
1000
0000
0100
1000
0010
0000
,
1000
0100
1000
0000
0100
0010
0100
0000
,
1000
0010
1000
0000
0010
0100
0010
0000
,
0001
0010
0001
0000
0010
0100
0010
0000
,
1000
0010
1000
0000
0100
0010
0100
0000
,
1000
0100
1000
0000
0001
0000
0100
0000
,
1000
0100
0001
0000
0010
0000
1000
0010
,
0001
0010
0001
0100
0001
1000
0010
0000
,
1000
0100
0000
0001
0100
0000
1000
0000
,
0010
0100
1000
0100
0010
0001
0010
1000
,
0100
0010
0000
0100
1000
0000
1000
0000
,
0100
1000
0010
0100
0001
1000
0010
0100
,
0001
0100
0000
0010
1000
0000
0001
0010
,
0001
0010
0000
0001
0100
0000
1000
0100
,
1000
0100
0000
0001
0100
0000
0001
0000
,
1000
0010
1000
0100
1000
0001
0010
0000
,
0001
0100
0000
1000
0100
0000
0001
0000
,
0010
0100
0001
0100
0010
1000
0010
0001
,
0100
0010
0000
0100
0001
0000
0001
0000
,
0100
0001
0010
0100
1000
0001
0010
0100
,
1000
0100
0000
0010
0001
0000
1000
0010
,
1000
0010
0000
1000
0100
0000
0001
0000
,
0011
1100
1001
0110
,
1001
0110
0000
0000
0000
0010
0100
0010
,
0000
0000
0000
0001
0100
1000
0100
0000
,
0001
0010
0000
0000
0000
0100
0010
0100
,
0000
0000
0000
0000
0000
0000
1000
0000
1001
0000
0000
0101
0000
0000
1100
0000
,
0001
1000
0100
0000
1000
0000
0100
0000
,
0001
0000
0100
0000
1000
0000
0000
0100
,
1000
0010
0100
0001
0010
0001
1000
0000
,
0001
1000
0010
1000
0100
0010
0100
0010
,
0001
0100
1000
0100
,
0001
0000
0010
0000
0001
0000
0010
0000
0100
0000
0000
0000
0010
0100
0010
0000
,
0100
0000
0001
0000
0100
0000
1000
0100
,
0010
0100
1000
0100
0001
0000
0100
0010
,
0100
0001
0010
0001
0100
0000
0010
0000
,
1000
0100
0000
0100
1000
0000
1000
0100
,
1000
0100
0000
0100
0010
0000
0001
0010
,
0001
0000
1100
0000
0100
0010
0100
0000
,
1000
0100
1000
0000
0000
0000
0001
0010
0001
0000
0000
0000
1000
0000
0000
0000
,
0001
0100
0001
0100
0001
1000
0100
0000
,
1000
0100
0001
0000
0001
0100
1000
0000
,
0010
0100
0010
0100
0001
1000
0100
0000
,
1000
0010
0001
0000
0010
1000
0010
1000
,
1000
0100
1000
0100
1000
0001
0100
0000
,
0001
0100
1000
0000
1000
0100
0001
0000
,
0010
0100
0010
0100
1000
0001
0100
0000
,
0001
0010
1000
0000
1000
0010
0001
0000
,
1000
0000
0001
0000
1000
0001
0000
0000
0100
0000
0001
0000
0100
0001
0000
0000
,
1000
0000
0100
0000
1000
0010
1000
0000
0100
0000
0000
0000
1001
0000
0000
0000
,
0001
0000
1000
0000
0001
1000
0000
0000
0100
0000
1000
0000
0100
1000
0000
0000
,
0001
0000
0100
0000
0001
0010
0001
0000
0100
0000
0000
0000
0000
0000
0000
0000
,
0000
0000
0000
0000
;
#NOTES:
     dance-single:
     :
     Challenge:
     15:
     :
0000
0000
0000
0000
,
0000
0000
0000
0000
,
0000
0000
0000
0000
,
1000
0000
0010
0000
0100
0001
0100
0000
0010
0000
1000
0000
0001
0010
0001
0000
,
1000
0000
0100
0000
0010
0001
0010
0000
0001
0000
1000
0000
0010
0100
0010
0000
,
1000
0000
0100
0000
0010
0001
0010
0000
0100
0000
1000
0000
0010
0100
0010
0000
,
0100
0000
0001
0000
1000
0001
1000
0000
0200
0000
0320
0000
0032
0000
2003
0000
,
3010
0000
0100
0000
0001
1000
0010
0000
1000
0000
0010
0000
0100
0001
1000
0000
,
0010
0000
0100
0000
0001
0010
0100
0000
1000
0000
0010
0000
0100
0010
1000
0000
,
0001
0000
1000
0000
0010
0100
0001
0000
0010
0000
0100
0000
0010
0001
1000
0000
,
0010
0000
0100
0000
0010
1000
0001
0000
0010
0000
0100
1000
0001
0100
0010
0000
,
1000
0000
0000
0001
0000
0000
0010
0000
0000
0000
0001
0000
1000
0000
0010
0000
,
0100
0000
0000
0010
0000
0000
2000
0000
0000
0000
0000
0000
3000
0000
0001
0000
,
0100
0000
0001
0010
0000
0100
1000
0000
0000
0000
0001
0000
0010
0000
0100
0000
,
2000
0000
0000
3200
0000
0000
2300
0000
0000
0000
0000
0000
3000
0000
0001
0100
,
0001
0000
0000
1000
0000
0000
0010
0000
0000
0000
1000
0000
0010
0000
0100
0000
,
0002
0000
0000
0023
0000
0000
0230
0000
0000
0000
0000
0000
0300
0000
1000
0010
,
1000
0000
0010
0100
0000
0001
0100
0000
0000
0000
0001
0000
0010
0000
0001
0000
,
2000
0000
0000
3200
0000
0000
0320
0000
0000
0000
0031
0000
1000
0000
0001
0000
,
0010
0000
0100
0000
1000
0100
1000
0000
0001
0000
0100
0000
0010
0100
0010
0000
,
0100
0000
0001
0000
1000
0001
1000
0000
0010
0000
1000
0000
0001
0100
0001
0000
,
1000
0000
0100
0000
0010
0100
0010
0000
0001
0000
1000
0000
0001
0100
0001
0000
,
1000
0000
0001
0000
1000
0100
1000
0000
1001
0000
0000
0011
0000
0000
0001
0000
,
1000
0000
1000
0000
0010
0100
0001
0000
0010
0000
0010
0000
0100
1000
0001
0000
,
0100
0000
0100
0000
0001
0100
0010
0000
1000
0000
1000
0000
0100
1000
0001
0000
,
0010
0000
0100
0000
0010
0001
1000
0000
0010
0000
1000
0000
0010
0100
0001
0000
,
1000
0000
0001
0000
0100
0001
1000
0000
0200
0000
0320
0000
0230
0000
0000
0000
,
0310
0000
0000
0100
0000
0000
0010
0000
0000
0000
0100
0000
1000
0000
0001
0000
,
0010
0000
0000
0011
0000
0000
0202
0000
0000
0000
0300
0000
1003
0000
0010
0100
,
0010
0000
1000
0010
0000
0100
0001
0000
0010
0000
0100
0000
0010
0000
0001
0000
,
1000
0000
0000
1100
0000
0000
0002
0000
2000
0000
0003
0000
3001
0000
0100
0001
,
0100
0000
0001
0010
0000
0100
1000
0000
0000
0000
0001
0000
0010
0000
0100
0000
,
0010
0000
0000
0101
0000
0000
2020
0000
0000
0000
3000
0000
1030
0000
0100
1000
,
0100
0000
1000
0010
0000
0100
0001
0000
0000
0000
1000
0000
0010
0000
0100
0000
,
0001
0000
0000
1100
0000
0000
0002
0000
2000
0000
0000
0000
3000
0000
0013
0000
,
0100
0000
0000
0110
0000
0000
0001
0000
1000
0000
0000
1010
0000
0000
0100
0000
,
0010
0000
0000
1001
0000
0000
0100
0000
0010
0000
0000
0011
0000
0000
1000
0001
,
1000
0000
0000
0110
0000
0000
1000
0010
1000
0000
0000
1100
0000
0000
0010
0001
,
0010
0000
0000
0110
0000
0000
0010
0001
0010
0000
0000
1001
0000
0000
1000
0010
,
1000
0000
0100
0010
0000
0000
0001
0010
0001
0000
0100
0010
0000
0000
1000
0100
,
1000
0000
0001
0100
0000
0000
0010
1000
0010
0000
0100
0001
0000
0000
1000
0100
,
2000
0000
0000
3200
0000
0000
0320
0000
0000
0000
0031
0000
0000
0000
0010
0001
,
2000
0000
0000
3002
0000
0000
0023
0000
0000
0000
0130
0000
0000
0000
1000
0100
,
1000
0000
0001
0100
0000
1000
0100
0000
0000
0000
0010
0000
0100
0000
0001
0000
,
0010
0000
0000
1010
0000
0000
0200
0000
0002
0000
0300
0000
0003
0000
1000
0100
,
1000
0000
0100
1000
0000
0001
0100
0000
0000
0000
0010
0000
0100
0000
0010
0000
,
1000
0000
0000
0110
0000
0000
0002
0000
0020
0000
0003
0000
0030
0000
0100
1000
,
0100
0000
0001
0100
0000
1000
0100
0000
0000
0000
0001
0000
1000
0000
0100
0000
,
0010
0000
0000
0011
0000
0000
2000
0000
0002
0000
0000
0000
3003
0000
0100
0000
,
0001
0000
1000
0100
0000
0010
0001
0000
0200
0000
0000
0000
0300
0000
0010
0000
,
0100
0000
0001
0010
0000
0100
1000
0000
0002
0000
0000
0000
0003
0000
0010
0100
,
0010
0000
0001
0100
0000
0100
1000
0000
0000
0000
1000
0000
0100
0000
0001
0000
,
0010
0000
0000
0010
0100
0000
1000
0000
0002
0000
0000
0000
0003
0000
1000
0100
,
1000
0000
0100
0010
0000
0010
1000
0000
0000
0000
0010
0000
0001
0000
0100
0000
,
0001
0000
0000
0000
0000
0000
0100
0000
0010
0000
0000
0000
1000
0000
0000
0000
0002
0000
0000
0000
0000
0000
0000
0000
0000
0003
0000
0000
1000
0000
0100
0000
,
1000
0000
0001
0010
0000
0010
1000
0000
0000
0000
0010
0000
0100
0000
1000
0000
,
0010
0000
0000
0100
0001
0000
0010
0000
2000
0000
0000
0000
3000
0000
0001
0000
,
0100
0000
1000
0100
0000
0010
0001
0000
0020
0000
0000
0000
0030
0000
0110
0000
,
1001
1010
0110
0101
,
1000
0001
0000
0000
0000
1000
0100
1000
,
0000
0000
0000
0000
0000
0000
0001
0000
0010
0000
0010
0000
0100
0000
1000
0100
,
1000
0100
0000
0000
0000
0001
0100
0010
,
0000
0000
0000
0000
0000
0000
0100
0010
0100
0000
0000
1001
0000
0000
1100
0000
,
2000
0000
0100
0000
3100
0010
0002
0000
,
0100
0000
0103
0000
0100
0010
0100
0001
,
0010
0000
0000
0100
0000
0000
1000
0000
0100
0000
0001
0000
1000
0000
0010
0000
,
0001
0000
1000
0000
0010
0000
0100
0000
0001
0000
0100
0000
0010
0000
1000
0100
,
1000
0000
0100
0010
0100
0000
0010
0001
0010
0000
0001
0000
1000
0000
0010
0000
,
0200
0000
0000
0302
0000
0000
2003
0000
3200
0000
0000
0000
1300
0100
1000
0100
,
1000
0000
0010
0100
0010
0000
1000
0100
1000
0000
0100
0010
0001
0000
0010
0000
,
0002
0000
0000
0203
0000
0000
0320
0000
2030
0000
0000
0000
3000
0000
0001
0010
,
0001
0000
0100
0010
0100
0000
0001
1000
0001
0000
0100
0010
1000
0000
0100
0010
,
0002
0000
0000
0023
0000
0000
0230
0000
2300
0000
0000
0000
3000
0000
0001
0100
,
0001
0000
0100
0010
1000
0000
1000
0000
0020
0000
0000
0000
0030
0000
1000
0100
,
1000
0000
0001
0100
0010
0000
0010
0000
0200
0000
0000
0000
0301
0000
0000
0000
,
0100
0001
0100
0001
0000
0000
0010
0100
0010
0100
0000
0000
1001
0000
0000
0000
,
0100
0000
0010
0000
0100
0001
1000
0000
0010
0000
1000
0000
0001
0010
0100
0000
,
1000
0000
0100
0000
0010
0001
0100
0000
1000
0000
0100
0000
0010
0100
0010
0000
,
1000
0000
0010
0000
0100
0001
1000
0000
0100
0000
0010
0000
0001
0100
0010
0000
,
1000
0000
0001
0000
1000
0001
0100
0000
0020
0030
2000
3000
0200
0300
0020
0030
,
0001
0000
1000
0000
0010
0100
0001
0000
1000
0000
0100
0000
1000
0010
0100
0000
,
1000
0000
0100
0000
0010
1000
0100
0000
0001
0000
0100
0000
0010
0001
0010
0000
,
0001
0000
0100
0000
0010
0100
0001
0000
0010
0000
0001
0000
0100
0010
1000
0000
,
1000
0000
0001
0100
0001
0100
0001
0100
0010
0000
0100
0001
1000
0100
1000
0000
,
0001
0000
1000
0000
0001
0100
0001
0100
0001
0000
1000
0000
0010
1000
0010
1000
,
0010
0000
1000
0000
0001
1000
0001
1000
0001
0000
0000
0000
0110
0000
0000
0000
,
0001
0000
1000
0000
0100
0010
0001
0010
0100
0000
1000
0000
0001
0100
0010
0100
,
0001
0000
0010
0000
0001
1000
0100
1000
0001
0000
0000
0000
0000
0000
0000
0000
,
0000
0000
0000
0000
;
#NOTES:
     dance-double:
     :
     Easy:
     6:
     :
00000000
00000000
00000000
00000000
,
00000000
00000000
00000000
00000000
,
00000000
00000000
00000000
00000000
,
00001000
00000100
00001000
00000001
,
00001000
00000001
00000100
00001000
,
00100000
01000000
00100000
01000000
,
10000000
01000000
00010000
00010000
,
00010000
00000100
00001000
00000001
,
00001000
00000001
00000100
00001000
,
00100000
01000000
00100000
01000000
,
10000000
01000000
00010000
00000000
,
00001000
00000000
00000010
00000000
,
00000010
00000001
00000100
00000000
,
00001000
00000000
00010000
00000000
,
01000000
10000000
00200000
00000000
,
00310000
00000000
00001000
00000000
,
00000010
00000001
00000100
00000000
,
00001000
00000000
00001000
00000000
,
00000100
00000001
00000010
00001000
,
00010000
00001000
00010000
00000000
,
00010000
00001000
00000100
00000001
,
00000010
00000100
00000010
00000000
,
00000001
00000100
00001000
00010000
,
00001000
01000000
00010000
10000000
,
00010000
10000000
01000000
00010000
,
00000010
00000100
00000010
00000100
,
00000001
00000100
00001000
00001000
,
00010000
00000000
00100000
00000000
,
00100000
10000000
01000000
00000000
,
00010000
00000000
00001000
00000000
,
00000100
00000001
00000010
00000000
,
00001000
00000000
00010000
00000000
,
00100000
10000000
01000000
00000000
,
00010000
00000000
00010000
00000000
,
01000000
10000000
00100000
00010000
,
00001000
00000100
00000010
00000000
,
00000010
00001000
00000100
00000000
,
00010000
00010000
00001000
00000000
,
00010000
00010000
00100000
00000000
,
10000000
10000000
00100000
00000000
,
00010000
00010000
00001000
00000000
,
00001000
00000100
00000001
00000100
,
00000001
00000100
00001000
00000100
,
00000001
00000100
00001000
00010000
,
01000000
00000000
01000000
00000000
,
00100000
00010000
00100000
00010000
,
01000000
00000000
10000000
00000000
,
01000000
00100000
00010000
00001000
,
00000100
00000010
00001000
00000000
,
00000001
00000010
00000100
00000000
,
00000010
00001000
00010000
01000000
,
10000000
01000000
00010000
00001000
,
00000100
00000000
00000100
00000000
,
00000010
00001000
00000010
00001000
,
00000100
00000000
00000001
00000000
,
00000100
00000010
00001000
00010000
,
01000000
00100000
00010000
00000000
,
10000000
00100000
01000000
00000000
,
00011000
00011000
00011000
00011000
,
00000110
00000000
00000000
00000000
,
00001100
00000000
00000000
00000000
,
00011000
00000000
00000000
00000000
,
01100000
00000000
00000000
00000000
,
10000000
01000000
00010000
01000000
,
10000000
01000000
00010000
00000000
,
00001000
00000100
00000010
00001000
,
00000001
00000010
00000001
00000000
,
00000001
00000100
00001000
00010000
,
01000000
00000000
01000000
00000000
,
00100000
00010000
00100000
00010000
,
01000000
00000000
10000000
00000000
,
01000000
00100000
00010000
00001000
,
00000100
00000010
00001000
00000000
,
00000001
00000010
00000100
00000000
,
00000010
00001000
00010000
01000000
,
01100000
00000000
00010000
00000000
,
00001000
00000100
00000001
00000001
,
00001000
00000001
00000100
00001000
,
00100000
01000000
00100000
01000000
,
10000000
01000000
00010000
00001000
,
00010000
00000100
00001000
00000001
,
00001000
00000001
00000100
00001000
,
00100000
01000000
00100000
01000000
,
10000000
01000000
00010000
00000000
,
01100000
00000000
01100000
00000000
,
01100000
00000000
00011000
00011000
,
00000110
00000000
00000110
00000000
,
00000110
00000000
00000110
00000000
,
00000000
00000000
00000000
00000000
;
#NOTES:
     dance-double:
     :
     Medium:
     10:
     :
00000000
00000000
00000000
00000000
,
00000000
00000000
00000000
00000000
,
00000000
00000000
00000000
00000000
,
10000000
01000000
10000000
00000000
10000000
00000000
00010000
00000000
,
10000000
01000000
00010000
00001000
,
00000010
00000100
00000010
00000000
00000010
00000000
00000100
00000000
,
00000001
00000000
00000100
00000000
00001000
00000001
00001000
00000000
,
00000001
00000100
00000001
00000100
,
00001000
00010000
00100000
00010000
,
00100000
01000000
00100000
01000000
,
10000000
01000000
00100000
00010000
,
00001000
00000000
00001000
00000000
00000010
00000001
00000100
00000000
,
00000010
00000100
00000001
00000000
,
00000001
00000100
00001000
00010000
,
01000000
10000000
00100000
00000000
,
10000000
00000000
00010000
00000000
00100000
00010000
01000000
00000000
,
00001000
00010000
00001000
00000000
,
00001000
00000000
00000100
00000000
00000001
00000100
00000001
00000000
,
00000010
00000001
00000100
00001000
,
00010000
01000000
00100000
00000000
00010000
00000000
10000000
00000000
,
00010000
10000000
01000000
00010000
,
00001000
00000100
00000010
00000000
00000001
00000000
00000010
00000000
,
00000100
00001000
00010000
00000000
,
00001000
00000100
00000010
00000000
00001000
00000000
00000001
00000000
,
00001000
00000001
00000100
00001000
,
00010000
01000000
00100000
00000000
10000000
00000000
00100000
00000000
,
01000000
00010000
00001000
00001000
,
00010000
00000000
00010000
00000000
00100000
10000000
01000000
00000000
,
00100000
01000000
10000000
00000000
,
10000000
01000000
00010000
00001000
,
00000100
00000001
00000010
00000000
,
00000001
00000000
00001000
00000000
00000010
00001000
00000100
00000000
,
00010000
00001000
00010000
00000000
,
00010000
00000000
01000000
00000000
10000000
01000000
10000000
00000000
,
00100000
10000000
01000000
00010000
,
00000010
00000100
00000001
00000000
00001000
00000000
00000100
00000000
,
00000010
00000001
00001000
00000000
00000001
00000000
00000000
00000000
,
00000100
00001000
00010000
00000000
01000000
00000000
10000000
00000000
,
00010000
00100000
00010000
00000000
00100000
00000000
00001000
00000000
,
00010000
00001000
00010000
00000000
00000010
00000000
00000010
00000000
,
00001000
00000010
00001000
00000000
00000100
00000000
00000100
00000000
,
00000010
00001000
00010000
00000000
00001000
00000000
00010000
00000000
,
00010000
00100000
10000000
00000000
00100000
00000000
10000000
00000000
,
00010000
00100000
00010000
00100000
,
00010000
01000000
00000000
00001000
00010000
00000000
00000000
00000000
,
00000010
00001000
00000010
00001000
,
00000100
00000010
00000000
00000100
00010000
00000000
00000000
00000000
,
00001000
00010000
00001000
00010000
,
00010000
01000000
00000000
00100000
00010000
00000000
00010000
00000000
,
00010000
00000000
00100000
00000000
01000000
00000000
10000000
01000000
,
00010000
00001000
00000010
00000001
,
00001000
00000010
00001000
00000010
,
00001000
00000100
00000000
00010000
00001000
00000000
00000000
00000000
,
00100000
00010000
00100000
00010000
,
01000000
00100000
00000000
01000000
00001000
00000000
00000000
00000000
,
00010000
00001000
00010000
00001000
,
00001000
00000100
00000000
00000010
00001000
00000000
00001000
00000000
,
00001000
00000000
00000010
00000000
00000100
00000000
00000001
00000100
,
00001100
00011000
00110000
01100000
,
10000000
10000000
00000000
00000000
00000000
00100000
00010000
00001000
,
00000000
00000000
00000000
00010000
00001000
00000100
00000000
00000000
,
00000010
00000100
00000000
00000000
00000000
00000100
00000010
00000100
,
00000000
00000000
00000000
00000000
00000000
00000000
00001000
00000000
00010000
00000000
00000000
00010000
00000000
00000000
00010000
00000000
,
00010000
00001000
00010000
00000000
00100000
00000000
01000000
00000000
,
00010000
01000000
10000000
00000000
,
10000000
01000000
00010000
00000000
00100000
00000000
00001000
00000000
,
00010000
00000000
00000100
00000000
00000010
00000000
00000010
00000100
,
00001000
00000010
00001000
00000010
,
00001000
00000100
00000000
00010000
00001000
00000000
00000000
00000000
,
00100000
00010000
00100000
00010000
,
01000000
00100000
00000000
01000000
00001000
00000000
00000000
00000000
,
00010000
00001000
00010000
00001000
,
00001000
00000100
00000000
00000010
00001000
00000000
00001000
00000000
,
00001000
00000000
00000010
00000000
00000100
00000000
00000001
00000100
,
00001000
00010000
00100000
10000000
,
10000000
01000000
00010000
00000000
00001000
00000010
00000001
00000000
,
00000001
00000100
00000001
00000000
00000001
00000000
00001000
00000000
,
00000001
00000100
00001000
00010000
,
00100000
01000000
00100000
00000000
00100000
00000000
01000000
00000000
,
10000000
00000000
01000000
00000000
00010000
10000000
00010000
00000000
,
10000000
01000000
10000000
01000000
,
00010000
00001000
00000010
00001000
,
00000010
00000100
00000010
00000100
,
00000001
00000100
00000010
00000001
,
00000001
00000100
00000000
00000000
00001000
00010000
00000000
00000000
,
00011000
01100000
01000000
10010000
,
10000000
01000000
00000000
00000000
00010000
00001000
00000000
00000000
,
00000110
00001001
00000110
00000000
,
00000000
00000000
00000000
00000000
;
#NOTES:
     dance-double:
     :
     Hard:
     13:
     :
00000000
00000000
00000000
00000000
,
00000000
00000000
00000000
00000000
,
00000000
00000000
00000000
00000000
,
10000000
01000000
10000000
01000000
10000000
00010000
01000000
00000000
,
10000000
01000000
00010000
00000000
10000000
01000000
00010000
00000000
,
00001000
00000100
00000010
00000100
00000001
00001000
00000100
00000000
,
00001000
00000010
00000001
00000000
00000010
00000100
00001000
00010000
,
00001000
00000100
00000001
00000100
00000001
00001000
00000100
00000000
,
00000001
00000100
00001000
00000000
00000001
00000100
00001000
00000000
,
00010000
01000000
00100000
01000000
10000000
00010000
01000000
00000000
,
00010000
00100000
10000000
00000000
00100000
01000000
00010000
00001000
,
00010000
00000000
00001000
00000000
00000010
00000001
00000100
00000001
,
00000010
00000100
00001000
00000010
,
00000001
00000000
00000010
00000000
00001000
00000100
00000010
00001000
,
00010000
00000000
00100000
00000000
01000000
00000000
10000000
01000000
,
00100000
00000000
10000000
00000000
00100000
10000000
01000000
10000000
,
00100000
01000000
00010000
00100000
,
10000000
00000000
00100000
00000000
00010000
01000000
00100000
00010000
,
00001000
00000000
00000010
00000000
00000001
00000100
00000010
00000100
,
00000001
00000010
00000001
00000010
00000001
00001000
00000010
00000000
,
00000001
00000010
00001000
00000000
00000001
00000010
00001000
00000000
,
00010000
00100000
01000000
00100000
10000000
00010000
00100000
00000000
,
00010000
01000000
10000000
00000000
01000000
00100000
00010000
00001000
,
00010000
00100000
10000000
00100000
10000000
00010000
00100000
00000000
,
10000000
00100000
00010000
00000000
10000000
00100000
00010000
00000000
,
00001000
00000010
00000100
00000010
00000001
00001000
00000010
00000000
,
00001000
00000100
00000001
00000000
00000100
00000010
00001000
00010000
,
00001000
00000000
00010000
00000000
00100000
10000000
01000000
10000000
,
00100000
01000000
00010000
00100000
,
10000000
00000000
00100000
00000000
00010000
01000000
00100000
00010000
,
00001000
00000000
00000010
00000000
00000100
00000000
00000001
00000100
,
00000010
00000000
00000001
00000000
00000010
00000001
00000100
00000001
,
00000010
00000100
00001000
00000010
,
00000001
00000000
00000010
00000000
00001000
00000100
00000010
00001000
,
00010000
00000000
00100000
00000000
10000000
01000000
00100000
01000000
,
10000000
00100000
10000000
00000000
00100000
10000000
01000000
00000000
,
00010000
00001000
00010000
00000000
00000100
00001000
00000010
00000000
,
00001000
00000100
00001000
00000000
00000001
00000010
00000100
00000000
,
00000010
00001000
00010000
00000000
00100000
01000000
00100000
00000000
,
00010000
00100000
00010000
00000000
00100000
01000000
00100000
00000000
,
10000000
00100000
10000000
00000000
01000000
00100000
01000000
00000000
,
00010000
00001000
00000100
00000000
00000010
00000000
00000100
00000000
,
00001000
00000100
00000001
00000000
00000010
00000000
00000001
00000000
,
00000001
00000010
00000001
00000100
00000001
00001000
00000010
00000000
,
00000100
00001000
00000000
00010000
01000000
00000000
10000000
00000000
,
00100000
01000000
10000000
01000000
00100000
00010000
00100000
10000000
,
01000000
00100000
00000000
01000000
10000000
00000000
01000000
00000000
,
00010000
00001000
00000100
00000010
00000001
00000010
00001000
00000100
,
00000010
00000100
00000000
00000010
00001000
00000000
00010000
00001000
,
00010000
00100000
00000000
00010000
00100000
00000000
10000000
01000000
,
10000000
01000000
00000000
00010000
01000000
00000000
10000000
00000000
,
10000000
00100000
10000000
01000000
10000000
00010000
00100000
00000000
,
01000000
00010000
00000000
00001000
00000100
00000000
00000001
00000000
,
00000010
00000100
00000001
00000100
00000010
00001000
00000010
00000001
,
00000100
00000010
00000000
00000100
00000001
00000000
00000100
00000000
,
00001000
00010000
01000000
00100000
10000000
00100000
00010000
01000000
,
00100000
01000000
00000000
00100000
00010000
00000000
00001000
00010000
,
00001000
00000010
00000000
00001000
00000010
00000000
00000001
00000000
,
00000110
00001100
00011000
01100000
,
10000000
01000000
00000000
00000000
00000000
00100000
00010000
00001000
,
00000000
00000000
00000000
00000100
00000001
00000100
00000000
00000000
,
00001000
00000100
00000000
00000000
00000000
00000010
00000100
00001000
,
00000000
00000000
00000000
00000000
00000000
00000000
00010000
00000000
00110000
00000000
00000000
01100000
00000000
00000000
11000000
00000000
,
00010000
10000000
01000000
00000000
10000000
00000000
01000000
00000000
,
00010000
00000000
00001000
00000000
00000100
00000000
00000001
00000100
,
00001000
00000100
00000010
00000001
00000010
00000100
00001000
00000000
,
00010000
01000000
00100000
10000000
00100000
01000000
00010000
00001000
,
00010000
00000100
00001000
00000001
,
00000001
00000000
00000010
00000000
00000001
00000000
00000010
00000000
00000100
00000000
00000000
00000000
00000010
00000100
00000010
00000000
,
00001000
00000000
00010000
00000000
01000000
00000000
10000000
01000000
,
00100000
01000000
10000000
01000000
00010000
00000000
00001000
00000010
,
00000100
00001000
00000010
00000001
00000010
00000000
00000100
00000000
,
00001000
00010000
00000000
00001000
00100000
00000000
00010000
00100000
,
00010000
01000000
00000000
01000000
00100000
00000000
00010000
00001000
,
00000010
00000000
00001001
00000000
00000100
00000010
00000100
00000000
,
00001000
00000100
00001000
00000000
00000000
00000000
00010000
00001000
00010000
00000000
00000000
00000000
01000000
00000000
00000000
00000000
,
10000000
01000000
10000000
01000000
10000000
00010000
01000000
00000000
,
10000000
01000000
00010000
00000000
10000000
01000000
00010000
00000000
,
00001000
00000100
00000010
00000100
00000001
00001000
00000100
00000000
,
00001000
00000010
00000001
00000000
00000010
00000100
00001000
00010000
,
00001000
00000100
00000001
00000100
00000001
00001000
00000100
00000000
,
00000001
00000100
00001000
00000000
00000001
00000100
00001000
00000000
,
00010000
01000000
00100000
01000000
10000000
00010000
01000000
00000000
,
00010000
00100000
10000000
00000000
00100000
01000000
00010000
00001000
,
00000100
00000000
00000001
00000000
00000010
00000001
00000000
00000000
00000100
00000000
00000001
00000000
00000100
00000001
00000000
00000000
,
00001000
00000000
00000100
00000000
00001000
00000010
00001000
00000000
00000100
00000000
00000000
00000000
00011000
00000000
00000000
00000000
,
01000000
00000000
10000000
00000000
00100000
10000000
00000000
00000000
01000000
00000000
10000000
00000000
01000000
10000000
00000000
00000000
,
00010000
00000000
01000000
00000000
00010000
00100000
00010000
00000000
01000000
00000000
00000000
00000000
00000000
00000000
00000000
00000000
,
00000000
00000000
00000000
00000000
;
#NOTES:
     dance-double:
     :
     Challenge:
     15:
     :
00000000
00000000
00000000
00000000
,
00000000
00000000
00000000
00000000
,
00000000
00000000
00000000
00000000
,
00010000
00000000
01000000
00000000
00100000
10000000
00100000
00000000
01000000
00000000
00010000
00000000
01000000
00001000
01000000
00000000
,
00001000
00000000
00100000
00000000
00001000
00010000
00001000
00000000
00000100
00000000
00001000
00000000
00010000
00001000
00010000
00000000
,
00000100
00000000
00001000
00000000
00000010
00001000
00000010
00000000
00000100
00000000
00000010
00000000
00000100
00000001
00000100
00000000
,
00000010
00000000
00000000
00000000
00000000
00000000
00000000
00000000
00010000
00000000
00000000
00000000
00000000
00000000
00000000
00000000
00001000
00000000
00000000
00000000
00010000
00000000
00000000
00000000
00001000
00000000
00000000
00000000
00000000
00000000
00000000
00000000
00020000
00030000
00000000
00000000
00000000
00000000
00000000
00000000
00002000
00003000
00000000
00000000
00000000
00000000
00000000
00000000
00020000
00030000
00000000
00000000
00000000
00000000
00000000
00000000
00020000
00030000
00000000
00000000
00000000
00000000
00000000
00000000
,
01000000
00000000
10000000
00000000
00100000
01000000
00010000
00000000
00100000
00000000
00001000
00000000
00010000
00001000
01000000
00000000
,
00100000
00000000
00010000
00000000
00001000
00010000
00001000
00000000
00010000
00000000
00000010
00000000
00000100
00000010
00001000
00000000
,
00000001
00000000
00000100
00000000
00000010
00010000
00001000
00000000
00000010
00000000
00001000
00000000
00010000
00001000
00010000
00000000
,
00001000
00000000
00100000
00000000
01000000
00010000
00001000
00000000
00000100
00000000
00000010
00000000
00001000
00000001
00000100
00000000
,
00000002
00000000
00000000
00002003
00000000
00000000
00003020
00000000
00000000
00000000
00000130
00000000
00000001
00000000
00000010
00000000
,
00002000
00000000
00000000
00023000
00000000
00000000
00130000
00000000
02000000
00000000
00000000
00000000
03100000
00000000
10000000
00000000
,
02000000
00000000
00000000
03020000
00000000
00000000
20030000
00000000
00000000
00000000
30100000
00000000
00010000
00000000
01000000
00000000
,
00002000
00000000
00000000
00023000
00000000
00000000
00030100
00000000
00000020
00000000
00000000
00000000
00000031
00000000
00001000
00000000
,
00000020
00000000
00000000
00000032
00000000
00000000
00002003
00000000
00000000
00000000
00003100
00000000
00000010
00000000
00010000
00000000
,
00000200
00000000
00000000
00000320
00000000
00000000
00001030
00000000
00020000
00000000
00000000
00000000
00031000
00000000
01000000
00000000
,
00200000
00000000
00000000
02300000
00000000
00000000
03020000
00000000
00000000
00000000
10030000
00000000
00100000
00000000
00010000
00000000
,
00200000
00000000
00000000
00320000
00000000
00000000
00032000
00000000
00000000
00000000
00013000
00000000
00001000
00000000
00000020
00000000
,
00000001
00000000
00000000
00000000
00001030
00000000
00000001
00000000
00000100
00000000
00000010
00000000
00000001
00000100
00000001
00000000
,
00001000
00000000
00000010
00000000
00010000
00000010
00010000
00000000
00001000
00000000
00100000
00000000
00010000
01000000
00010000
00000000
,
00100000
00000000
00010000
00000000
10000000
00100000
10000000
00000000
00010000
00000000
00100000
00000000
01000000
10000000
01000000
00000000
,
00100000
00000000
00001000
00000000
00010000
00000010
00010000
00000000
00002000
00000000
00000000
00003200
00000000
00000000
00000302
00000000
,
00000023
00000000
00000000
00000000
00000130
00000000
00001000
00000000
00000010
00000000
00010000
00000000
00001000
00010000
00100000
00000000
,
01000000
00000000
00010000
00000000
10000000
01000000
00100000
00000000
00010000
00000000
00100000
00000000
00001000
01000000
00010000
00000000
,
00100000
00000000
00001000
00000000
00010000
00001000
00000010
00000000
00000100
00000000
00001000
00000000
00000001
00000100
00000010
00000000
,
00001000
00000000
00000000
00000000
00000000
00000000
00000000
00000000
00000100
00000000
00000000
00000000
00000000
00000000
00000000
00000000
00010000
00000000
00000000
00000000
00001000
00000000
00000000
00000000
01000000
00000000
00000000
00000000
00000000
00000000
00000000
00000000
00002000
00003000
00000000
00000000
00000000
00000000
00000000
00000000
00020000
00030000
00000000
00000000
00000000
00000000
00000000
00000000
00002000
00000000
00000000
00000000
00000000
00000000
00000000
00000000
00000000
00000000
00000000
00000000
00000000
00000000
00000000
00000000
,
00023000
00000000
00000000
02030000
00000000
00000000
23000000
00000000
00000000
00000000
30100000
00000000
00010000
00000000
00001000
00000000
,
00000020
00000000
00000000
00000230
00000000
00000000
00000301
00000000
00002000
00000000
00000010
00000000
00003010
00000000
00000001
00000000
,
00000200
00000000
00000000
00002300
00000000
00000000
00023000
00000000
00000000
00000000
01030000
00000000
00100000
00000000
00010000
00000000
,
20000000
00000000
00000000
30200000
00000000
00000000
00310000
00000000
00002000
00000000
00000100
00000000
00003100
00000000
00000001
00000000
,
00000020
00000000
00000000
00000230
00000000
00000000
00020300
00000000
00000000
00000000
00031000
00000000
00000100
00000000
00000001
00000000
,
00000020
00000000
00000000
00000230
00000000
00000000
00020300
00000000
00001000
00000000
00031000
00000000
00100000
00000000
00010000
00000000
,
20000000
00000000
00000000
32000000
00000000
00000000
03020000
00000000
00000000
00000000
00031000
00000000
00100000
00000000
01000000
00000000
,
00020000
00000000
00000000
00032000
00000000
00000000
00003010
00000000
00000100
00000000
00001000
00000000
00000001
00000000
00000010
00000000
,
00000100
00000000
00001000
00000010
00000000
00000000
00000100
00000000
00000001
00000000
00000010
00001000
00000000
00000000
00010000
00000000
,
00001000
00000000
00010000
01000000
00000000
00000000
00100000
00000000
00010000
00000000
10000000
00100000
00000000
00000000
01000000
00000000
,
00001000
00000000
00010000
00100000
00000000
00000000
01000000
00000000
00010000
00000000
10000000
01000000
00000000
00000000
00010000
00000000
,
00001000
00000000
00010000
00000010
00000000
00000000
00001000
00000000
00000010
00000000
00000100
00001000
00000000
00000000
00000001
00000010
,
00000002
00000000
00000000
00000013
00000000
00000000
00000100
00000000
00002000
00000000
00000000
00013000
00000000
00000000
00100000
01000000
,
00200000
00000000
00000000
10300000
00000000
00000000
01000000
00100000
02000000
00000000
00000000
03010000
00000000
00000000
01000000
00000000
,
00020000
00000000
00000000
10000000
00000000
00000000
01000000
00000000
00000000
00000000
00032000
00000000
00000000
00000000
00013000
00000000
,
00002000
00000000
00000000
00000010
00000000
00000000
00003002
00000000
00000000
00000000
00000103
00000000
00010000
00000000
00001000
00000000
,
00000010
00000000
00000100
00001000
00000000
00000010
00000200
00000000
00000000
00000000
00000301
00000000
00000010
00000000
00001000
00000000
,
00020000
00000000
00000000
00000100
00000000
00000000
00032000
00000000
00203000
00000000
00000000
00000000
01300000
00000000
00010000
00000000
,
10000000
00000000
00100000
01000000
00000000
10000000
02000000
00000000
00000000
00000000
03010000
00000000
00001000
00000000
00100000
00000000
,
00002000
00000000
00000000
00010000
00000000
00000000
00003020
00000000
00000230
00000000
00000000
00000000
00000301
00000000
00001000
00000000
,
00000010
00000000
00000001
00000100
00000000
00000010
00002000
00000000
00000000
00000000
00003001
00000000
00000010
00000000
00001000
00000000
,
00020000
00000000
00000000
00100000
00000000
00000000
20030000
00000000
32000000
00000000
00000000
00000000
03010000
00000000
00100000
00000000
,
00002000
00000000
00000000
00010000
00000000
00000000
00003200
00000000
00000320
00000000
00000000
00000000
00000130
00000000
00000001
00000000
,
00000020
00000000
00000000
00000100
00000000
00000000
00002030
00000000
00023000
00000000
00000000
00000000
00031000
00000000
00100000
00000000
,
00010000
00000000
00100000
00001000
00000000
01000000
00020000
00000000
00000000
00000000
10030000
00000000
01000000
00000000
00100000
00000000
,
02000000
00000000
00000000
00100000
00000000
00000000
03020000
00000000
00032000
00000000
00000000
00000000
00103000
00000000
01000000
00000000
,
00010000
00000000
00001000
00010000
00000000
00000010
00002000
00000000
00000000
00000000
00003100
00000000
00000001
00000000
00001000
00000000
,
00000020
00000000
00000000
00000001
00000000
00000000
00002030
00000000
00023000
00000000
00000000
00000000
00130000
00000000
01000000
00000000
,
00010000
00000000
10000000
00010000
00000000
00100000
02000000
00000000
00000000
00000000
03100000
00000000
00001000
00000000
00010000
00000000
,
00000200
00000000
00000000
00010000
00000000
00000000
00000320
00000000
00002030
00000000
00000000
00000000
00003010
00000000
00000001
00000000
,
00000020
00000000
00000000
00000100
00000000
00000000
00000032
00000000
00002003
00000000
00000000
00000000
00003001
00000000
00000000
00000000
,
00000002
00000003
00000000
00000000
00000000
00000000
00000000
00000000
00000000
00000000
00000000
00000000
00000000
00000000
00000000
00000000
00002000
00003000
00000000
00000000
00000000
00000000
00000000
00000000
00000000
00000000
00000000
00000000
00000000
00000000
00000000
00000000
00020000
00030000
00000000
00000000
00000000
00000000
00000000
00000000
00000000
00000000
00000000
00000000
00000000
00000000
00000000
00000000
20000000
30000000
00000000
00000000
00000000
00000000
00000000
00000000
00000000
00000000
00000000
00000000
00000000
00000000
00000000
00000000
,
10000000
01000000
00000000
00000000
00000000
00000100
00000010
00000001
,
00000000
00000000
00000000
00000000
00000000
00000000
00001000
00010000
00001000
00000000
00100000
00000000
00010000
00000000
01000000
00000000
,
00100000
10000000
00000000
00000000
00000000
00000001
00000100
00000010
,
00000000
00000000
00000000
00000000
00000000
00000000
00010000
00001000
00010000
00000000
00000000
00100000
00000000
00000000
01000000
00000000
,
10000000
01000000
00001000
00000100
,
00000001
00000010
00010000
00100000
,
10000000
01000000
00010000
00001000
00010000
00001000
00000010
00000001
,
00000200
00000010
00000010
00000310
00010000
00001000
00010000
01000000
,
10000000
00000000
00100000
01000000
00000000
10000000
01000000
00000000
00100000
00000000
00010000
00000000
00001000
00000000
01000000
00000000
,
00010000
00000000
00100000
00001000
00000000
00001000
00000010
00000000
00000002
00000000
00000000
00000000
00001003
00000010
00001000
00000010
,
00000100
00000000
00000001
00001000
00000000
00000010
00001000
00000000
00000100
00000000
00000010
00000000
00001000
00000000
00010000
00000000
,
00001000
00000000
00100000
01000000
00000000
01000000
10000000
00000000
20000000
00000000
00000000
00000000
30000000
00000000
00010000
01000000
,
00010000
00000000
00100000
01000000
00000000
00010000
00001000
00000000
00000100
00000000
00000010
00000000
00000001
00000000
00000010
00000000
,
00000100
00000000
00001000
00010000
00000000
00010000
00000100
00000000
00002000
00000000
00000000
00000000
00003010
00000000
00000100
00000000
,
00002000
00000000
00000000
00010000
00000000
00000000
00203000
00000000
00320000
00000000
00000000
00000000
01030000
00000000
00100000
00000000
,
20000000
00000000
00000000
01000000
00000000
00000000
30020000
00000000
00230000
00000000
00000000
00000000
00301000
00000000
00000000
00000000
,
01000000
00001000
01000000
00001000
00000000
00000000
00010000
00000100
00010000
00000100
00000000
00000000
00000020
00000000
00000000
00000000
,
00000031
00000000
00000100
00000000
00001000
00010000
00001000
00000000
00010000
00000000
00100000
00000000
01000000
10000000
01000000
00000000
,
00010000
00000000
00100000
00000000
00001000
00010000
00001000
00000000
00010000
00000000
01000000
00000000
10000000
00010000
10000000
00000000
,
01000000
00000000
00010000
00000000
00001000
00000010
00001000
00000000
00000010
00000000
00000001
00000000
00001000
00000010
00001000
00000000
,
00000001
00000000
00000000
00000000
00000000
00000000
00000000
00000000
00000100
00000000
00000000
00000000
00000000
00000000
00000000
00000000
00001000
00000000
00000000
00000000
00010000
00000000
00000000
00000000
00001000
00000000
00000000
00000000
00000000
00000000
00000000
00000000
00020000
00030000
00000000
00000000
00000000
00000000
00000000
00000000
00020000
00030000
00000000
00000000
00000000
00000000
00000000
00000000
00002000
00003000
00000000
00000000
00000000
00000000
00000000
00000000
00002000
00003000
00000000
00000000
00000000
00000000
00000000
00000000
,
00010000
00000000
01000000
00000000
10000000
00100000
01000000
00000000
00010000
00000000
01000000
00000000
00010000
00100000
00001000
00000000
,
00010000
00000000
00000100
00000000
00001000
00000001
00000100
00000000
00000010
00000000
00001000
00000000
00000010
00000100
00000001
00000000
,
00001000
00000000
00000100
00000000
00010000
00001000
00100000
00000000
01000000
00000000
10000000
00000000
00100000
10000000
00010000
00000000
,
01000000
00000000
00001000
00000000
00100000
00001000
00010000
00000000
00000010
00000000
00010000
00000000
00000100
00000010
00000001
00000000
,
00000010
00000000
00000001
00000000
00001000
00000010
00001000
00000010
00010000
00000000
00001000
00000000
01000000
00010000
01000000
00010000
,
10000000
00000000
00100000
00000000
10000000
01000000
10000000
01000000
00100000
00000000
00000000
00000000
01000000
00000000
00000000
00000000
,
10000000
00000000
01000000
00000000
00010000
00001000
00010000
00001000
00100000
00000000
01000000
00000000
00010000
00001000
00010000
00001000
,
00000100
00000000
00000001
00000000
00001000
00000100
00000010
00000001
00001000
00000000
00000000
00000000
00000000
00000000
00000000
00000000
,
00000000
00000000
00000000
00000000
;
