
//----- song ID: life -----//
#TITLE:Life is beautiful;
#ARTIST:BEMANI Sound Team "猫叉Master";
#ARTISTTRANSLIT:BEMANI Sound Team "Nekomata Master";
#BANNER:Life is beautiful.png;
#BACKGROUND:Life is beautiful-bg.png;
#CDTITLE:./CDTitles/DDR A.png;
#MUSIC:Life is beautiful.ogg;
#SAMPLESTART:85.158;
#SAMPLELENGTH:15;
#BPMS:0=155;
#NOTES:
     dance-single:
     :
     Beginner:
     5:
     :
0000
0000
0000
0000
,
0000
0000
0000
0000
,
0000
0000
0000
0000
,
0000
0000
0000
0000
,
0000
0000
0000
0000
,
0000
0000
0000
0000
,
2000
0000
3000
0000
,
0020
0000
0030
0000
,
0002
0000
0003
0000
,
0010
0010
0010
0000
,
1001
0000
0000
0000
,
0001
0000
0010
0000
0001
0000
0000
0001
,
0000
0001
0000
0001
0000
0000
0000
0000
,
1000
1000
1000
0000
,
0020
0030
0010
0000
,
1000
0010
1000
0000
,
1000
1000
1000
0000
,
0001
0000
0001
0000
,
0001
0010
0010
0000
,
1000
0000
0010
0000
1000
0000
0000
1000
,
0000
1000
0000
1000
0000
0000
0000
0000
,
0001
0001
0001
0000
,
0020
0030
0010
0000
,
0001
0010
0001
0000
,
0001
0001
0001
0000
,
1000
0000
1000
0000
,
1000
0010
0010
0000
,
2000
0000
3000
1000
,
0000
1000
0000
0000
,
0000
0000
0000
0000
,
0002
0000
0003
0001
,
0000
0001
0000
0000
,
0000
0000
0000
0000
,
0200
0000
0300
0100
,
0000
0100
0000
0000
,
0000
0000
0000
0000
,
0020
0000
0030
0010
,
0000
0010
0000
0000
,
0000
0000
0000
0000
,
1000
1000
1000
0010
,
0010
0010
1000
0000
,
0010
0010
0010
1000
,
1000
1000
0010
0000
,
0001
0001
0001
0010
,
0010
0010
0001
0000
,
0010
0000
0100
0000
,
0010
0000
0100
0000
,
0001
0001
0001
0010
,
0010
0010
0001
0000
,
0010
0010
0010
0001
,
0001
0001
0010
0000
,
1000
1000
1000
0010
,
0010
0010
1000
0000
,
0010
0000
0100
0000
,
0010
0000
0100
0000
,
2000
0000
3000
0000
,
0020
0000
0030
0000
,
0002
0000
0003
0000
,
0020
0000
0030
0000
,
2000
0000
3000
0000
,
1001
0000
0000
0000
,
0002
0000
0003
0000
,
1001
0000
0000
0000
,
0002
0000
0003
0000
,
0020
0000
0030
0000
,
2000
0000
3000
0000
,
0020
0000
0030
0000
,
0002
0000
0003
0000
,
1001
0000
0000
0000
,
2000
0000
3000
0000
,
1001
0000
0000
0000
,
1000
0000
0010
0000
,
1000
0010
1000
0000
,
0001
0000
0010
0000
,
0001
0010
0001
0000
,
1000
1000
1000
0100
,
0100
0100
1000
1000
,
1000
0010
0010
0010
,
1000
0001
1000
0001
,
0000
0000
0000
0000
;
#NOTES:
     dance-single:
     :
     Easy:
     8:
     :
0000
0000
0000
0000
,
0000
0000
0000
0000
,
0000
0000
0000
0000
,
0000
0000
0000
0000
,
0000
0000
0000
0000
,
0000
0000
0000
0000
,
1000
1000
1000
0100
,
0001
0001
0001
0100
,
1000
1000
1000
0010
,
0001
0001
0001
0010
,
1001
0000
0000
0000
,
0001
0000
0100
0000
0010
0000
1000
0001
,
0000
0010
0000
0100
0000
1000
0000
0001
,
0100
0010
1000
0001
,
1000
0100
0110
0110
,
1000
0000
0100
0000
0010
0000
0001
0010
,
0001
0100
0010
1000
,
0001
0100
1000
0100
,
0001
1000
0010
0000
,
1000
0000
0100
0000
0010
0000
0001
1000
,
0000
0010
0000
0100
0000
0001
0000
1000
,
0100
0010
0001
1000
,
0001
0100
0110
0110
,
0001
0000
0100
0000
0010
0000
1000
0010
,
1000
0100
0010
0001
,
1000
0100
0001
0100
,
1000
0001
0010
0000
,
0001
0011
1000
1100
,
0010
0100
0010
0000
0000
0000
0001
0000
,
0100
1000
0100
0001
,
1000
1010
0001
0101
,
0010
0110
1001
0000
,
0100
0100
0010
0010
,
1000
1001
0010
0110
,
1000
0100
0010
0000
0000
0000
0000
0000
,
0001
0010
0100
1000
,
0001
0011
1000
1100
,
0001
0101
0110
0000
,
1000
1000
0001
0001
,
1000
0001
0100
0000
0010
0000
1000
0001
,
0010
0100
1001
1100
,
0001
1000
0010
0000
0100
0000
0010
1000
,
0001
1000
1001
0110
,
1000
0001
0010
0000
0100
0000
1000
0100
,
0010
0001
0011
1100
,
0020
0000
0001
0031
0000
0000
0002
0000
,
1000
1003
0000
0000
0100
0000
1001
0000
,
0001
1000
0100
0000
0010
0000
0001
1000
,
0010
0100
1001
0101
,
1000
0001
0010
0000
0100
0000
0010
0001
,
1000
0001
1001
0110
,
0001
1000
0010
0000
0100
0000
0001
0100
,
0010
1000
1010
0101
,
0020
0000
1000
1030
0000
0000
2000
0000
,
0001
3001
0000
0000
0100
0000
1001
0000
,
2000
0000
3010
0000
,
0002
0000
0013
0000
,
2000
0000
3002
0000
,
2003
0000
3020
0000
,
0230
0000
0301
0000
,
0020
0000
1030
0000
,
0001
0100
0010
0110
,
1000
0001
1001
0000
,
2000
0000
3100
0000
,
0002
0000
0013
0000
,
0001
1000
0001
0010
,
0100
1000
1001
0000
,
0002
0000
0103
0000
,
2000
0000
3010
0000
,
0001
0001
0100
0100
,
1000
1000
0010
0010
,
1002
0103
2001
3100
,
1002
0013
2001
3010
,
1001
1001
0110
0110
,
0001
0000
1000
0000
0100
0010
0100
0000
,
0011
0110
1100
0110
,
1001
1001
0110
0110
,
1002
0103
2001
3010
,
0110
1001
0110
1001
,
0000
0000
0000
0000
;
#NOTES:
     dance-single:
     :
     Medium:
     12:
     :
0000
0000
0000
0000
,
0000
0000
0000
0000
,
0000
0000
0000
0000
,
0000
0000
0000
0000
,
0000
0000
0000
0000
,
0000
0000
0000
0000
,
2000
0100
0001
3100
,
0002
0000
0100
0000
1000
0000
0103
0010
,
2000
0100
0001
3010
,
1001
1010
1001
0011
,
0220
0000
0000
0000
0330
0000
0000
1000
,
0001
0010
0100
1000
0001
1000
0001
0001
,
0100
0010
1000
0001
0010
0100
1000
0001
,
0001
1000
0100
0010
0100
0001
0100
1000
,
0010
1000
0001
0100
0020
0000
1030
0000
,
1000
0010
0100
0001
1000
0010
0010
0100
,
0001
0010
0100
1000
0100
0010
0001
1000
,
0100
0000
0010
0001
0010
0100
0010
0001
,
1000
0010
0001
0010
1000
0001
0100
0000
,
1000
0010
0100
0001
1000
0001
1000
1000
,
0100
0010
0001
1000
0010
0100
0001
1000
,
1000
0001
0100
0010
0100
1000
0100
0001
,
0010
0001
1000
0100
0020
0000
0031
0000
,
0001
0010
0100
1000
0001
0010
0010
0100
,
1000
0010
0100
0001
0100
0010
1000
0001
,
0100
0000
0010
1000
0010
0100
0010
1000
,
0001
0010
1000
0010
0001
1000
0100
0000
,
0110
0000
0000
0011
0000
0000
1001
0000
,
0000
1010
0000
0000
0001
0000
0100
0000
,
1000
0001
0010
1000
,
0110
0000
0000
0101
0000
0000
1001
0000
,
0000
1100
0000
0000
0110
0000
0000
0000
,
0001
0010
0001
1000
,
1100
0000
0000
0110
0000
0000
0011
0000
,
0000
1001
0000
0000
1000
0000
0010
0000
,
0001
1000
0100
0001
,
0110
0000
0000
0101
0000
0000
1001
0000
,
0000
0011
0000
0000
0110
0000
0000
0000
,
1000
0001
1000
1001
,
1000
0001
0010
0010
0001
1000
1000
0010
,
0100
0100
0001
1000
0001
0100
1000
0100
,
0001
1000
0010
0010
0100
0001
0001
1000
,
0100
0100
0010
0001
1000
0100
0001
0100
,
1000
0010
0001
1000
0100
0001
1000
0100
,
0001
1000
0010
0001
0010
0100
1000
0100
,
0020
0000
0000
0031
0000
0000
0002
0000
0000
0103
0000
0000
0200
0000
0000
0310
,
0000
0000
0020
0000
0000
1030
0000
0000
0110
0000
0000
0000
1001
0000
0000
0000
,
0001
1000
0010
0010
1000
0001
0001
0010
,
0100
0100
1000
0001
1000
0100
0001
0100
,
1000
0001
0010
0010
0100
1000
1000
0001
,
0100
0100
0010
1000
0001
0100
1000
0100
,
0001
0010
1000
0001
0100
1000
0001
0100
,
1000
0001
0010
1000
0010
0100
0001
0100
,
0020
0000
0000
1030
0000
0000
2000
0000
0000
3100
0000
0000
0200
0000
0000
0310
,
0000
1001
0000
0000
0110
0000
1001
0000
,
1000
0000
0000
0100
0000
0000
0010
0000
0110
0000
0000
0000
0000
0000
0000
0000
,
0001
0000
0000
0100
0000
0000
0010
0000
1010
0000
0000
0000
0000
0000
0000
0000
,
1000
0000
0000
0000
0000
0000
0000
0000
0000
0100
0000
0000
0000
0000
0000
0000
0000
0000
0010
0000
0000
0000
0000
0000
0001
0000
0000
0000
0000
0000
0000
0000
0010
0000
0000
0000
0000
0000
0000
0000
0100
0000
0000
0000
0000
0000
0000
0000
,
1000
0000
0000
0010
0000
0000
0100
0000
0101
0000
0000
0000
0000
0000
0000
0000
,
0001
0000
0000
0010
0000
0000
0100
0000
1100
0000
0000
0000
0000
0000
0000
0000
,
0010
0000
0000
0001
0000
0000
1000
0000
1010
0000
0000
0000
0000
0000
0000
0000
,
1000
0001
1000
0001
0010
0100
1000
0001
,
0100
0010
0100
0010
1000
0001
0010
0000
,
0001
0000
0000
0100
0000
0000
0010
0000
0110
0000
0000
0000
0000
0000
0000
0000
,
1000
0000
0000
0100
0000
0000
0010
0000
0011
0000
0000
0000
0000
0000
0000
0000
,
0001
0000
0000
0000
0000
0000
0000
0000
0000
0100
0000
0000
0000
0000
0000
0000
0000
0000
0010
0000
0000
0000
0000
0000
1000
0000
0000
0000
0000
0000
0000
0000
0010
0000
0000
0000
0000
0000
0000
0000
0100
0000
0000
0000
0000
0000
0000
0000
,
0001
0000
0000
0010
0000
0000
0100
0000
1100
0000
0000
0000
0000
0000
0000
0000
,
1000
0000
0000
0010
0000
0000
0100
0000
0101
0000
0000
0000
0000
0000
0000
0000
,
0010
0000
0000
1000
0000
0000
0001
0000
0011
0000
0000
0000
0000
0000
0000
0000
,
0001
1000
0001
1000
0010
0100
0001
1000
,
0100
0010
0100
0010
0001
1000
0010
0000
,
1000
0100
0010
0000
0001
0100
0010
0000
,
1000
0010
0100
0000
0001
0010
0100
1000
,
0001
0100
0010
0000
1000
0010
0100
0000
,
0001
0010
0100
0000
1000
0100
0010
0001
,
1000
0100
1000
0001
0010
0001
0100
0010
,
0100
0001
1000
0001
1000
0010
0001
1000
,
0100
0001
1000
0100
0001
1000
0010
0001
,
0110
0000
0000
1001
0000
0000
1010
0000
0000
1001
0000
0000
0101
0000
0000
1001
,
0000
0000
0000
0000
;
#NOTES:
     dance-single:
     :
     Hard:
     16:
     :
0000
0000
0000
0000
,
0000
0000
0000
0000
,
0000
0000
0000
0000
,
0000
0000
0000
0000
,
0000
0000
0000
0000
,
0000
0000
0000
0000
0000
0000
0000
0000
1000
0001
1000
0000
0000
0000
0010
0000
,
2000
0000
0100
0000
0100
0000
3100
0010
,
0002
0000
1000
0000
1003
0010
0100
0001
,
2000
0010
0010
3010
,
0100
0000
0000
0100
0001
0000
0000
0001
1000
0000
0100
0000
0010
0001
0010
0000
,
0220
0000
0000
0000
0330
0000
0000
1000
,
0001
0000
0010
0001
0010
0000
0100
1000
0100
0000
0010
0000
0001
1000
0010
0000
,
0100
0001
1000
0000
0010
0100
0010
0000
0100
0000
0001
0100
0010
1000
0001
0000
,
0010
0000
0100
0010
0001
0000
1000
0100
1000
0000
0001
0010
0100
0000
1000
0001
,
0010
0000
0100
0010
0100
0000
1000
0000
1100
0000
0010
0000
1001
0000
0000
0000
,
0001
0000
0100
0010
0100
0000
0001
1000
0001
0000
0010
0100
1000
0000
0001
1000
,
0001
0000
0100
0001
1000
0000
0010
0100
0001
0000
1000
0001
0010
0000
0100
0000
,
0110
0000
0000
0000
0001
0010
0100
1000
0100
0000
0010
0001
1000
0000
0001
0100
,
0010
0000
1000
0010
0100
0000
0010
0000
1000
0001
1000
0001
0100
0000
0010
0000
,
1000
0000
0010
1000
0010
0000
0100
0001
0100
0000
0010
0000
1000
0001
0010
0000
,
0100
1000
0001
0000
0010
0100
0010
0000
0100
0000
1000
0100
0010
0001
1000
0000
,
0010
0000
0100
0010
1000
0000
0001
0100
0001
0000
1000
0010
0100
0000
0001
1000
,
0010
0000
0100
0010
0100
0000
0001
0000
0101
0000
0010
0000
1001
0000
0000
0000
,
1000
0000
0100
0010
0100
0000
1000
0001
1000
0000
0010
0100
0001
0000
1000
0001
,
1000
0000
0100
1000
0001
0000
0010
0100
1000
0000
0001
1000
0010
0000
0100
0000
,
0110
0000
0000
0000
1000
0010
0100
0001
0100
0000
0010
1000
0001
0000
1000
0100
,
0010
0000
0001
0010
0100
0000
0010
0000
0001
1000
0001
1000
0100
0000
0000
0000
,
0020
0001
0031
0002
1000
1003
2000
0010
,
3010
0200
1000
0000
0010
0000
0001
0000
,
0010
1000
0010
0301
,
0200
0010
0310
0020
1000
1030
2000
0100
,
3100
0200
0001
0000
0010
0000
1000
0000
,
0010
0001
0010
1300
,
0001
0000
0010
0100
0010
0000
0001
0000
1000
0100
1000
0000
0001
0000
0100
0010
,
0100
0020
0001
0000
0100
0000
1000
0000
,
0100
0001
1000
0130
,
0100
0000
0001
1000
0001
0000
0010
0000
0100
1000
0100
0000
0010
0000
0001
1000
,
0001
0200
0010
0000
0001
0000
0010
0000
,
1000
0001
1000
0310
,
0001
0100
0001
0100
0010
0000
1000
0010
1000
0010
0100
0000
0001
0010
0001
0010
,
0100
0000
1000
0100
1000
0100
0010
0000
0001
0010
0100
1000
0001
1000
0001
0000
,
1000
0010
1000
0010
0100
0000
0001
0100
0001
0100
0010
0000
1000
0100
1000
0100
,
0010
0000
0001
0010
0001
0010
0100
0000
1000
0100
0010
0001
1000
0001
1000
0000
,
0001
0100
0010
1000
0001
0000
1000
0010
0100
0001
1000
0000
0100
0010
0001
1000
,
0100
0000
0010
0001
1000
0010
0100
0000
0001
0100
0010
1000
0001
1000
0100
0000
,
0010
0000
0000
0011
0000
0000
0100
0000
0000
1100
0000
0000
0001
0000
0000
0101
,
0000
0000
1000
0000
0000
1010
0000
0000
0110
0000
0000
0000
1001
0000
0000
0000
,
1000
0100
1000
0100
0010
0000
0001
0010
0001
0010
0100
0000
1000
0010
1000
0010
,
0100
0000
0001
0100
0001
0100
0010
0000
1000
0010
0100
0001
1000
0001
1000
0000
,
0001
0010
0001
0010
0100
0000
1000
0100
1000
0100
0010
0000
0001
0100
0001
0100
,
0010
0000
1000
0010
1000
0010
0100
0000
0001
0100
0010
1000
0001
1000
0001
0000
,
1000
0100
0010
0001
1000
0000
0001
0010
0100
1000
0001
0000
0100
0010
1000
0001
,
0100
0000
0010
1000
0001
0010
0100
0000
1000
0100
0010
0001
1000
0001
0100
0000
,
0010
0000
0000
1010
0000
0000
0100
0000
0000
0101
0000
0000
1000
0000
0000
1100
,
0000
2002
3003
0000
0110
0000
1001
0000
,
2000
0000
3200
0000
,
0320
0000
0032
0000
,
2003
0000
0000
0000
0000
0000
0000
0000
0000
3001
0000
0000
0100
0000
0000
0000
0010
0000
0000
0000
1000
0000
0000
0000
,
0020
0000
0130
0001
,
0002
0000
2003
0000
,
3200
0000
0310
0100
,
0200
0000
1300
0000
,
2000
0000
0000
0000
0000
0000
0000
0000
3100
0000
0000
0000
0010
0000
0001
0010
,
0200
0000
0000
0010
0320
0000
0000
0001
,
0032
0000
0000
1000
2003
0000
0000
0010
,
3020
0000
0000
0000
0000
0000
0000
0000
0000
1030
0000
0000
0001
0000
0000
0000
0100
0000
0000
0000
0010
0000
0000
0000
,
2000
0000
0000
3000
1100
0000
0110
0000
,
0012
0000
0000
1000
0023
0000
0000
0001
,
0230
0000
0000
0010
1300
0000
0001
0000
,
0012
0000
0000
0000
0000
0000
1003
0100
1000
0000
0000
0000
0000
0000
0000
0000
,
2010
0000
0000
0000
0000
0000
3001
0100
0001
0000
0000
0000
1000
0000
0000
0000
,
0001
0100
0001
0100
0000
0010
1000
0000
0100
0010
0100
0010
0000
0001
0010
0000
,
0100
1000
0100
0010
0000
0001
0010
0000
0100
1000
0001
1000
0010
0100
0001
0000
,
1000
0010
0100
0010
0000
1000
0001
0000
0010
0100
1000
0100
0000
0010
0001
0000
,
1000
0001
0100
0010
0000
0100
0001
0000
1000
0100
0010
0001
0100
0010
1000
0000
,
0001
0100
0001
0100
0010
0000
1000
0100
1000
0100
0010
0000
0001
0100
0010
0100
,
0001
0000
0010
0100
1000
0100
0010
0000
0001
0100
0010
1000
0001
0000
0010
0100
,
1000
0001
1000
0000
0001
0100
1000
0100
0001
0000
1000
0100
0001
0100
1000
0000
,
1001
0000
0100
0010
0000
0000
1001
0000
0010
0100
0000
0000
1001
0000
1000
0001
,
0000
0000
0000
0000
;
#NOTES:
     dance-double:
     :
     Easy:
     8:
     :
00000000
00000000
00000000
00000000
,
00000000
00000000
00000000
00000000
,
00000000
00000000
00000000
00000000
,
00000000
00000000
00000000
00000000
,
00000000
00000000
00000000
00000000
,
00000000
00000000
00000000
00000000
,
10000000
10000000
10000000
01000000
,
00020000
00031000
00002000
00013000
,
00001000
00000010
00000010
00000010
,
00000001
00001000
00000010
00000100
,
00001001
00000000
00000000
00000000
,
00000001
00000000
00000100
00000000
00000010
00000000
00001000
00000001
,
00000000
00000100
00000000
00001000
00000000
00010000
00000000
00001000
,
00010000
01000000
00100000
00010000
,
10000000
00100000
01100000
01100000
,
10000000
00000000
01000000
00000000
00010000
00000000
00001000
00100000
,
00001000
00010000
00001000
00000100
,
00000001
00000100
00001000
00010000
,
00001000
00010000
00100000
00000000
,
10000000
00000000
01000000
00000000
00100000
00000000
00010000
10000000
,
00000000
01000000
00000000
00010000
00000000
00001000
00000000
00010000
,
00001000
00000100
00000010
00001000
,
00000001
00000010
00000110
00000110
,
00000001
00000000
00000100
00000000
00001000
00000000
00010000
00000010
,
00010000
00001000
00010000
01000000
,
10000000
01000000
00010000
00001000
,
00010000
00001000
00000010
00000000
,
00000001
00000011
00001000
00001100
,
00000010
00000100
00000010
00000000
00000000
00000000
00000100
00000000
,
00010000
00001000
00100000
00001000
,
00010000
01010000
10000000
10100000
,
00010000
01010000
01100000
00000000
,
01000000
01000000
00100000
00100000
,
10000000
10010000
00100000
01100000
,
10000000
01000000
00100000
00000000
00000000
00000000
00000000
00000000
,
00100000
00001000
00010000
00000100
,
00000010
00000011
00001000
00001100
,
00000001
00000101
00000110
00000000
,
00001000
00001000
00010000
00010000
,
00100000
10000000
01000000
00100000
,
00001000
00010000
00011000
00001100
,
00000001
00001000
00000100
00000010
,
00000001
00001000
00001001
00000110
,
00001000
00010000
00100000
10000000
,
00010000
00100000
01100000
11000000
,
01100000
00000000
00000000
00110000
00000000
00000000
00011000
00000000
,
00000000
00001100
00000000
00000000
00000001
00000000
00001001
00000000
,
00000010
00000001
00000100
00000010
,
00010000
00001000
00011000
01010000
,
10000000
00010000
01000000
00100000
,
10000000
00010000
10010000
01100000
,
00010000
00001000
00000010
00000001
,
00001000
00000010
00000110
00000101
,
00000110
00000000
00000000
00001010
00000000
00000000
00011000
00000000
,
00000000
01010000
00000000
00000000
10000000
00000000
10010000
00000000
,
20000000
00000000
31000000
00000000
,
02000000
00000000
03010000
00000000
,
00002000
00000000
00023000
00000000
,
00032000
00000000
00003020
00000000
,
00000032
00000000
00001003
00000000
,
00002000
00000000
00003001
00000000
,
00000001
00000100
00001000
00010000
,
01000000
10000000
00010000
00000000
,
20000000
00000000
30100000
00000000
,
00020000
00000000
01030000
00000000
,
00001000
00010000
00001000
00000100
,
00000010
00000100
00000001
00000000
,
00000002
00000000
00000103
00000000
,
00002000
00000000
00003010
00000000
,
00000001
00000001
00000010
00000010
,
00001000
00001000
00010000
00010000
,
00100000
10100000
00010000
01010000
,
10000000
11000000
01000000
00010000
,
00001000
00011000
00000100
00001100
,
00000010
00000001
00000010
00000100
,
00001100
00000110
00000011
00000110
,
00001001
00001001
00000110
00000110
,
00000001
00000101
00001000
00011000
,
00110000
10100000
01100000
10010000
,
00000000
00000000
00000000
00000000
;
#NOTES:
     dance-double:
     :
     Medium:
     12:
     :
00000000
00000000
00000000
00000000
,
00000000
00000000
00000000
00000000
,
00000000
00000000
00000000
00000000
,
00000000
00000000
00000000
00000000
,
00000000
00000000
00000000
00000000
,
00000000
00000000
00000000
00000000
,
20000000
01000000
00010000
30100000
,
00020000
00000000
00100000
00000000
00001000
00000000
00130000
00001000
,
00020000
00100000
00001000
01030000
,
00011000
00001010
00000011
00001001
,
00000220
00000000
00000000
00000000
00000330
00000000
00000000
00001000
,
00000001
00000010
00000100
00001000
00000001
00001000
00000001
00000001
,
00000100
00000010
00010000
00001000
00100000
01000000
10000000
00010000
,
00010000
10000000
00100000
01000000
00001000
00010000
01000000
00010000
,
00001000
00100000
00010000
00001000
00000100
00001000
00010000
00000000
,
00001000
00000100
00000010
00000001
00001000
00000010
00000010
00001000
,
00000001
00000010
00001000
00010000
00000100
00001000
00010000
00100000
,
01000000
00000000
10000000
01000000
00010000
00001000
00100000
00010000
,
00001000
00000100
00000001
00000100
00001000
00010000
00100000
00000000
,
10000000
00100000
01000000
00010000
10000000
00010000
10000000
10000000
,
01000000
00100000
00001000
00010000
00000010
00000100
00000001
00001000
,
00001000
00000001
00000010
00000100
00010000
00001000
00000100
00001000
,
00010000
00000010
00001000
00010000
01000000
00010000
00001000
00000000
,
00010000
01000000
00100000
10000000
00010000
00100000
00100000
00010000
,
10000000
00100000
00010000
00001000
01000000
00010000
00001000
00000010
,
00000100
00000000
00000001
00000100
00001000
00010000
00000010
00001000
,
00010000
01000000
10000000
01000000
00010000
00001000
00000010
00000000
,
00000110
00000000
00000000
00000101
00000000
00000000
00001001
00000000
,
00000000
00001100
00000000
00000000
00000001
00000000
00000010
00000000
,
00001000
00010000
00100000
10000000
,
01100000
00000000
00000000
01010000
00000000
00000000
10010000
00000000
,
00000000
11000000
00000000
00000000
01100000
00000000
00000000
00000000
,
10000000
00100000
00001000
00100000
,
00110000
00000000
00000000
00010010
00000000
00000000
00000110
00000000
,
00000000
00001001
00000000
00000000
00000001
00000000
00000010
00000000
,
00001000
00010000
00100000
10000000
,
01100000
00000000
00000000
01010000
00000000
00000000
10010000
00000000
,
00000000
00110000
00000000
00000000
00101000
00000000
00000000
00000000
,
00001000
00010000
00001000
00011000
,
00001000
00000010
00000001
00000001
00000100
00000010
00000010
00010000
,
00001000
00001000
00010000
01000000
10000000
00100000
00010000
00100000
,
01000000
00010000
00100000
00100000
00001000
00010000
00010000
00001000
,
00000010
00000010
00000001
00001000
00000001
00000010
00000100
00001000
,
00000001
00000010
00001000
00010000
00100000
10000000
10000000
01000000
,
00010000
00001000
00000100
00000001
00000010
00000100
00001000
00000100
,
00000020
00000000
00000000
00000031
00000000
00000000
00000002
00000000
00000000
00001003
00000000
00000000
00002000
00000000
00000000
00003010
,
00000000
00000000
00000020
00000000
00000000
00000130
00000000
00000000
00001100
00000000
00000000
00000000
00011000
00000000
00000000
00000000
,
00010000
00100000
10000000
10000000
01000000
00100000
00100000
00001000
,
00010000
00010000
00001000
00000100
00000001
00000010
00001000
00000010
,
00000100
00001000
00000010
00000010
00010000
00001000
00001000
00010000
,
00100000
00100000
10000000
00010000
10000000
00100000
01000000
00010000
,
10000000
00100000
00010000
00001000
00000010
00000001
00000001
00000100
,
00001000
00010000
01000000
10000000
00100000
01000000
00010000
01000000
,
00200000
00000000
00000000
10300000
00000000
00000000
20000000
00000000
00000000
30010000
00000000
00000000
00020000
00000000
00000000
01030000
,
00000000
10010000
00000000
00000000
01100000
00000000
10010000
00000000
,
10000000
00000000
00000000
01000000
00000000
00000000
10000000
00000000
11000000
00000000
00000000
00000000
00000000
00000000
00000000
00000000
,
00010000
00000000
00000000
00001000
00000000
00000000
00010000
00000000
00011000
00000000
00000000
00000000
00000000
00000000
00000000
00000000
,
00001000
00000000
00000000
00000000
00000000
00000000
00000000
00000000
00000000
00000100
00000000
00000000
00000000
00000000
00000000
00000000
00000000
00000000
00000001
00000000
00000000
00000000
00000000
00000000
00001000
00000000
00000000
00000000
00000000
00000000
00000000
00000000
00000001
00000000
00000000
00000000
00000000
00000000
00000000
00000000
00001000
00000000
00000000
00000000
00000000
00000000
00000000
00000000
,
00000001
00000000
00000000
00000010
00000000
00000000
00001000
00000000
00011000
00000000
00000000
00000000
00000000
00000000
00000000
00000000
,
00010000
00000000
00000000
00100000
00000000
00000000
10000000
00000000
10010000
00000000
00000000
00000000
00000000
00000000
00000000
00000000
,
00100000
00000000
00000000
01000000
00000000
00000000
00100000
00000000
01100000
00000000
00000000
00000000
00000000
00000000
00000000
00000000
,
10000000
00010000
10000000
00010000
00100000
01000000
00010000
00001000
,
00000100
00000010
00000100
00000010
00001000
00000001
00000010
00000000
,
00000001
00000000
00000000
00000100
00000000
00000000
00000001
00000000
00000101
00000000
00000000
00000000
00000000
00000000
00000000
00000000
,
00001000
00000000
00000000
00010000
00000000
00000000
00001000
00000000
00011000
00000000
00000000
00000000
00000000
00000000
00000000
00000000
,
00010000
00000000
00000000
00000000
00000000
00000000
00000000
00000000
00000000
01000000
00000000
00000000
00000000
00000000
00000000
00000000
00000000
00000000
10000000
00000000
00000000
00000000
00000000
00000000
00010000
00000000
00000000
00000000
00000000
00000000
00000000
00000000
10000000
00000000
00000000
00000000
00000000
00000000
00000000
00000000
00010000
00000000
00000000
00000000
00000000
00000000
00000000
00000000
,
10000000
00000000
00000000
00100000
00000000
00000000
00010000
00000000
00011000
00000000
00000000
00000000
00000000
00000000
00000000
00000000
,
00001000
00000000
00000000
00000010
00000000
00000000
00000001
00000000
00001001
00000000
00000000
00000000
00000000
00000000
00000000
00000000
,
00000010
00000000
00000000
00000100
00000000
00000000
00000010
00000000
00000110
00000000
00000000
00000000
00000000
00000000
00000000
00000000
,
00000001
00001000
00000001
00001000
00000010
00000100
00001000
00010000
,
01000000
00100000
01000000
00100000
00010000
10000000
00100000
00000000
,
10000000
01000000
00010000
00000000
00001000
00000100
00000001
00000000
,
00000001
00000010
00001000
00000000
00010000
00100000
10000000
00010000
,
10000000
00100000
00010000
00000000
00001000
00000010
00000001
00000000
,
00000001
00000100
00001000
00000000
00010000
01000000
10000000
00010000
,
10000000
01000000
00010000
00001000
00000100
00000001
00000001
00000010
,
00001000
00010000
00100000
10000000
01000000
00100000
01000000
00010000
,
00001000
00010000
00000100
00000001
00000100
00000010
00001000
00010000
,
00101000
00000000
00000000
00011000
00000000
00000000
00010010
00000000
00000000
00011000
00000000
00000000
01001000
00000000
00000000
00011000
,
00000000
00000000
00000000
00000000
;
#NOTES:
     dance-double:
     :
     Hard:
     16:
     :
00000000
00000000
00000000
00000000
,
00000000
00000000
00000000
00000000
,
00000000
00000000
00000000
00000000
,
00000000
00000000
00000000
00000000
,
00000000
00000000
00000000
00000000
,
00000000
00000000
00000000
00000000
00000000
00000000
00000000
00000000
10000000
00010000
10000000
00000000
00000000
00000000
00100000
00000000
,
20000000
01000000
01000000
31000000
,
00020000
00000000
00001000
00000000
00031000
00100000
00010000
00002000
,
00000100
00000100
00000100
00003100
,
00000010
00000000
00000000
00000010
00000001
00000000
00000000
00000001
00001000
00000000
00000010
00000000
00000100
00000001
00000100
00000000
,
00000220
00000000
00000000
00000000
00000330
00000000
00000000
00001000
,
00000001
00000000
00000010
00000001
00000010
00000000
00000100
00001000
00000100
00000000
00000010
00000000
00001000
00010000
00001000
00000000
,
00010000
00100000
10000000
00000000
00100000
01000000
00100000
00000000
00010000
00000000
00001000
00000000
00000100
00000000
00000001
00000000
,
00001000
00000000
00000010
00000100
00000010
00000000
00001000
00000001
00001000
00000000
00000001
00000010
00000100
00000000
00001000
00000100
,
00010000
00000000
00001000
00100000
01000000
00000000
00100000
00000000
00101000
00000000
00001000
00000000
00011000
00000000
00000000
00000000
,
00010000
00000000
00100000
10000000
00100000
00000000
00010000
00001000
00010000
00000000
01000000
00100000
01000000
00000000
00010000
00001000
,
00010000
00000000
00000010
00001000
00000010
00000000
00000100
00000001
00000100
00000000
00000010
00001000
00010000
00000000
01000000
00000000
,
01100000
00000000
00000000
00000000
00010000
10000000
00100000
10000000
01000000
00000000
00100000
00001000
00010000
00000000
00001000
00000100
,
00000010
00000000
00001000
00000001
00000010
00000000
00000100
00000000
00010000
00001000
00010000
00000000
00110000
00000000
00000000
00000000
,
10000000
00000000
01000000
10000000
01000000
00000000
00100000
00010000
00100000
00000000
01000000
00000000
00010000
00001000
00010000
00000000
,
00001000
00000100
00000001
00000000
00000100
00000010
00000100
00000000
00001000
00000000
00010000
00000000
00100000
00000000
10000000
00000000
,
00010000
00000000
01000000
00100000
01000000
00000000
00010000
10000000
00010000
00000000
10000000
01000000
00100000
00000000
00010000
00100000
,
00001000
00000000
00010000
00000100
00000010
00000000
00000100
00000000
00010100
00000000
00010000
00000000
00011000
00000000
00000000
00000000
,
00001000
00000000
00000100
00000001
00000100
00000000
00001000
00010000
00001000
00000000
00000010
00000100
00000010
00000000
00001000
00010000
,
00001000
00000000
01000000
00010000
01000000
00000000
00100000
10000000
00100000
00000000
01000000
00010000
00001000
00000000
00000010
00000000
,
00000110
00000000
00000000
00000000
00001000
00000001
00000100
00000001
00000010
00000000
00000100
00010000
00001000
00000000
00010000
00100000
,
01000000
00000000
00010000
10000000
01000000
00000000
00100000
00000000
00001000
00010000
00001000
00000000
00011000
00000000
00000000
00000000
,
00000020
00000001
00000031
00000002
00000100
00000103
00000200
00001000
,
00001300
00020000
01000000
00000000
00001000
00000000
00100000
00000000
,
10000000
00100000
00001000
01030000
,
20000000
01000000
31000000
02000000
00100000
03100000
00200000
00010000
,
00310000
00002000
00010000
00000000
00000100
00000000
00000001
00000000
,
00000010
00010000
00000010
00003001
,
00000001
00000000
00000100
00000010
00000100
00000000
00000001
00000000
00001000
00000100
00001000
00000000
00000001
00000000
00000010
00000100
,
00000010
00002000
00010000
00000000
00000100
00000000
00000001
00000000
,
00000100
00010000
00000010
00013000
,
00100000
00000000
10000000
00010000
10000000
00000000
00010000
00000000
00100000
10000000
00100000
00000000
01000000
00000000
00010000
01000000
,
00010000
00002000
00000010
00000000
00000001
00000000
00000010
00000000
,
00010000
00000100
00010000
00013000
,
00001000
00000010
00000001
00000000
00000010
00000000
00000100
00001000
00000100
00000000
00010000
00000000
00001000
00010000
00100000
00000000
,
10000000
00000000
00010000
01000000
00010000
00000000
00100000
00000000
00001000
00000000
00000100
00000000
00000001
00000000
00000100
00000000
,
00001000
00010000
00100000
00000000
10000000
00000000
01000000
00100000
01000000
00000000
00010000
00000000
00001000
00000010
00000001
00000000
,
00001000
00000000
00000010
00000100
00001000
00000000
00000100
00000000
00000001
00000000
00000010
00000000
00001000
00000000
00010000
00000000
,
01000000
00100000
00010000
00000000
00001000
00000000
00000100
00000010
00001000
00000000
00010000
00000000
00100000
01000000
00010000
00000000
,
00001000
00000000
00000010
00000100
00001000
00000000
00010000
00000000
01000000
00000000
00010000
00000000
00001000
00000000
00010000
00000000
,
00001000
00000000
00000000
00011000
00000000
00000000
00000010
00000000
00000000
00000110
00000000
00000000
00000001
00000000
00000000
00000101
,
00000000
00000000
00000010
00000000
00000000
00000110
00000000
00000000
00010010
00000000
00000000
00000000
00011000
00000000
00000000
00000000
,
00010000
01000000
10000000
00000000
01000000
00000000
00100000
00010000
00100000
00000000
00001000
00000000
00010000
00001000
00000100
00000000
,
00000001
00000000
00001000
00000010
00001000
00000000
00000100
00000000
00010000
00000000
00100000
00000000
10000000
00000000
00100000
00000000
,
00010000
00001000
00000100
00000000
00000001
00000000
00000010
00000100
00000010
00000000
00001000
00000000
00010000
01000000
10000000
00000000
,
00010000
00000000
01000000
00100000
00010000
00000000
00100000
00000000
10000000
00000000
01000000
00000000
00010000
00000000
00001000
00000000
,
00000010
00000100
00001000
00000000
00010000
00000000
00100000
01000000
00010000
00000000
00001000
00000000
00000100
00000010
00001000
00000000
,
00010000
00000000
01000000
00100000
00010000
00000000
00001000
00000000
00000010
00000000
00001000
00000000
00010000
00000000
00001000
00000000
,
00000100
00000000
00000000
00000110
00000000
00000000
00001000
00000000
00000000
00011000
00000000
00000000
01000000
00000000
00000000
01100000
,
00000000
20020000
30030000
00000000
01100000
00000000
10000000
00000000
,
02000000
00000000
03020000
00000000
,
00032000
00000000
00003200
00000000
,
00000302
00000000
00000000
00000000
00000000
00000000
00000000
00000000
00000000
00000013
00000000
00000000
00001000
00000000
00000000
00000000
00010000
00000000
00000000
00000000
01000000
00000000
00000000
00000000
,
00200000
00000000
00310000
00001000
,
00000200
00000000
00000001
00000000
,
00010000
00000000
00000310
00000100
,
00002000
00000000
00010000
00000000
,
00000001
00000000
00000000
00000000
00000000
00000000
00000000
00000000
00003010
00000000
00000000
00000000
00001000
00000000
00000010
00000100
,
00000002
00000000
00000203
00000000
,
00002300
00000000
00023000
00000000
,
02030000
00000000
00000000
00000000
00000000
00000000
00000000
00000000
00000000
13000000
00000000
00000000
00010000
00000000
00000000
00000000
01000000
00000000
00000000
00000000
00100000
00000000
00000000
00000000
,
20000000
00000000
31000000
00010000
,
00002000
00000000
00000001
00000000
,
00010000
00000000
00003010
00001000
,
00020000
00000000
10000000
00000000
,
00032000
00000000
00003001
00001000
,
00010000
00001000
00010000
00001000
00000000
00100000
00010000
00000000
10000000
01000000
10000000
01000000
00000000
00100000
01000000
00000000
,
00010000
00001000
00010000
00001000
00000000
00000100
00000010
00000000
00001000
00000001
00000100
00000001
00001000
00000100
00000010
00000000
,
00000001
00000010
00000001
00000010
00000000
00000100
00000010
00000000
00001000
00010000
00001000
00010000
00000000
01000000
00100000
00000000
,
00010000
10000000
00010000
10000000
00000000
00100000
01000000
00000000
00100000
00010000
00001000
00100000
00001000
00010000
00000100
00000000
,
00001000
00000100
00001000
00000100
00000010
00000000
00000001
00000100
00000001
00000100
00001000
00000000
00010000
00001000
00010000
00001000
,
00100000
00000000
00010000
00100000
01000000
10000000
00010000
00000000
00100000
01000000
00010000
00001000
00010000
00000000
00001000
00000100
,
00000010
00000100
00001000
00000000
00010000
00100000
10000000
00100000
00010000
00000000
00001000
00000010
00000001
00000010
00001000
00000000
,
00011000
00000000
10000000
00010000
00000000
00000000
00011000
00000000
00000001
00001000
00000000
00000000
00011000
00000000
00010000
00001000
,
00000000
00000000
00000000
00000000
;
