
//----- song ID: kyun -----//
#TITLE:きゅん×きゅんばっきゅん☆LOVE;
#ARTIST:松下feat.Sota & wac;
#TITLETRANSLIT:Kyun×kyun bakkyun☆LOVE;
#ARTISTTRANSLIT:Matsushita feat.Sota & wac;
#BANNER:Kyun kyun bakkyun LOVE.png;
#BACKGROUND:Kyun kyun bakkyun LOVE.png;
#CDTITLE:./CDTitles/DDR A.png;
#MUSIC:Kyun kyun bakkyun LOVE.ogg;
#SAMPLESTART:49.459;
#SAMPLELENGTH:15;
#BPMS:0=165;
#NOTES:
     dance-single:
     :
     Beginner:
     3:
     :
0000
0000
0000
0000
,
0000
0000
0000
0000
,
0000
0000
0000
0000
,
0000
0000
0000
0000
,
0000
0100
0000
0000
,
0000
0000
0000
0000
,
1000
1000
0000
0000
,
0000
0010
0000
0000
,
0000
0100
0000
0000
,
0000
0000
0000
0000
,
0001
0000
1000
0000
,
0100
0000
0000
0000
,
1000
0000
0001
0000
,
0010
0000
0000
0000
,
0001
0000
1000
0000
,
0100
0000
0000
0000
,
1000
0000
0001
0000
,
0010
0000
0000
0000
,
0001
0000
1000
0000
,
0001
0000
1000
0000
,
0100
0000
0010
0000
,
0100
0000
0010
0000
,
0001
0000
1000
0000
,
0100
0000
0010
0000
,
0001
0000
1000
0000
,
0100
0000
0000
0000
,
0001
0000
1000
0000
,
0100
0000
0000
0000
,
1000
0000
0001
0000
,
0010
0000
0000
0000
,
0001
0000
1000
0000
,
0100
0000
0000
0000
,
1000
0000
0001
0000
,
0010
0000
0000
0000
,
0010
0010
0000
0000
,
0001
0000
0100
0000
,
0010
0010
0000
0000
,
1000
0000
0100
0000
,
0010
0010
0000
0000
,
0100
0000
1000
0000
,
0010
0010
0000
0000
,
0100
0000
0001
0000
,
0010
0010
0000
0000
,
0001
0000
0100
0000
,
0010
0010
0000
0000
,
1000
0000
0100
0000
,
0010
0010
0000
0000
,
0100
0000
1000
0000
,
0010
0010
0000
0000
,
0100
0000
0001
0000
,
0010
0000
0000
0000
,
0001
0000
0000
0000
,
1000
0000
0000
0000
,
0100
0000
0000
0000
,
0010
0000
0001
0000
,
1000
0000
0100
0000
,
0010
0000
0001
0000
,
1000
0000
0100
0000
,
0020
0000
0000
0000
,
0030
0000
0000
0000
,
0010
0010
0000
0000
,
0001
0000
0100
0000
,
0010
0010
0000
0000
,
1000
0000
0100
0000
,
0010
0010
0000
0000
,
0100
0000
1000
0000
,
0010
0010
0000
0000
,
0100
0000
0001
0000
,
0010
0010
0000
0000
,
0001
0000
0100
0000
,
0010
0010
0000
0000
,
1000
0000
0100
0000
,
0010
0010
0000
0000
,
0100
0000
1000
0000
,
0010
0010
0000
0000
,
0100
0000
0001
0000
,
0000
0010
0000
0100
,
0000
1000
0000
0001
,
0000
1000
0000
0001
,
0000
0000
0000
0110
,
0000
0000
0000
0000
;
#NOTES:
     dance-single:
     :
     Easy:
     5:
     :
0000
0000
0000
0000
,
0000
0000
0000
0000
,
0000
0000
0000
0000
,
0000
0000
0000
0000
,
1000
1000
0000
0001
,
0000
0010
0000
0001
,
0001
0001
0000
1000
,
0000
0100
0000
1000
,
1000
1000
0000
0001
,
0000
0100
0000
0000
,
0001
0010
0000
0000
,
0100
1000
0000
0000
,
0010
1000
0000
0000
,
0001
0100
0000
0000
,
0010
0100
0000
0000
,
0001
1000
0000
0000
,
0010
0100
0000
0000
,
0001
1000
0001
0000
,
1000
0010
0000
0000
,
0100
0001
0000
0000
,
0010
0001
0000
0000
,
1000
0100
0000
0000
,
0010
0100
0000
0000
,
1000
0001
0000
0000
,
0010
0100
0000
0000
,
1000
0001
1000
0000
,
0000
0001
0000
1000
,
0000
0010
0100
0001
,
0000
1000
0000
0001
,
0000
0010
0100
1000
,
0000
0010
0000
0100
,
0000
0001
1000
0100
,
0000
0010
0000
0100
,
0000
1000
0001
1000
,
0001
0001
0000
0000
,
1000
0010
0100
0001
,
1000
1000
0000
0000
,
0001
0010
0100
1000
,
0010
0000
0100
0000
,
0001
1000
0001
0000
,
0010
0000
0100
0000
,
1000
0001
1000
0000
,
0001
0001
0000
0000
,
1000
0010
0100
0001
,
1000
1000
0000
0000
,
0001
0010
0100
1000
,
0010
0000
0100
0000
,
0001
1000
0001
0000
,
0010
0000
0100
0000
,
1000
0001
1000
0000
,
0000
0001
0000
1000
,
0000
0010
0000
0100
,
0000
0001
0000
1000
,
0000
0100
0000
0010
,
0000
0001
0000
1000
,
0000
0010
0100
0001
,
0000
1000
0000
0001
,
0000
0010
0100
1000
,
0000
0002
0000
1000
,
0000
1000
0000
1003
,
0001
0001
0000
0000
,
1000
0010
0100
0001
,
1000
1000
0000
0000
,
0001
0010
0100
1000
,
0010
0000
0100
0000
,
0001
1000
0001
0000
,
0010
0000
0100
0000
,
1000
0001
1000
0000
,
0001
0001
0000
0000
,
1000
0010
0100
0001
,
1000
1000
0000
0000
,
0001
0010
0100
1000
,
0010
0000
0100
0000
,
0001
1000
0001
0000
,
0010
0000
0100
0000
,
1000
0001
1000
0000
,
0000
0010
0000
0100
,
0000
0001
0000
0010
,
0000
0100
0000
1000
,
0000
0001
0010
0100
,
0000
0000
0000
0000
;
#NOTES:
     dance-single:
     :
     Medium:
     8:
     :
0000
0000
0000
0000
,
0000
0000
0000
0000
,
0000
0000
0000
0000
,
0000
0000
0000
0000
,
1000
0010
0100
0001
,
1000
0010
0100
0000
,
0010
1000
0001
0100
,
0010
1000
0001
0000
,
0010
0001
1000
0100
,
0010
0001
1000
0000
,
0001
0000
1000
0000
0001
0010
0000
0100
,
1000
0001
0010
0100
,
1000
0000
0001
0000
1000
0010
0000
0100
,
0001
1000
0010
0100
,
0001
0000
0001
0000
1000
0100
0000
0100
,
1000
0000
1000
0000
0001
0100
0000
0100
,
0001
0000
0001
0000
1000
0010
0000
0010
,
1000
0000
1000
0000
0001
0010
0000
0010
,
0001
0000
1000
0000
0010
0100
0000
0010
,
1000
0000
0001
0000
0010
0100
0000
0010
,
0001
0000
0100
0000
0010
0100
0000
0001
,
1000
0000
0100
0000
0010
0100
0000
1000
,
0001
0000
0010
0000
0100
0010
0000
0001
,
1000
0000
0010
0000
0100
0010
0000
1000
,
0001
1000
0010
0100
,
0001
1000
0000
0010
0000
0000
0100
0000
,
0001
0000
1000
0000
0010
0100
0000
0010
,
1000
0000
0001
0000
0010
0100
0000
0010
,
0001
0000
1000
0000
0010
0100
0000
0010
,
1000
0000
0001
0000
0010
0100
0000
0010
,
0100
0000
1000
0000
0001
0100
0000
0010
,
0100
0000
0001
0000
1000
0100
0000
0010
,
0100
0000
1000
0000
0001
0100
0010
0000
,
0100
0000
0001
0000
1000
0100
0010
0000
,
0001
0000
0001
0000
1000
0010
0100
0001
,
0000
0100
0010
0000
1000
0000
0001
0000
,
1000
0000
1000
0000
0001
0010
0100
1000
,
0000
0100
0010
0000
0001
0000
1000
0000
,
0010
0000
0100
0000
0001
1000
0010
0100
,
0000
0001
1000
0100
0010
0000
0001
0000
,
0010
0000
0100
0000
1000
0001
0010
0100
,
0000
1000
0001
0100
0010
0000
1000
0000
,
0001
0000
0001
0000
1000
0010
0100
0001
,
0000
0100
0010
0000
1000
0000
0001
0000
,
1000
0000
1000
0000
0001
0010
0100
1000
,
0000
0100
0010
0000
0001
0000
1000
0000
,
0010
0000
0100
0000
0001
1000
0010
0100
,
0000
0001
1000
0100
0010
0000
0001
0000
,
0010
0000
0100
0000
1000
0001
0010
0100
,
1000
0100
0000
1000
0000
0001
1000
0000
,
0001
0000
1000
0000
0010
1000
0000
0001
,
0000
0100
0000
0010
0000
0100
0001
0000
,
1000
0000
0001
0000
0010
0001
0000
1000
,
0000
0100
0000
0010
0000
0100
1000
0000
,
0001
0000
1000
0000
0010
1000
0000
0001
,
0000
0100
0000
0010
0000
0100
0001
0000
,
1000
0000
0001
0000
0010
0001
0000
1000
,
0000
0100
0000
0010
0000
0100
2000
0000
,
0010
0001
0100
0010
,
0001
3100
0000
0000
,
0001
0000
0001
0000
1000
0010
0100
0001
,
0000
0100
0010
0000
1000
0000
0001
0000
,
1000
0000
1000
0000
0001
0010
0100
1000
,
0000
0100
0010
0000
0001
0000
1000
0000
,
0010
0000
0100
0000
0001
1000
0010
0100
,
0000
0001
1000
0100
0010
0000
0001
0000
,
0010
0000
0100
0000
1000
0001
0010
0100
,
0000
1000
0001
0100
0010
0000
1000
0000
,
0001
0000
0001
0000
1000
0010
0100
0001
,
0000
0100
0010
0000
1000
0000
0001
0000
,
1000
0000
1000
0000
0001
0010
0100
1000
,
0000
1100
0000
0011
0000
0000
1000
0000
,
0010
0000
0100
0000
0001
1000
0010
0100
,
0000
0001
1000
0100
0010
0000
0001
0000
,
0010
0000
0100
0000
1000
0001
0010
0100
,
0010
0001
0000
0001
0000
0001
1000
0000
,
0020
0100
0000
0100
,
0000
0100
0000
0130
,
0010
0100
0000
0001
1000
0000
0010
0100
,
0000
0001
1000
0010
0100
0000
1001
0000
,
0000
0000
0000
0000
;
#NOTES:
     dance-single:
     :
     Hard:
     11:
     :
0000
0000
0000
0000
,
0000
0000
0000
0000
,
0000
0000
0000
0000
,
0000
0000
0000
0000
,
1000
0000
1000
0000
1000
0100
0010
0001
,
0000
0100
0010
1000
0001
0100
0010
1000
,
0010
0000
0010
0000
0010
1000
0001
0100
,
0000
0001
1000
0010
0100
0001
1000
0010
,
0100
0000
0100
0000
0100
0001
1000
0010
,
0000
1000
0001
0100
0010
1000
0001
0100
,
0001
0000
0100
0000
0010
1000
0100
0010
,
0001
0000
1000
0000
0010
0100
0001
0000
,
1000
0000
0010
0000
0100
0001
0010
0100
,
1000
0000
0001
0000
0100
0010
1000
0000
,
0001
0000
0100
0000
0010
1000
0100
0010
,
0001
0000
1000
0000
0010
0100
0001
0000
,
1000
0000
0010
0000
0100
0001
0010
0100
,
1000
0000
0001
0000
0100
0010
1000
0000
,
0010
0000
0100
0000
0001
1000
0010
0100
,
0001
0000
1000
0000
0010
0100
0001
0000
,
0100
0000
0010
0000
1000
0001
0100
0010
,
1000
0000
0001
0000
0100
0010
1000
0000
,
0010
0000
0100
0000
0001
1000
0010
0100
,
0001
0000
1000
0000
0010
0100
0001
0000
,
0100
0000
0010
0000
1000
0001
0100
0010
,
1000
0000
0001
0000
0100
0010
1000
0000
,
0001
0000
0100
0000
0010
0000
1000
0001
,
0000
0100
0000
0010
1000
0001
0100
0010
,
1000
0000
0010
0000
0100
0000
0001
1000
,
0000
0010
0000
0100
0001
1000
0010
0100
,
0001
0000
0100
0000
0010
0000
1000
0001
,
0000
0100
0000
0010
1000
0001
0100
0010
,
1000
0000
0010
0000
0100
0000
0001
1000
,
0000
0010
0000
0100
0001
1000
0010
0100
,
1001
0000
1001
0000
0001
1000
0010
0100
,
0000
0001
1000
0010
0100
0001
1000
0000
,
1001
0000
1001
0000
1000
0001
0010
0100
,
0000
1000
0001
0010
0100
1000
0001
0000
,
0110
0000
0110
0000
0001
1000
0010
0100
,
0000
0001
1000
0010
0100
0001
1000
0000
,
0110
0000
0110
0000
1000
0001
0100
0010
,
0000
1000
0001
0100
0010
1000
0001
0000
,
1001
0000
1001
0000
0001
1000
0010
0100
,
0000
0001
1000
0010
0100
0001
1000
0000
,
1001
0000
1001
0000
1000
0001
0010
0100
,
0000
1000
0001
0010
0100
1000
0001
0000
,
0110
0000
0110
0000
0001
1000
0010
0100
,
0000
0001
1000
0010
0100
0001
1000
0000
,
0110
0000
0110
0000
1000
0001
0100
0010
,
0000
1000
0001
0100
0010
1000
0001
0000
,
1000
0000
1000
0000
0020
0100
0000
0100
,
0000
0100
0000
0100
0000
0100
0030
0000
,
0001
0000
0001
0000
0200
0010
0000
0010
,
0000
0010
0000
0010
0000
0010
0300
0000
,
1000
0001
0010
0100
1000
0001
0010
0100
,
0000
1000
0001
0010
0100
1000
0001
0100
,
0001
1000
0100
0010
0001
1000
0100
0010
,
0001
1000
0100
0010
0001
1000
0010
0000
,
0000
0000
0010
0000
0010
0100
0000
0100
,
0010
1000
0001
0000
,
1100
0000
0101
0000
0001
1000
0010
0100
,
0000
0001
1000
0010
0100
0001
1000
0000
,
1001
0000
1001
0000
1000
0001
0010
0100
,
0000
1000
0001
0010
0100
1000
0001
0000
,
1100
0000
0101
0000
0001
1000
0010
0100
,
0000
0001
1000
0010
0100
0001
1000
0000
,
0100
0010
0100
0000
1000
0001
0100
0010
,
0000
1000
0001
0100
0010
1000
0001
0000
,
0101
0000
1100
0000
1000
0001
0010
0100
,
0000
1000
0001
0010
0100
1000
0001
0000
,
1001
0000
1001
0000
0001
1000
0010
0100
,
0000
0001
0000
0010
0100
0001
0100
0000
,
0101
0000
1100
0000
1000
0001
0010
0100
,
0000
1000
0001
0010
0100
1000
0001
0100
,
0010
0000
0100
0000
0001
1000
0100
0010
,
0100
1000
0000
1100
0000
0001
1000
0100
,
2000
0010
0001
0100
,
0010
0000
0001
0000
3100
1000
0001
0100
,
0002
0100
1000
0010
,
0100
0000
1000
0000
0013
0001
1000
0000
,
0000
0000
0000
0000
;
#NOTES:
     dance-double:
     :
     Easy:
     5:
     :
00000000
00000000
00000000
00000000
,
00000000
00000000
00000000
00000000
,
00000000
00000000
00000000
00000000
,
00000000
00000000
00000000
00000000
,
00100000
10000000
00000000
00000000
,
01000000
00010000
00001000
00000000
,
00000010
00000001
00000000
00000000
,
00000100
00001000
00010000
00000000
,
00100000
10000000
00000000
00000000
,
01000000
00010000
00001000
00000000
,
00000010
00000000
00000001
00000000
,
00000100
00000000
00001000
00010000
,
00100000
00000000
10000000
00000000
,
01000000
00000000
00010000
00001000
,
00000010
00000000
00000001
00000000
,
00000100
00000000
00001000
00010000
,
00100000
00000000
10000000
00000000
,
01000000
00000000
00010000
00001000
,
00000100
00000000
00000001
00000000
,
00000100
00001000
00010000
00000000
,
01000000
00000000
10000000
00000000
,
01000000
00010000
00001000
00000000
,
00000100
00000000
00000001
00000000
,
00000100
00001000
00010000
00000000
,
01000000
00000000
10000000
00000000
,
01000000
00010000
00001000
00000000
,
00000000
00000010
00000000
00000001
,
00000000
00000100
00001000
00010000
,
00000000
00100000
00000000
10000000
,
00000000
01000000
00010000
00001000
,
00000000
00000010
00000000
00000001
,
00000000
00000100
00001000
00010000
,
00000000
00100000
00000000
10000000
,
00000000
01000000
00010000
00001000
,
00000010
00000001
00000000
00000000
,
00000100
00001000
00010000
00000000
,
00100000
10000000
00000000
00000000
,
01000000
00010000
00001000
00000000
,
00000100
00000000
00000001
00000000
,
00000100
00001000
00010000
00000000
,
01000000
00000000
10000000
00000000
,
01000000
00010000
00001000
00000000
,
00000010
00000001
00000000
00000000
,
00000100
00001000
00010000
00000000
,
00100000
10000000
00000000
00000000
,
01000000
00010000
00001000
00000000
,
00000100
00000000
00000001
00000000
,
00000100
00001000
00010000
00000000
,
01000000
00000000
10000000
00000000
,
01000000
00010000
00001000
00000000
,
00001000
00001000
00000000
00000000
,
00000010
00000001
00000100
00001000
,
00010000
00010000
00000000
00000000
,
00100000
10000000
01000000
00010000
,
00001000
00001000
00000000
00000000
,
00000100
00000001
00000010
00001000
,
00010000
00010000
00000000
00000000
,
01000000
10000000
00100000
00020000
,
00000000
00001000
00000000
00001000
,
00000000
00001000
00000000
00030000
,
00000010
00000001
00000000
00000000
,
00000100
00001000
00010000
00000000
,
00100000
10000000
00000000
00000000
,
01000000
00010000
00001000
00000000
,
00000100
00000000
00000001
00000000
,
00000100
00001000
00010000
00000000
,
01000000
00000000
10000000
00000000
,
01000000
00010000
00001000
00000000
,
00000010
00000001
00000000
00000000
,
00000100
00001000
00010000
00000000
,
00100000
10000000
00000000
00000000
,
01000000
00010000
00001000
00000000
,
00000100
00000000
00000001
00000000
,
00000100
00001000
00010000
00000000
,
01000000
00000000
10000000
00000000
,
01000000
00010000
00001000
00000000
,
00000000
00000010
00001000
00010000
,
00000000
00100000
00010000
00001000
,
00000000
00000100
00001000
00010000
,
01000000
00010000
00000000
00001000
,
00000000
00000000
00000000
00000000
;
#NOTES:
     dance-double:
     :
     Medium:
     10:
     :
00000000
00000000
00000000
00000000
,
00000000
00000000
00000000
00000000
,
00000000
00000000
00000000
00000000
,
00000000
00000000
00000000
00000000
,
00100000
00000000
10000000
00000000
01000000
00100000
00000000
01000000
,
00000000
10000000
00000000
01000000
00000000
00010000
00001000
00000000
,
00000010
00000000
00000001
00000000
00000100
00000010
00000000
00000100
,
00000000
00000001
00000000
00000100
00000000
00001000
00010000
00000000
,
00100000
00000000
10000000
00000000
01000000
00100000
00000000
01000000
,
00000000
10000000
00000000
01000000
00000000
00010000
00001000
00000000
,
00000010
00000000
00000001
00000000
00000100
00001000
00010000
00001000
,
00000010
00000000
00000001
00000000
00000100
00001000
00010000
00000000
,
00100000
00000000
10000000
00000000
01000000
00010000
00001000
00010000
,
00100000
00000000
10000000
00000000
01000000
00010000
00001000
00000000
,
00000010
00000000
00000001
00000000
00000100
00001000
00010000
00001000
,
00000010
00000000
00000001
00000000
00000100
00001000
00010000
00000000
,
00100000
00000000
10000000
00000000
01000000
00010000
00001000
00010000
,
00100000
00000000
10000000
00000000
01000000
00010000
00001000
00000000
,
00000010
00000000
00000001
00000000
00000000
00000001
00001000
00000100
,
00000010
00000000
00000001
00000000
00000000
00000100
00001000
00010000
,
00100000
00000000
10000000
00000000
00000000
10000000
00010000
01000000
,
00100000
00000000
10000000
00000000
00000000
01000000
00010000
00001000
,
00000010
00000000
00000001
00000000
00000000
00000001
00001000
00000100
,
00000010
00000000
00000001
00000000
00000000
00000100
00001000
00010000
,
00100000
00000000
10000000
00000000
00000000
10000000
00010000
01000000
,
00100000
00000000
10000000
00000000
00000000
01000000
00010000
00001000
,
00000010
00000000
00000100
00000000
00001000
00000000
00000001
00000100
,
00000000
00000010
00001000
00000001
00000100
00001000
00010000
00000000
,
00100000
00000000
01000000
00000000
00010000
00000000
10000000
01000000
,
00000000
00100000
00010000
10000000
01000000
00010000
00001000
00000000
,
00000010
00000000
00000100
00000000
00001000
00000000
00000001
00000100
,
00000000
00000010
00001000
00000001
00000100
00001000
00010000
00000000
,
00100000
00000000
01000000
00000000
00010000
00000000
10000000
01000000
,
00000000
00100000
00010000
10000000
01000000
00010000
00001000
00000000
,
00001000
00000000
00001000
00000000
00010000
00001000
00000010
00000001
,
00000000
00000100
00000010
00000100
00000000
00001000
00010000
00000000
,
00010000
00000000
00010000
00000000
00001000
00010000
00100000
10000000
,
00000000
01000000
00100000
01000000
00000000
00010000
00001000
00000000
,
00000010
00000000
00000100
00000000
00001000
00000000
00000001
00000100
,
00000000
00000001
00000000
00000100
00000000
00001000
00010000
00000000
,
00100000
00000000
01000000
00000000
00010000
00000000
10000000
01000000
,
00000000
10000000
00000000
01000000
00000000
00010000
00001000
00000000
,
00001000
00000000
00001000
00000000
00010000
00001000
00000010
00000001
,
00000000
00000100
00000010
00000100
00000000
00001000
00010000
00000000
,
00010000
00000000
00010000
00000000
00001000
00010000
00100000
10000000
,
00000000
01000000
00100000
01000000
00000000
00010000
00001000
00000000
,
00000010
00000000
00000100
00000000
00001000
00000000
00000001
00000100
,
00000000
00000001
00000000
00000100
00000000
00001000
00010000
00000000
,
00100000
01000000
00010000
10000000
,
01000000
10000000
00000000
01000000
00000000
00010000
00001000
00000000
,
00000010
00000000
00000100
00000000
00001000
00000001
00000000
00000100
,
00000000
00000010
00000000
00000100
00000000
00001000
00010000
00000000
,
00100000
00000000
01000000
00000000
00010000
10000000
00000000
01000000
,
00000000
00100000
00000000
01000000
00000000
00010000
00001000
00000000
,
00000010
00000000
00000100
00000000
00001000
00000001
00000000
00000100
,
00000000
00000010
00000000
00000100
00000000
00001000
00010000
00000000
,
00100000
00000000
01000000
00000000
00010000
10000000
00000000
01000000
,
00000000
00100000
00000000
01000000
00000000
00010000
00002000
00000000
,
00000100
00023000
01000000
00032000
,
00000010
00023000
00100000
00031000
,
00001000
00000000
00001000
00000000
00010000
00001000
00000010
00000001
,
00000000
00000100
00000010
00000100
00000000
00001000
00010000
00000000
,
00010000
00000000
00010000
00000000
00001000
00010000
00100000
10000000
,
00000000
01000000
00100000
01000000
00000000
00010000
00001000
00000000
,
00000010
00000000
00000100
00000000
00001000
00000000
00000001
00000100
,
00000000
00000001
00000000
00000100
00000000
00001000
00010000
00000000
,
00100000
00000000
01000000
00000000
00010000
00000000
10000000
01000000
,
00000000
10000000
00000000
01000000
00000000
00010000
00001000
00000000
,
00001000
00000000
00001000
00000000
00010000
00001000
00000010
00000001
,
00000000
00000100
00000010
00000100
00000000
00001000
00010000
00000000
,
00010000
00000000
00010000
00000000
00001000
00010000
00100000
10000000
,
00000000
01000000
00100000
01000000
00000000
00010000
00001000
00000000
,
00000010
00000000
00000100
00000000
00001000
00000000
00000001
00000100
,
00000000
00000001
00000000
00000100
00000000
00001000
00010000
00000000
,
00100000
01000000
00010000
10000000
,
01000000
10000000
00000000
01000000
00000000
00010000
00001000
00000000
,
00000010
00000001
00000100
00001000
,
00000010
00000000
00000001
00000000
00000100
00001000
00010000
00000000
,
00100000
10000000
01000000
00010000
,
00100000
00000000
10000000
00000000
01000000
00010000
00001000
00000000
,
00000000
00000000
00000000
00000000
;
#NOTES:
     dance-double:
     :
     Hard:
     11:
     :
00000000
00000000
00000000
00000000
,
00000000
00000000
00000000
00000000
,
00000000
00000000
00000000
00000000
,
00000000
00000000
00000000
00000000
,
00100000
00000000
00100000
00000000
00100000
10000000
00000000
10000000
,
00000000
10000000
01000000
00000000
00100000
01000000
00010000
00001000
,
00000010
00000000
00000010
00000000
00000010
00000001
00000000
00000001
,
00000000
00000001
00000100
00000000
00000010
00000100
00001000
00010000
,
00100000
00000000
00100000
00000000
00100000
10000000
00000000
10000000
,
00000000
10000000
01000000
00000000
00100000
01000000
00010000
00001000
,
00000010
00000001
00000100
00000010
00001000
00000001
00000100
00000000
,
00000010
00001000
00000001
00000100
00001000
00000000
00010000
00000000
,
00100000
10000000
01000000
00100000
00010000
10000000
01000000
00000000
,
00100000
00010000
10000000
01000000
00010000
00000000
00001000
00000000
,
00000010
00000001
00000100
00000010
00001000
00000001
00000100
00000000
,
00000010
00001000
00000001
00000100
00001000
00000000
00010000
00000000
,
00100000
10000000
01000000
00100000
00010000
10000000
01000000
00000000
,
00100000
00010000
10000000
01000000
00010000
00000000
00001000
00000000
,
00000010
00000100
00001000
00000001
,
00000010
00000100
00001000
00000001
00000100
00001000
00010000
00000000
,
00100000
01000000
00010000
10000000
,
00100000
01000000
00010000
10000000
01000000
00010000
00001000
00000000
,
00000010
00000100
00001000
00000001
,
00000010
00000100
00001000
00000001
00000100
00001000
00010000
00000000
,
00100000
01000000
00010000
10000000
,
00100000
01000000
00010000
10000000
01000000
00010000
00001000
00000000
,
00000010
00000001
00000100
00000010
00001000
00000100
00000010
00000001
,
00000100
00000010
00001000
00000001
00000100
00001000
00010000
00000000
,
00100000
10000000
01000000
00100000
00010000
01000000
00100000
10000000
,
01000000
00100000
00010000
10000000
01000000
00010000
00001000
00000000
,
00000010
00000001
00000100
00000010
00001000
00000100
00000010
00000001
,
00000100
00000010
00001000
00000001
00000100
00001000
00010000
00000000
,
00100000
10000000
01000000
00100000
00010000
01000000
00100000
10000000
,
01000000
00100000
00010000
10000000
01000000
00010000
00001000
00000000
,
00010000
00000000
00010000
00000000
00001000
00000010
00000001
00001000
,
00000010
00000100
00000001
00001000
00000010
00000100
00001000
00010000
,
00001000
00000000
00001000
00000000
00010000
00100000
10000000
00010000
,
00100000
01000000
10000000
00010000
00100000
01000000
00010000
00001000
,
00000010
00000100
00001000
00000001
00000010
00000000
00000100
00001000
,
00000000
00000010
00001000
00000001
00000000
00000100
00001000
00010000
,
00100000
01000000
00010000
10000000
00100000
00000000
01000000
00010000
,
00000000
00100000
00010000
10000000
00000000
01000000
00010000
00001000
,
00010000
00000000
00010000
00000000
00001000
00000010
00000001
00001000
,
00000010
00000100
00000001
00001000
00000010
00000100
00001000
00010000
,
00001000
00000000
00001000
00000000
00010000
00100000
10000000
00010000
,
00100000
01000000
10000000
00010000
00100000
01000000
00010000
00001000
,
00000010
00000100
00001000
00000001
00000010
00000000
00000100
00001000
,
00000000
00000010
00001000
00000001
00000000
00000100
00001000
00010000
,
00100000
01000000
00010000
10000000
00100000
00000000
01000000
00010000
,
00100000
00010000
00000000
10000000
00000000
01000000
00010000
00001000
,
00000010
00000000
00000001
00000000
00000100
00000010
00000000
00001000
,
00000000
00000100
00000000
00000010
00000001
00000100
00001000
00010000
,
00100000
00000000
10000000
00000000
01000000
00100000
00000000
00010000
,
00000000
01000000
00000000
00100000
10000000
01000000
00010000
00001000
,
00000010
00000000
00000001
00000000
00000100
00000010
00000000
00001000
,
00000000
00000100
00000000
00000010
00000001
00000100
00001000
00010000
,
00100000
00000000
10000000
00000000
01000000
00100000
00000000
00010000
,
00000000
01000000
00000000
00100000
10000000
01000000
00010000
00001000
,
00000000
00001010
00000000
00011000
,
00000000
00110000
00000000
00011000
,
00010000
00000000
00010000
00000000
00001000
00000010
00000001
00001000
,
00000010
00000100
00000001
00001000
00000010
00000100
00001000
00010000
,
00001000
00000000
00001000
00000000
00010000
00100000
10000000
00010000
,
00100000
01000000
10000000
00010000
00100000
01000000
00010000
00001000
,
00000010
00000100
00001000
00000001
00000010
00000000
00000100
00001000
,
00000000
00000010
00001000
00000001
00000000
00000100
00001000
00010000
,
00100000
01000000
00010000
10000000
00100000
00000000
01000000
00010000
,
00000000
00100000
00010000
10000000
00000000
01000000
00010000
00001000
,
00010000
00000000
00010000
00000000
00001000
00000010
00000001
00001000
,
00000010
00000100
00000001
00001000
00000010
00000100
00001000
00010000
,
00001000
00000000
00001000
00000000
00010000
00100000
10000000
00010000
,
00100000
01000000
10000000
00010000
00100000
01000000
00010000
00001000
,
00000010
00000100
00001000
00000001
00000010
00000000
00000100
00001000
,
00000000
00000010
00001000
00000001
00000000
00000100
00001000
00010000
,
00100000
01000000
00010000
10000000
00100000
00000000
01000000
00010000
,
00100000
00010000
00000000
10000000
00000000
01000000
00010000
00001000
,
00000200
00000001
00001300
00010000
,
02000000
10000000
03010000
00001000
,
00000100
00000001
00000100
00001000
00010000
01000000
10000000
01000000
,
00010000
00001000
00000000
00010000
00001000
00000000
00011000
00000000
,
00000000
00000000
00000000
00000000
;
