
//----- song ID: kuka -----//
#TITLE:黒髪乱れし修羅となりて~凛 edition~;
#ARTIST:日向美ビタースイーツ♪;
#TITLETRANSLIT:Kurokami midareshi shura to narite ~Rin edition~;
#ARTISTTRANSLIT:Hinatabi Bittersweets♪;
#BANNER:Kurokami midareshi shura to narite ~Rin edition~.png;
#BACKGROUND:Kurokami midareshi shura to narite ~Rin edition~-bg.png;
#CDTITLE:./CDTitles/DDR A.png;
#MUSIC:Kurokami midareshi shura to narite ~Rin edition~.ogg;
#SAMPLESTART:39.614;
#SAMPLELENGTH:15;
#DISPLAYBPM:150;
#BPMS:0=150.5,4=150;
#NOTES:
     dance-single:
     :
     Beginner:
     3:
     :
0000
0000
0000
0000
,
0000
0000
0000
0000
,
0000
0000
0000
0000
,
0000
1000
0000
0001
,
0000
1000
0000
0001
,
0001
0000
0000
0000
,
0100
0000
0000
0000
,
1000
0000
0000
0000
,
0100
0000
0000
0000
,
0001
0001
0000
0000
,
0000
0000
0000
0000
,
0010
0010
0000
0000
,
0000
0000
0000
0000
,
1000
1000
0000
0000
,
0000
0000
0000
0000
,
0100
0000
0000
0000
,
0010
0000
0000
0000
,
0001
0000
1000
0000
,
0001
0000
0001
0000
,
0001
0000
1000
0000
,
0100
0000
0100
0000
,
1000
0000
0001
0000
,
1000
0000
1000
0000
,
1000
0000
0001
0000
,
0100
0000
0000
0000
,
0001
0001
0001
0000
,
0100
0000
0100
0000
,
0001
0000
1000
0000
,
0001
0000
0000
0000
,
1000
1000
1000
0000
,
0100
0000
0100
0000
,
1000
0000
0001
0000
,
0010
0000
0000
0000
,
0010
0000
0000
0000
,
0100
0000
0000
0000
,
0100
0000
0000
0000
,
0001
0000
0000
0000
,
0001
0000
0000
0000
,
1000
0000
0000
0000
,
1000
0000
0000
0000
,
0020
0000
0030
0000
,
0001
0000
0001
0000
,
1000
0000
1000
0000
,
0100
0000
0000
0000
,
0100
0000
0000
0000
,
1000
0000
1000
0000
,
0001
0000
0001
0000
,
0100
0000
0000
0000
,
0100
0000
0000
0000
,
1000
0000
0001
0000
,
1000
0000
1000
0000
,
1000
0000
0001
0000
,
0100
0000
0100
0000
,
0001
0000
1000
0000
,
0001
0000
0001
0000
,
0001
0000
1000
0000
,
0100
0000
0000
0000
,
0100
0000
0000
0000
,
0100
0000
0000
0000
,
1000
0000
0001
0000
,
1000
0000
0000
0000
,
0001
0001
0001
0000
,
0100
0000
0100
0000
,
0001
0000
0000
0000
,
1000
0000
0000
0000
,
0001
0000
0000
0000
,
1000
0000
0000
0000
,
0001
0000
0000
0000
,
1000
0000
1000
0000
,
0001
0001
0001
0000
,
0100
0000
0100
0000
,
0001
0000
1000
0000
,
0020
0000
0000
0000
,
0100
0000
0000
0030
,
0200
0000
0000
0000
,
0010
0000
0000
0300
,
0020
0000
0000
0000
,
0030
0000
0000
0000
,
0000
0000
0000
0000
;
#NOTES:
     dance-single:
     :
     Easy:
     6:
     :
0000
0000
0000
0000
,
0000
0000
0000
0000
,
0000
0000
0000
0000
,
0000
0000
0000
0000
,
0000
0000
0000
0000
,
0001
0100
0001
0000
,
1000
0000
1000
0000
,
1000
0100
1000
0000
,
0001
0000
0001
0000
,
0000
0001
0100
1000
,
1000
0100
0001
0000
,
0000
0001
0010
0001
,
0010
1000
0010
0000
,
0000
1000
0100
0001
,
0001
0100
1000
0000
,
0010
0001
0100
1000
,
0000
1000
0000
0001
,
1000
0100
1000
0000
,
0010
0001
0010
0000
,
2000
0000
0200
3300
,
0002
0000
0100
0103
,
0001
0100
0001
0000
,
0010
1000
0010
0000
,
0002
0000
0200
0303
,
2000
0000
0200
3300
,
0001
0000
0001
0000
,
1000
0001
0100
0000
,
0010
0000
0001
0000
,
0010
0001
0100
1000
,
1000
0001
0100
0000
,
0010
0000
1000
0000
,
0001
0001
1000
1000
,
0002
0103
2000
3100
,
0002
0103
2000
3001
,
0002
0103
2000
3100
,
0002
0103
2000
3001
,
2000
3100
0002
0103
,
2000
3100
0002
1003
,
2000
3100
0002
0103
,
2000
3100
0002
1003
,
0200
0000
0000
0300
,
0001
0001
0100
1000
,
1000
0100
0001
0000
,
1000
0001
0010
0001
,
0010
1000
0010
0000
,
1000
1000
0100
0001
,
0001
0100
1000
0000
,
0010
0001
0100
1000
,
0000
1000
0000
0001
,
1000
0100
1000
1000
,
0010
0001
0010
0010
,
2000
0000
0200
3300
,
0002
0000
0100
0103
,
0001
0100
0001
0000
,
0010
1000
0010
0000
,
0002
0000
0200
0303
,
2000
0000
0200
3300
,
1000
0010
0001
0010
,
0001
0000
1000
0000
,
0001
0000
0000
0000
,
1000
0100
1000
1000
,
0001
0010
1000
0010
,
1000
0000
0001
0000
,
1000
0000
0000
0000
,
0001
0100
0001
0001
,
0001
0000
0001
0000
,
1000
0001
0100
0000
,
0010
0000
0001
0000
,
0110
0000
0110
0000
,
1000
0001
0100
0000
,
0010
0000
1000
0000
,
0001
0001
1000
1000
,
0001
0010
0001
0010
,
0100
0000
0100
0000
,
1000
0010
1000
0010
,
0100
0000
0100
0000
,
0200
0000
0000
0000
,
0300
0000
0000
0000
,
0000
0000
0000
0000
;
#NOTES:
     dance-single:
     :
     Medium:
     10:
     :
0000
0000
0000
0000
,
0000
0000
0000
0000
,
0000
0000
0000
0000
,
0000
0000
0000
0000
,
0000
0000
0000
0000
,
1000
0001
1000
0100
0000
1000
0001
0000
,
0100
0010
0100
0010
0000
1000
0001
0010
,
0001
1000
0001
0100
0000
0001
1000
0000
,
0100
0010
0100
0010
0000
0001
1000
0010
,
1000
0000
1000
0000
1000
0000
0010
0100
,
0001
0100
0010
1000
0100
0000
1000
0010
,
1000
0000
1000
0000
1000
0000
0100
1000
,
0010
0100
0001
1000
0100
0000
1000
0000
,
0001
0000
0001
0000
0001
0000
0010
0100
,
1000
0100
0010
0001
0100
0000
0001
0010
,
0001
0000
0001
0000
0001
0000
0100
0001
,
0010
0100
1000
0001
0100
0000
0001
0000
,
1000
0000
0110
0000
0001
1000
0100
0000
,
1000
1000
0001
0001
,
0010
0001
0010
0000
0010
1000
0010
0000
,
0001
0010
0001
1100
,
0001
0000
0110
0000
1000
0001
0100
0000
,
0001
0001
1000
1000
,
0010
1000
0010
0000
0010
0001
0010
0000
,
1000
0010
1001
0000
,
0001
0010
0001
0010
0001
0000
1000
0000
,
0100
0010
0100
0010
0001
0000
1100
0000
,
0001
0000
0001
0000
1000
0100
1000
0000
,
0011
0110
1100
0110
,
1000
0010
1000
0010
1000
0000
0001
0000
,
0100
0010
0100
0010
1000
0000
0001
0010
,
0001
0000
0010
0100
0010
0100
0010
0000
,
0002
0103
2000
3100
,
0002
0000
0103
0000
0001
1000
0100
0000
,
2000
3100
0002
0103
,
2000
0000
3100
0000
0010
0001
0100
0000
,
2000
3010
0002
0013
,
2000
0000
3010
0000
1000
0100
0010
0000
,
0002
0013
2000
3010
,
0002
0000
0013
0000
0001
0010
0001
0000
,
1010
0000
0000
0000
1000
0001
0010
0001
,
1000
0010
1000
0000
1000
0000
0100
0010
,
0001
0010
0100
1000
0010
0000
1000
0100
,
1000
0000
1000
0001
1000
0000
0010
1000
,
0100
0010
0001
1000
0010
0000
1000
0000
,
0001
0010
0001
0000
0001
0000
0100
0010
,
1000
0010
0100
0001
0010
0000
0001
0100
,
0001
1010
1000
0011
,
0001
0100
0010
1000
0010
0000
0010
0000
,
1000
0000
0110
0000
0001
1000
0100
0000
,
1000
1000
0001
0001
,
0010
0001
0010
0000
0010
1000
0010
0000
,
0001
0010
0001
1000
,
0001
0000
0110
0000
1000
0001
0100
0000
,
0001
0001
1000
1000
,
0010
1000
0010
0000
0010
0001
0010
0000
,
1000
0010
1001
0000
,
1000
0000
0001
0100
1000
0100
0001
0000
,
0001
0010
0000
0001
0000
1000
0000
0100
,
0000
0011
1000
0100
,
1000
0100
1000
0100
0010
0000
0010
0000
,
0001
0000
1000
0100
0001
0100
1000
0000
,
1000
0010
0000
1000
0000
0001
0000
0100
,
0000
1010
0001
0100
,
0001
0100
0001
0100
0010
0000
0010
0000
,
0001
0000
1000
0000
,
0100
0000
0000
0000
,
1000
0000
0001
0010
,
0100
0000
0000
1000
0000
0000
0100
0000
0000
0010
0000
0000
0001
0000
0000
0000
,
1000
0010
1000
0001
1000
0000
0001
0000
,
0100
0001
0100
0010
1000
0000
0001
0010
,
0001
0000
0010
0100
1000
0100
0010
0000
,
0001
0100
0001
0100
0000
1000
0100
0010
,
0100
0010
0100
0010
0000
1000
0010
1000
,
1000
0100
1000
0100
0000
0001
0100
0010
,
0100
0010
0100
0010
0000
0001
0010
0100
,
0220
0000
0000
0330
,
0000
0000
0000
0000
;
#NOTES:
     dance-single:
     :
     Hard:
     14:
     :
0000
0000
0000
0000
,
0000
0000
0000
0000
,
0000
0000
0000
0000
,
0000
0000
0000
0000
,
0000
0000
0000
0000
,
1000
0001
0100
0000
0001
0000
0100
0000
0000
0000
1000
0010
0100
0000
0001
0000
,
0100
0001
0100
0000
0010
0000
1000
0000
0000
0000
0100
0001
0100
0000
0001
0000
,
0001
1000
0100
0000
1000
0000
0100
0000
0000
0000
0001
0010
0100
0000
1000
0000
,
0100
1000
0100
0000
0010
0000
0001
0000
0000
0000
0100
1000
0100
0000
0010
0000
,
1000
0000
0100
0000
1000
0000
0001
0000
1000
0000
0000
0001
0010
0000
0001
0000
,
0010
0000
0100
0000
1000
0000
0100
0000
1000
0000
0000
0100
1000
0000
0001
0000
,
0010
0000
0001
0000
1000
0000
0100
0000
1000
0000
0000
0010
0100
0000
0010
0000
,
1000
0000
0001
0000
1000
0000
0001
0000
0100
0000
0000
0010
0100
0000
0001
0000
,
0001
0000
0100
0000
0001
0000
1000
0000
0001
0000
0000
1000
0010
0000
1000
0000
,
0010
0000
0100
0000
0001
0000
0100
0000
0001
0000
0000
0100
0001
0000
1000
0000
,
0010
1000
0001
0010
1000
0010
0001
0010
,
0100
0000
0000
0000
1000
0000
0010
0000
0100
0000
0010
0000
1000
0010
1000
0000
,
0001
0000
0100
0010
0100
0000
0001
0000
0010
0000
0100
0010
0100
0000
1000
0000
,
0001
0010
0001
0000
0010
0000
0100
0000
1000
0000
0100
0000
0010
0000
0001
0000
,
0010
0000
0100
0010
0100
0000
1000
0000
0001
0000
0100
0010
0100
0000
0001
0000
,
1000
0000
0100
1000
0100
0000
1000
0000
0001
0000
0010
0000
0100
0000
0000
0000
,
1000
0000
0100
0010
0100
0000
1000
0000
0010
0000
0100
0010
0100
0000
0001
0000
,
1000
0010
1000
0000
0010
0000
0100
0000
0001
0000
0100
0000
0010
0000
1000
0000
,
0010
0000
0100
0010
0100
0000
0001
0000
1000
0000
0100
0010
0100
0000
1000
0000
,
0001
0000
0100
0010
0100
0000
0010
0000
0100
0000
0000
0000
0000
0000
0000
0000
,
0001
0000
0010
0000
0001
0000
0100
0000
0010
0000
1000
0000
0100
1000
0100
0000
,
0010
0000
0100
0000
0010
0000
0001
0000
0010
0000
0001
0000
1000
0100
1000
0000
,
0001
0010
0001
0100
0010
1000
0100
1000
,
1100
0000
0000
0110
0000
0000
0011
0000
0000
1000
0000
0000
0001
0100
0010
0000
,
1000
0000
0010
0000
1000
0000
0100
0000
0010
0000
0001
0000
0100
0001
0100
0000
,
0010
0000
0100
0000
0010
0000
1000
0000
0010
0000
1000
0000
0001
0100
0001
0000
,
1000
0000
0010
0000
1000
0000
0100
0010
0100
0000
0000
0001
0000
0000
0010
0000
,
0001
0000
1000
0100
0000
1000
0000
0010
0100
0000
0000
0001
0100
0000
0001
0000
,
1000
0000
0100
0000
1000
0000
0010
0100
0010
0000
1000
0000
0001
0000
0000
0000
,
1000
0000
0001
0100
0000
0001
0000
0010
0100
0000
0000
1000
0100
0000
1000
0000
,
0100
0000
1000
0000
0001
0000
0010
0001
0010
0000
0001
0000
1000
0000
0000
0000
,
0010
0000
1000
0100
0000
1000
0000
0010
0100
0000
0000
0001
0100
0000
0001
0000
,
1000
0000
0001
0000
1000
0000
0010
1000
0100
0000
1000
0000
0100
0000
0000
0000
,
1000
0000
0001
0100
0000
0001
0000
0010
0100
0000
0000
1000
0100
0000
1000
0000
,
0010
0000
0100
0000
0001
0000
0010
0001
0100
0000
0001
0000
1000
0000
0000
0000
,
0100
0000
0000
0000
0001
1000
0010
0100
,
0010
1000
0100
0000
0010
0000
0001
0000
0010
0001
0010
0000
0001
0000
0100
0000
,
0001
1000
0001
0000
0010
0000
0001
0000
0100
0000
0010
0000
1000
0000
0010
0000
,
1000
0000
0100
0000
1000
0000
0001
0000
1000
0000
0100
0000
0010
0100
0010
0000
,
0001
0000
0100
0000
0001
0000
0010
0000
0001
0010
0001
0000
1000
0000
0001
0000
,
0010
0001
0100
0000
0010
0000
1000
0000
0010
1000
0010
0000
1000
0000
0100
0000
,
1000
0001
1000
0000
0010
0000
1000
0000
0100
0000
0010
0000
0001
0000
0010
0000
,
0001
0100
0001
0010
1000
0010
0001
0100
,
1000
0000
0100
0000
0001
0000
0010
0000
0001
0010
0001
0000
1000
0000
0000
0000
,
1000
0000
0100
0010
0100
0000
1000
0000
0010
0000
0100
0010
0100
0000
0001
0000
,
1000
0010
1000
0000
0010
0000
0100
0000
0001
0000
0100
0000
0010
0000
1000
0000
,
0010
0000
0100
0010
0100
0000
0001
0000
1000
0000
0100
0010
0100
0000
1000
0000
,
0001
0000
0100
0001
0100
0000
0001
0000
1000
0000
0010
0000
0100
0000
0000
0000
,
0001
0000
0100
0010
0100
0000
0001
0000
0010
0000
0100
0010
0100
0000
1000
0000
,
0001
0010
0001
0000
0010
0000
0100
0000
1000
0000
0100
0000
0010
0000
0001
0000
,
0010
0000
0100
0010
0100
0000
1000
0000
0001
0000
0100
0010
0100
0000
0001
0000
,
1000
0000
0100
0010
0100
0000
1000
0000
0100
0000
0000
0000
1000
0000
0000
0000
,
0001
0001
1000
0010
,
0001
0010
0000
1000
0000
1000
0000
0100
,
0000
0010
0100
1000
0010
0100
0010
0100
,
0000
0001
1000
0100
1000
0100
0010
0100
,
1000
1000
0001
0010
,
1000
0010
0000
0001
0000
0001
0000
0100
,
0000
0010
0100
0001
0010
0100
0010
0100
,
0000
0001
1000
0100
1100
0000
0000
0000
,
0002
0000
0000
0000
2003
0000
0000
3000
,
0002
0000
0000
0000
0100
0000
0100
0003
,
2000
0000
3100
0000
,
0101
0000
0000
0110
0000
0000
1010
0000
0000
0001
0000
0000
1000
0000
0000
0000
,
0001
0000
0010
0000
0001
0000
0100
0000
0010
0000
1000
0000
0100
1000
0100
0000
,
0010
0000
0100
0000
0010
0000
0001
0000
0010
0000
0001
0000
1000
0100
1000
0000
,
0001
0000
0010
0000
0001
0000
0100
0000
0001
0000
0000
1000
0000
0000
0010
0000
,
1000
0001
1000
0000
0100
0000
0010
0000
0000
0000
0100
0010
0100
0000
1000
0000
,
0100
1000
0100
0000
1000
0000
0001
0000
0000
0000
0100
0000
0010
0000
0100
0000
,
0001
1000
0001
0000
0100
0000
0010
0000
0000
0000
0100
0010
0100
0000
0001
0000
,
0100
0001
0100
0000
0001
0000
1000
0000
0000
0000
0001
1000
0001
1000
0001
0000
,
2002
0000
0000
3003
,
0000
0000
0000
0000
;
#NOTES:
     dance-double:
     :
     Easy:
     6:
     :
00000000
00000000
00000000
00000000
,
00000000
00000000
00000000
00000000
,
00000000
00000000
00000000
00000000
,
00000000
00000000
00000000
00000000
,
00000000
00000000
00000000
00000000
,
00010000
00001000
00010000
00000000
,
01000000
00000000
10000000
00000000
,
10000000
01000000
10000000
00000000
,
00010000
00000000
00001000
00000000
,
00000000
00000001
00000100
00001000
,
00010000
01000000
10000000
00000000
,
00000000
10000000
00100000
00010000
,
00001000
00000100
00000010
00000100
,
00000000
00000001
00000100
00001000
,
00010000
00001000
01000000
00000000
,
00100000
10000000
01000000
00010000
,
00000000
00001000
00000000
00011000
,
00001000
00000100
00000001
00000001
,
00000010
00000001
00000010
00000000
,
00000001
00000000
00001000
00000000
,
00010000
00000000
10000000
01000000
,
00010000
01000000
10000000
10000000
,
00100000
10000000
00100000
00000000
,
10000000
00000000
00010000
00000000
,
00001000
00000000
00000001
00000100
,
00000001
00000000
00000001
00000000
,
00000100
00000010
00001000
00000000
,
00010000
00000000
00100000
00000000
,
00100000
00010000
00100000
10000000
,
00100000
00010000
00001000
00000000
,
00001000
00000000
00000100
00000000
,
00000001
00000001
00000100
00000100
,
00002000
00013000
00200000
01300000
,
00020000
01030000
00000000
10010000
,
00200000
10300000
02000000
03100000
,
00002000
00013000
00000000
00011000
,
00020000
00031000
00000020
00000130
,
00002000
00003100
00000000
00001001
,
00000020
00000031
00000200
00000310
,
00020000
00031000
00000000
00011000
,
02000000
00000000
00000000
03000000
,
00010000
00010000
01000000
10000000
,
10000000
01000000
00010000
00000000
,
00001000
00000010
00000100
00000001
,
00000010
00001000
00000010
00000000
,
00001000
00001000
00000100
00000001
,
00000001
00000100
00001000
00000000
,
00010000
00100000
01000000
10000000
,
00100000
00010000
00100000
00000000
,
10000000
01000000
10000000
10000000
,
00100000
00010000
00001000
00001000
,
00020000
00000000
00002000
00033000
,
00000200
00000000
00000010
00000310
,
00000001
00000100
00000001
00000001
,
00000010
00001000
00010000
00010000
,
00002000
00000000
00020000
00033000
,
02000000
00000000
00100000
03100000
,
00001000
00010000
00001000
00010000
,
00001000
00000000
00000100
00000000
,
00000010
00000000
00000000
00000000
,
00010000
00001000
00000100
00000010
,
00010000
00001000
00010000
00001000
,
00010000
00000000
01000000
00000000
,
00100000
00000000
00000000
00000000
,
00001000
00010000
00011000
00000000
,
00001000
00000100
00000001
00000001
,
00000010
00000001
00000010
00000000
,
00000001
00000000
00001000
00000000
,
00010000
00000000
10000000
01000000
,
00010000
01000000
10000000
10000000
,
00100000
10000000
00100000
00000000
,
10000000
10000000
01000000
01000000
,
00010000
00010000
00001000
00000000
,
00000100
00000000
00000001
00000000
,
00000001
00000100
00000001
00000000
,
00001000
00000000
00010000
00000000
,
00022000
00000000
00000000
00033000
,
00000000
00000000
00000000
00000000
;
#NOTES:
     dance-double:
     :
     Medium:
     10:
     :
00000000
00000000
00000000
00000000
,
00000000
00000000
00000000
00000000
,
00000000
00000000
00000000
00000000
,
00000000
00000000
00000000
00000000
,
00000000
00000000
00000000
00000000
,
10000000
00010000
10000000
01000000
00000000
10000000
00010000
00000000
,
01000000
00100000
01000000
00100000
00000000
10000000
00100000
00010000
,
00001000
00010000
00001000
00000100
00000000
00000001
00001000
00000000
,
00000100
00000010
00000100
00000010
00000000
00000001
00000010
00001000
,
00010000
00000000
01000000
00000000
10000000
00000000
00100000
01000000
,
00010000
01000000
00100000
10000000
01000000
00000000
10000000
00100000
,
00010000
00000000
00001000
00000000
00000010
00000000
00000100
00001000
,
00000010
00000100
00000001
00001000
00000100
00000000
00010000
00000000
,
00001000
00000000
00010000
00000000
00001000
00000000
00100000
01000000
,
10000000
01000000
00100000
00010000
01000000
00000000
00010000
00100000
,
00001000
00000000
00010000
00000000
00001000
00000000
00000100
00000001
,
00000010
00000100
00001000
00000001
00000100
00000000
00000001
00000000
,
00000001
00000000
00001100
00000000
00010000
00001000
01000000
00000000
,
00100000
10000000
00010000
00100000
,
00001000
00010000
00000010
00000000
00000010
00001000
00000010
00000000
,
00000100
00000010
00010000
00001000
,
00100000
00000000
01010000
00000000
00001000
00010000
00000100
00000000
,
00000010
00000001
00001000
00000010
,
00010000
00001000
00100000
00000000
00100000
00010000
00100000
00000000
,
01000000
00000000
00100000
00000000
10000000
00000000
00100000
01000000
,
00100000
00000000
00000000
00001000
00010000
00000000
00001000
00000000
,
00000100
00000010
00000100
00000010
00001000
00000000
00001100
00000000
,
00000001
00000000
00000100
00000000
00001000
00010000
00001000
00000000
,
00011000
00110000
01100000
11000000
,
10000000
00100000
10000000
00100000
10000000
00000000
01000000
00000000
,
00010000
00001000
00000100
00000010
00001000
00000000
00000001
00000010
,
00000001
00000000
00000000
00000100
00000010
00000100
00001000
00000000
,
00020000
01030000
20000000
31000000
,
00020000
00000000
10030000
00000000
00000000
01000000
01010000
00000000
,
00002000
00013000
00002000
00003100
,
00002000
00000000
00013000
00000000
00000000
00000100
00010000
00000000
,
00020000
00031000
00002000
00013000
,
00020000
00000000
00031000
00000000
00000000
00001000
00011000
00000000
,
00020000
00130000
20000000
30100000
,
00020000
00000000
00031000
00000000
00000000
00010000
00011000
00000000
,
00000110
00000000
00000000
00000000
00001000
00000001
00000010
00000001
,
00001000
00000010
00001000
00000000
00001000
00000000
00000100
00000010
,
00000001
00000000
00000100
00000000
00001000
00000000
00010000
01000000
,
10000000
00000000
10000000
00010000
10000000
00000000
00100000
10000000
,
01000000
00100000
00010000
10000000
00100000
00000000
00010000
00000000
,
00001000
00000010
00000001
00000000
00000001
00000000
00000100
00000010
,
00001000
00000010
00000100
00000001
00000010
00000000
00000001
00000100
,
00000010
00001100
00011000
00110000
,
00010000
01000000
00100000
10000000
00100000
00000000
00100000
00000000
,
10000000
00000000
01010000
00000000
00001000
00010000
00000100
00000000
,
00000010
00000001
00001000
00000010
,
00010000
00001000
00100000
00000000
00100000
00010000
00100000
00000000
,
01000000
00100000
00001000
00010000
,
00000010
00000000
00001100
00000000
00010000
00001000
01000000
00000000
,
00100000
10000000
00010000
00100000
,
00001000
00010000
00000010
00000000
00000010
00001000
00000010
00000000
,
00000100
00000010
00000001
00000000
,
00000001
00000000
00000001
00000100
00001000
00000000
00010000
00000000
,
00010000
00001000
00000000
00010000
00000000
01000000
00000000
00100000
,
00000000
00110000
00001000
00010000
,
00001000
00010000
00001000
00010000
00100000
00000000
00100000
00000000
,
10000000
00000000
10000000
01000000
00010000
00000000
00001000
00000000
,
00001000
00010000
00000000
00001000
00000000
00000100
00000000
00000010
,
00000000
00001010
00010000
00001000
,
00010000
00001000
00010000
00001000
00000010
00000000
00000010
00000000
,
00000001
00000000
00001000
00000000
,
00010000
00000000
00000000
00000000
,
10000000
00000000
00100000
10000000
,
01000000
00000000
00000000
00010000
00000000
00000000
00001000
00000000
00000000
00000010
00000000
00000000
00000001
00000000
00000000
00000000
,
00001000
00000010
00001000
00000001
00001000
00000000
00000001
00000000
,
00000100
00001000
00000100
00001000
00010000
00000000
00010000
00001000
,
00010000
00000000
00000000
00001000
00010000
01000000
00100000
00000000
,
00010000
01000000
00010000
01000000
00000000
10000000
01000000
00100000
,
01000000
00100000
00010000
00001000
00000000
00001000
00100000
00001000
,
00010000
00001000
00010000
00001000
00000000
00000100
00000010
00000100
,
00000010
00010000
00000010
00010000
00000000
00001000
00010000
01000000
,
00200000
00000000
00000000
00300000
,
00000000
00000000
00000000
00000000
;
#NOTES:
     dance-double:
     :
     Hard:
     14:
     :
00000000
00000000
00000000
00000000
,
00000000
00000000
00000000
00000000
,
00000000
00000000
00000000
00000000
,
00000000
00000000
00000000
00000000
,
00000000
00000000
00000000
00000000
,
00001000
00000001
00000100
00000000
00000001
00000000
00000100
00000000
00000000
00000000
00001000
00010000
00001000
00000000
00100000
00000000
,
01000000
10000000
01000000
00000000
00100000
00000000
00010000
00000000
00000000
00000000
01000000
00010000
01000000
00000000
00010000
00000000
,
00010000
10000000
01000000
00000000
10000000
00000000
01000000
00000000
00000000
00000000
00010000
00001000
00010000
00000000
00000010
00000000
,
00000100
00000001
00000100
00000000
00000010
00000000
00001000
00000000
00000000
00000000
00000100
00001000
00000100
00000000
00010000
00000000
,
00001000
00000000
00010000
00000000
01000000
00000000
10000000
00000000
00100000
00000000
00000000
01000000
00100000
00000000
01000000
00000000
,
00100000
00000000
00010000
00000000
00001000
00000000
00010000
00000000
00001000
00000000
00000000
00010000
00001000
00000000
00010000
00000000
,
00000100
00000000
00001000
00000000
00000010
00000000
00000100
00000000
00000001
00000000
00000000
00000010
00000100
00000000
00000010
00000000
,
00000001
00000000
00001000
00000000
00000001
00000000
00001000
00000000
00000100
00000000
00000000
00000010
00000100
00000000
00010000
00000000
,
00001000
00000000
00010000
00000000
01000000
00000000
00100000
00000000
00010000
00000000
00000000
10000000
00100000
00000000
10000000
00000000
,
00100000
00000000
01000000
00000000
00010000
00000000
01000000
00000000
00010000
00000000
00000000
01000000
00010000
00000000
10000000
00000000
,
01000000
00010000
00001000
00000010
00000100
00000010
00000001
00000010
,
00000100
00000000
00001000
00000010
00000001
00000010
00000100
00001000
,
00010000
00000000
00001000
00100000
00001000
00000000
00010000
00000000
00100000
00000000
01000000
00100000
01000000
00000000
00001000
00000000
,
00010000
00000000
00001000
00000000
00011000
00000000
00010000
00000000
00000100
00001000
00000001
00000000
00000010
00000000
00000001
00000000
,
00000010
00000000
00000100
00000010
00000100
00000000
00001000
00000000
00000001
00000000
00000100
00000010
00000100
00000000
00000001
00000000
,
00001000
00000000
00000100
00001000
00000100
00000000
00010000
00000000
00001000
00000000
00010000
00000000
00001000
00000000
00000000
00000000
,
00001000
00000000
00010000
00000010
00010000
00000000
00001000
00000000
00000010
00000000
00000100
00000010
00000100
00000000
00010000
00000000
,
00001000
00000000
00010000
00000000
00011000
00000000
00001000
00000000
01000000
00010000
10000000
00000000
00100000
00000000
10000000
00000000
,
00100000
00000000
01000000
00100000
01000000
00000000
00010000
00000000
10000000
00000000
01000000
00100000
01000000
00000000
10000000
00000000
,
00010000
00000000
01000000
00010000
01000000
00000000
00001000
00000000
00010000
00000000
00000000
00000000
00000000
00000000
00000000
00000000
,
00001000
00000000
00000010
00000000
00000001
00000000
00000100
00000000
00000010
00000000
00001000
00000000
00000100
00001000
00000100
00000000
,
00000010
00000000
00000100
00000000
00000010
00000000
00000001
00000000
00000010
00000000
00000100
00000000
00001000
00000100
00001000
00000000
,
00000100
00010000
00001000
00010000
00100000
10000000
01000000
10000000
,
11000000
00000000
00000000
01100000
00000000
00000000
00110000
00000000
00000000
10000000
00000000
00000000
00010000
01000000
00100000
00000000
,
10000000
00000000
00100000
00000000
10000000
00000000
01000000
00000000
00100000
00000000
00001000
00000000
00010000
00001000
00010000
00000000
,
00000010
00000100
00000010
00001000
00000010
00001000
00000001
00000000
,
00000001
00000000
00000010
00000000
00001000
00000000
00010000
00001000
01000000
00000000
00000000
00010000
00000000
00000000
00100000
00000000
,
01000000
00000000
10000000
01000000
00000000
10000000
00000000
00100000
01000000
00000000
00000000
00010000
01000000
00000000
00010000
00000000
,
10000000
01000000
10000000
00100000
00000000
00010000
00001000
00000000
,
00001000
00000000
00010000
00000100
00000000
00001000
00000000
00000010
00000100
00000000
00000000
00000010
00000100
00000000
00000001
00000000
,
00000100
00000001
00000010
00000100
00000000
00010000
00001000
00000000
,
00010000
00000000
00001000
00010000
00000000
00001000
00000000
00100000
01000000
00000000
00000000
00010000
01000000
00000000
00010000
00000000
,
10000000
00010000
10000000
01000000
00000000
00010000
00001000
00000000
,
00010000
00000000
00001000
00010000
00000000
00001000
00000000
00010000
00000010
00000000
00000000
00001000
00000010
00000000
00001000
00000000
,
00000100
00000010
00000001
00000100
00000000
00000001
00000100
00000000
,
00000001
00000000
00000000
00000000
00000001
00000100
00001000
00010000
,
00001000
00010000
00001000
00000000
00100000
00000000
00010000
00000000
00100000
00010000
00100000
00000000
00010000
00000000
01000000
00000000
,
00010000
10000000
00010000
00000000
00100000
00000000
00010000
00000000
01000000
00000000
00100000
00000000
10000000
00000000
00100000
00000000
,
10000000
00000000
01000000
00000000
00010000
00000000
00001000
00000000
00000010
00000000
00000100
00000000
00000010
00000100
00000010
00000000
,
00000001
00000000
00000100
00000000
00000001
00000000
00000010
00000000
00000001
00000010
00000001
00000000
00001000
00000000
00000001
00000000
,
00000010
00000001
00000010
00000000
00000001
00000000
00000100
00000000
00001000
00010000
00001000
00000000
00010000
00000000
01000000
00000000
,
10000000
01000000
10000000
00000000
00100000
00000000
10000000
00000000
01000000
00000000
00100000
00000000
00010000
00000000
00100000
00000000
,
00010000
01000000
00001000
00100000
00001000
00100000
00001000
00010000
,
00001000
00000000
00000000
00000000
00010000
00000000
00000010
00000000
00010000
00000010
00010000
00000000
00000010
00000000
00000000
00000000
,
00001000
00000000
00000100
00000010
00000100
00000000
00001000
00000000
00000010
00000000
00000100
00000010
00000100
00000000
00001000
00000000
,
00010000
00001000
00010000
00000000
00001000
00000000
00010000
00000000
00100000
00000000
10000000
00000000
00100000
00000000
10000000
00000000
,
00100000
00000000
01000000
00100000
01000000
00000000
00010000
00000000
10000000
00000000
01000000
00100000
01000000
00000000
10000000
00000000
,
00010000
00000000
01000000
00010000
01000000
00000000
00001000
00000000
00010000
00000000
00001000
00000000
00010000
00000000
00000000
00000000
,
00010000
00000000
00001000
00100000
00001000
00000000
00010000
00000000
00100000
00000000
01000000
00100000
01000000
00000000
00001000
00000000
,
00010000
00000000
00001000
00000000
00011000
00000000
00010000
00000000
00000100
00001000
00000001
00000000
00000010
00000000
00000001
00000000
,
00000010
00000000
00000100
00000010
00000100
00000000
00001000
00000000
00000001
00000000
00000100
00000010
00000100
00000000
00000001
00000000
,
00001000
00000000
00000100
00001000
00000100
00000000
00010000
00000000
00001000
00000000
00000000
00000000
00010000
00000000
00000000
00000000
,
00100000
10000000
10000000
00100000
,
00010000
00001000
00000000
00000100
00000000
00000001
00000000
00000100
,
00000000
00000010
00000100
00000010
00010000
00000100
00000010
00000100
,
00000000
00001000
00000001
00000100
00000001
00000010
00000001
00000100
,
00000001
00000100
00001000
00010000
,
00100000
01000000
00000000
00010000
00000000
00010000
00000000
01000000
,
00000000
00100000
01000000
00001000
00100000
01000000
00100000
01000000
,
00000000
10000000
01000000
00010000
00001000
00000000
00000000
00000000
,
00000020
00000000
00000001
00000000
,
00000100
00000130
00001000
00010000
,
01000000
00000000
10000000
00000000
,
11000000
00000000
00000000
01010000
00000000
00000000
00011000
00000000
00000000
00001010
00000000
00000000
00000011
00000000
00000000
00000000
,
00000001
00000000
00000010
00000000
00000001
00000000
00000100
00000000
00000010
00000000
00010000
00000000
00001000
00010000
00001000
00000000
,
00100000
01000000
00100000
00010000
00100000
00010000
10000000
01000000
,
10000000
00000000
00100000
00000000
00010000
00000000
00001000
00010000
00000100
00000000
00000000
00001000
00000000
00000000
00000010
00000000
,
00001000
00000100
00001000
00000000
00000100
00000000
00000010
00000000
00000000
00000000
00000100
00000010
00000100
00000000
00001000
00000000
,
00000100
00001000
00000100
00000000
00001010
00000000
00000001
00000000
00000000
00000000
00000100
00000000
00001000
00000000
00010000
00000000
,
00100000
00010000
00100000
00000000
01000000
00000000
10000000
00000000
00000000
00000000
01000000
00100000
01000000
00000000
00001000
00000000
,
00010000
00001000
00010000
00000000
00001000
00000000
00000100
00000000
00000000
00000000
00001000
00010000
00001000
00010000
00001000
00000000
,
00022000
00000000
00000000
00033000
,
00000000
00000000
00000000
00000000
;
