
//----- song ID: kura -----//
#TITLE:倉野川音頭;
#ARTIST:日向美ビタースイーツ♪&ひなちくん;
#TITLETRANSLIT:Kuranogawa ondo;
#ARTISTTRANSLIT:Hinatabi Bittersweets♪ & Hinachi-kun;
#BANNER:Kuranogawa ondo.png;
#BACKGROUND:Kuranogawa ondo-bg.png;
#CDTITLE:./CDTitles/DDR A.png;
#MUSIC:Kuranogawa ondo.ogg;
#SAMPLESTART:19.122;
#SAMPLELENGTH:15;
#DISPLAYBPM:113;
#BPMS:0=112.7,4=113;
#NOTES:
     dance-single:
     :
     Beginner:
     2:
     :
0000
0000
0000
0000
,
0000
0000
0000
0000
,
0000
0000
0000
0000
,
0100
0100
0100
0000
,
1000
0000
1000
0000
,
0000
1000
0000
0001
,
0000
1000
0000
0001
,
0001
0000
1000
0000
,
0010
0010
0010
0000
,
1000
0000
1000
0000
,
0001
0000
0001
0000
,
0010
0000
0100
0000
,
0010
0000
0100
0000
,
0001
0001
0001
0000
,
1000
1000
1000
0000
,
0001
0000
1000
0000
,
0001
0000
1000
0000
,
0100
0000
0010
0000
,
0010
0010
0010
0000
,
0010
0000
0010
0000
,
0001
0000
0001
0000
,
0010
0000
0010
0000
,
1000
0000
1000
0000
,
0020
0000
0030
0000
,
0002
0000
0003
0000
,
0200
0000
0300
0000
,
0100
0100
0100
0000
,
1000
1000
1000
0000
,
0001
0001
0001
0000
,
0100
0100
0100
0000
,
0001
0001
0001
0000
,
0020
0000
0030
0000
,
2000
0000
3000
0000
,
0100
0000
0100
0000
,
0010
0010
0010
0000
,
0010
0010
0010
0000
,
1000
0000
1000
0000
,
0100
0100
0100
0000
,
0001
0000
0001
0000
,
0000
0001
0000
1000
,
0000
0001
0000
1000
,
1000
0000
0001
0000
,
0010
0010
0010
0000
,
0001
0000
0001
0000
,
1000
0000
1000
0000
,
0010
0000
0100
0000
,
0010
0000
0100
0000
,
1000
1000
1000
0000
,
0001
0001
0001
0000
,
1000
0000
0001
0000
,
1000
0000
0001
0000
,
0100
0000
0010
0000
,
0010
0010
0010
0000
,
0001
0000
1000
0000
,
0001
0000
1000
0000
,
0100
0000
0010
0000
,
0010
0010
0010
0010
,
0000
0000
0000
0000
;
#NOTES:
     dance-single:
     :
     Easy:
     5:
     :
0000
0000
0000
0000
,
0000
0000
0000
0000
,
0000
0000
0000
0000
,
0110
1001
0110
0000
,
0010
1000
0002
0000
,
0010
2003
0010
3002
,
0010
2003
3010
0000
,
0010
0000
1000
0000
,
0100
0001
0010
0000
,
1000
0100
1000
0000
,
0001
0010
0001
0000
,
0010
0010
0100
0000
,
0010
0100
0100
0000
,
0001
0010
0100
1000
,
0010
0100
0001
0000
,
0001
0001
1001
0000
,
1000
1000
1001
0000
,
1001
0000
0110
0000
,
0110
1001
0110
0000
,
0010
0001
0010
0001
,
0010
1000
0010
0000
,
0010
0001
0010
0001
,
0010
1000
0010
0100
,
2000
0000
0001
3001
,
0002
0000
1000
1003
,
1000
0000
0001
0000
,
0110
1001
0110
0000
,
1000
1000
0100
0000
,
0001
0001
0100
0100
,
1000
1000
1000
0000
,
0001
0010
0001
0010
,
0001
0001
0002
0100
,
1000
0003
0000
0100
0000
0000
2000
0000
0000
3100
0000
0000
,
1001
0000
0110
0000
,
1000
0001
1000
0000
,
0110
1001
0110
0000
,
1000
0001
1000
0000
,
0110
1001
0110
0000
,
0010
0001
2000
0000
,
0010
3002
0010
2003
,
0010
3002
0013
0000
,
0010
0000
0001
0000
,
0100
1000
0010
0000
,
0001
0100
0001
0000
,
1000
0010
1000
0000
,
0010
0010
0100
0000
,
0010
0100
0100
0000
,
1000
0010
0100
0001
,
0010
0100
1000
0000
,
1000
1000
1001
0000
,
0001
0001
1001
0000
,
1001
0000
0110
0000
,
0110
1001
0110
0000
,
0010
0002
0010
2003
,
0010
3002
0010
1003
,
1001
0000
0110
0000
,
1001
0110
1001
0110
,
0000
0000
0000
0000
;
#NOTES:
     dance-single:
     :
     Medium:
     7:
     :
0000
0000
0000
0000
,
0000
0000
0000
0000
,
0000
0000
0000
0000
,
1100
1001
0110
0000
,
0001
0000
1000
0001
0000
0100
0001
0000
0000
0000
0000
0000
,
0010
1000
0000
1000
0000
0000
,
0010
0001
0000
0001
0000
0000
,
0011
0010
0110
0100
,
1100
1100
0110
0000
,
0001
0000
0100
0000
0000
0000
0001
0000
0000
1100
0000
0000
,
1000
0100
2000
3100
,
1000
0000
0001
0000
0000
0000
0100
0000
0000
0001
0000
0000
,
0010
0001
0100
0000
,
1000
0000
0100
0010
0000
0000
0100
0000
0000
0110
0000
0000
,
0000
0000
1000
0001
0000
0000
1001
0000
0000
0010
0000
0000
,
1000
0000
0100
0000
0000
1000
0100
0000
0000
0000
0000
0000
,
0001
0000
0010
0000
0000
0001
0010
0000
0000
0000
0000
0000
,
0002
0013
2000
3010
,
1100
0110
0011
0000
,
0001
0000
1000
0100
0000
0000
1000
0000
0000
0100
0000
0000
,
1000
0100
0010
0001
,
1000
0000
0001
0100
0000
0000
0001
0000
0000
0100
0000
0000
,
0001
0100
0010
1000
,
1000
0000
0100
1000
0000
0000
0101
0000
0000
0101
0000
0000
,
0001
0000
0100
0001
0000
0000
0110
0000
0000
0110
0000
0000
,
1000
0000
0100
0001
0000
0000
1000
0000
0100
0001
0000
0000
,
1100
0011
0000
0110
,
1000
0000
0100
0000
0000
1000
0100
0000
0000
0000
0000
0000
,
0001
0000
0010
0000
0000
0001
0010
0000
0000
0000
0000
0000
,
0001
0000
1000
0000
0000
0001
1000
0000
0000
0000
0000
0000
,
1000
0000
0100
0000
0000
1000
0100
0000
0000
0000
0000
0000
,
0001
0000
0000
0010
0000
0000
0100
0000
0000
1000
0000
0100
,
1000
0000
0000
0010
0000
0000
0100
0000
0000
0001
0000
0010
,
0001
0000
0110
0000
,
0001
0000
0000
1000
0000
0001
0100
0000
0000
1001
0000
0000
,
1010
1001
0110
0000
,
0001
0000
1000
0000
0000
0001
0100
0000
0000
0000
0000
0000
,
0101
1001
0110
0000
,
1000
0000
0001
1000
0000
0100
1000
0000
0000
0000
0000
0000
,
0010
0001
0000
0001
0000
0000
,
0010
1000
0000
1000
0000
0000
,
1010
0010
0110
0100
,
0101
0101
0110
0000
,
1000
0000
0100
0000
0000
0000
1000
0000
0000
0101
0000
0000
,
0001
0100
0002
0103
,
0001
0000
1000
0000
0000
0000
0100
0000
0000
1000
0000
0000
,
0010
1000
0100
0000
,
0001
0000
0100
0010
0000
0000
0100
0000
0000
0110
0000
0000
,
0000
0000
0001
1000
0000
0000
1001
0000
0000
0010
0000
0000
,
0001
0000
0100
0000
0000
0001
0100
0000
0000
0000
0000
0000
,
1000
0000
0010
0000
0000
1000
0010
0000
0000
0000
0000
0000
,
2000
3010
0002
0013
,
0101
0110
1010
0000
,
1000
0000
0100
0000
0000
1000
0100
0000
0000
1000
0000
0000
,
0001
0000
0010
0000
0000
0001
0010
0000
0000
0001
0000
0000
,
0011
0110
1100
0011
,
1000
0000
0100
1000
0000
0100
0010
0000
0000
0110
0000
0000
,
0000
0000
0000
0000
;
#NOTES:
     dance-single:
     :
     Hard:
     11:
     :
0000
0000
0000
0000
,
0000
0000
0000
0000
,
0000
0000
0000
0000
,
0010
0000
0000
0100
0000
0000
1000
0000
0100
0010
0000
0001
,
0010
0000
0100
1000
0000
0100
0001
0000
0010
0100
0000
1000
,
0001
0000
0100
0000
0000
0010
0100
0000
0000
1001
0000
0000
,
1000
0000
0100
0000
0000
0010
0100
0000
0000
1001
0000
0001
,
0100
0000
0000
1000
0000
0100
0001
0000
0010
0100
0000
1000
,
0100
0101
0110
1001
,
1000
0000
0100
0000
0000
0100
1000
0000
0000
0001
0000
0000
,
0001
0000
0010
0000
0000
0010
1000
0000
0000
0110
0000
0000
,
0100
0000
0010
0000
0000
0001
0100
0000
0000
1001
0000
0000
,
1000
0000
0100
1000
0000
0100
0010
0000
0000
1001
0000
0000
,
0001
0000
0010
0110
0000
0000
1000
0000
0010
0110
0000
0000
,
0000
0000
1000
0001
0000
0000
1000
0000
0000
0110
0000
0000
,
0001
0000
0010
0001
0000
0100
1000
0000
0100
0010
0000
0100
,
0001
0000
0010
0001
0000
0010
1000
0000
0000
0010
0000
0100
,
0001
0000
0000
0110
0000
0000
1001
0000
0000
1000
0000
0001
,
1000
0000
0100
1000
0000
0100
1001
0000
0000
0100
0000
0000
,
0001
0000
0010
0100
0000
0100
1000
0000
0100
1000
0000
0100
,
1000
0000
0010
0100
0000
0001
1000
0000
0100
1000
0000
0100
,
1000
0000
0010
0100
0000
0100
0001
0000
0100
0001
0000
0100
,
0001
0000
0010
0100
0000
1000
0001
0000
0100
0001
0000
0010
,
0001
0000
0000
1100
0000
0000
0110
0000
0000
0010
0000
0001
,
0010
0000
0100
1000
0000
0100
1000
0000
0000
0000
0000
0000
,
0000
0000
0100
1000
0000
0010
0100
0000
0010
0001
0000
0010
,
1001
0000
0000
1100
0000
0000
0000
0000
0001
1000
0000
0001
,
0010
0000
0001
0010
0000
0001
1000
0000
0100
1000
0000
0100
,
1100
0000
0000
0110
0000
0000
0001
0000
1000
0001
0000
1000
,
0000
0000
0100
1000
0000
0100
0010
0000
0001
1000
0000
0100
,
1000
0000
0001
0010
0000
0001
0010
0000
1000
0010
0000
0100
,
0000
0000
1000
0100
0000
0010
0002
0000
0000
0103
0000
0000
,
0000
0000
0001
0100
0000
0010
2000
0000
0000
3100
0000
0000
,
1001
0001
0110
0100
,
0001
0000
1000
0001
0000
0010
0001
0000
0000
0110
0000
0000
,
1010
0000
0000
0011
0000
0000
0011
0000
0100
0001
0000
0100
,
0001
0000
0010
0001
0000
0100
0001
0000
0000
0010
0000
1000
,
0010
0000
0000
0100
0000
0000
0001
0000
0100
0010
0000
1000
,
0010
0000
0100
0001
0000
0100
1000
0000
0010
0100
0000
0001
,
1000
0000
0100
0000
0000
0010
0100
0000
0000
1001
0000
0000
,
0001
0000
0100
0000
0000
0010
0100
0000
0000
1001
0000
1000
,
0100
0000
0000
0001
0000
0100
1000
0000
0010
0100
0000
0001
,
0100
1100
0110
1001
,
0001
0000
0100
0000
0000
0100
0001
0000
0000
1000
0000
0000
,
1000
0000
0010
0000
0000
0010
0001
0000
0000
0110
0000
0000
,
0100
0000
0010
0000
0000
1000
0100
0000
0000
1001
0000
0000
,
0001
0000
0100
0001
0000
0100
0010
0000
0000
1001
0000
0000
,
1000
0000
0010
0100
0000
0010
0001
0000
0010
0100
0000
0010
,
0000
0000
0001
0010
0000
0000
1000
0000
0000
0110
0000
0000
,
1000
0000
0010
1000
0000
0100
0001
0000
0100
0010
0000
0100
,
1000
0000
0010
1000
0000
0010
0001
0000
0000
0010
0000
0100
,
1000
0000
0000
0110
0000
0000
1001
0000
0000
0001
0000
1000
,
0001
0000
0100
0001
0000
0100
1001
0000
0000
0100
0000
0000
,
0001
0000
0010
0001
0000
0100
1000
0000
0100
0010
0000
0100
,
0001
0000
0010
0001
0000
0010
1000
0000
0000
0010
0000
0100
,
0001
0000
0000
0110
0000
0000
1001
0000
0000
1000
0000
0001
,
1000
0000
0100
0001
0000
0100
1000
0000
0000
1001
0000
0000
,
0000
0000
0000
0000
;
#NOTES:
     dance-double:
     :
     Easy:
     5:
     :
00000000
00000000
00000000
00000000
,
00000000
00000000
00000000
00000000
,
00000000
00000000
00000000
00000000
,
00000110
00001001
00000001
00000010
,
00001000
00001000
00020000
00000000
,
00130000
20000000
00100000
30020000
,
00100000
20030000
30100000
00000000
,
10000000
01000000
00010000
00000000
,
00001000
00000010
00000001
00000000
,
00000001
00000100
00001000
00000000
,
00010000
00100000
01000000
00000000
,
00100000
00100000
10000000
00000000
,
10000000
01000000
01000000
00000000
,
00010000
00001000
00000100
00000010
,
00000001
00000010
00000010
00000000
,
00001000
00000001
00000100
00000000
,
00001000
00010000
01100000
00000000
,
10000000
00000000
01000000
00000000
,
00010000
00001000
00000110
00000000
,
00000010
00000001
00000010
00000001
,
00000010
00001000
00010000
00000000
,
00100000
00010000
00100000
00010000
,
00100000
10000000
00100000
01000000
,
10000000
00000000
00010000
00000000
,
00001000
00000000
00000001
00000000
,
00000001
00000000
00000100
00000000
,
00011000
00100000
01000000
00000000
,
10000000
10000000
01000000
00000000
,
00010000
00001000
00000100
00000100
,
00000001
00000001
00000001
00000000
,
00000001
00000010
00000001
00000010
,
00000001
00000000
00001000
00000000
,
00010000
00000000
20000000
31000000
,
10010000
00000000
01100000
00000000
,
00010000
00001000
00010000
00000000
,
00000110
00001001
00000110
00000000
,
00000001
00000100
00001000
00000000
,
01100000
10010000
10000000
00100000
,
00010000
00010000
00002000
00000000
,
00003010
00000002
00000010
00002003
,
00000010
00003002
00000013
00000000
,
00000001
00000100
00001000
00000000
,
00010000
00100000
10000000
00000000
,
10000000
01000000
00010000
00000000
,
00001000
00000010
00000100
00000000
,
00000010
00000010
00000001
00000000
,
00000001
00000100
00000100
00000000
,
00001000
00010000
01000000
00100000
,
10000000
00100000
00100000
00000000
,
00010000
10000000
01000000
00000000
,
00010000
00001000
00000110
00000000
,
00000001
00000000
00000100
00000000
,
00001000
00010000
01100000
00000000
,
00010000
10000000
01000000
00000000
,
00010000
00001000
00000110
00000000
,
00000001
00000000
00000100
00000000
,
00001000
00010000
01100000
10010000
,
00000000
00000000
00000000
00000000
;
#NOTES:
     dance-double:
     :
     Medium:
     8:
     :
00000000
00000000
00000000
00000000
,
00000000
00000000
00000000
00000000
,
00000000
00000000
00000000
00000000
,
00010000
00001000
00000110
00000000
,
00000001
00000000
00001000
00000001
00000000
00000100
00000001
00000000
00000000
00000000
00000000
00000000
,
00000001
00000100
00000000
00001000
00000000
00000000
,
00100000
00010000
00000000
00010000
00000000
00000000
,
00110000
00100000
01100000
01000000
,
10000000
01000000
00010000
00011000
,
00010000
00000000
00001000
00000000
00000000
00000000
00000100
00000000
00000000
00000101
00000000
00000000
,
00000001
00000100
00002000
00013000
,
00100000
00000000
00010000
00000000
00000000
00000000
00100000
00000000
00000000
00010000
00000000
00000000
,
00100000
10000000
01000000
00000000
,
10000000
00000000
01000000
00010000
00000000
00000000
00001000
00000000
00000000
00000110
00000000
00000000
,
00000000
00000000
00001000
00000001
00000000
00000000
00000011
00000000
00000000
00000010
00000000
00000000
,
00001000
00000000
00010000
00000000
00000000
00001000
00010000
00000000
00000000
00000000
00000000
00000000
,
00010000
00000000
00100000
00000000
00000000
00010000
00100000
00000000
00000000
00000000
00000000
00000000
,
20000000
00100000
30020000
00100000
,
00130000
00001000
00011000
00000000
,
00010000
00000000
00001000
00000100
00000000
00000000
00001000
00000000
00000000
00000100
00000000
00000000
,
00001000
00000100
00000010
00000100
,
00000001
00000000
00001000
00000100
00000000
00000000
00001000
00000000
00000000
00000100
00000000
00000000
,
00010000
00001000
00100000
00010000
,
10000000
00000000
01000000
10000000
00000000
00000000
01010000
00000000
00000000
01010000
00000000
00000000
,
00001000
00000000
01000000
00001000
00000000
00000000
00011000
00000000
00000000
00011000
00000000
00000000
,
00001000
00000000
00000100
00000001
00000000
00000000
00001000
00000000
00000100
00000001
00000000
00000000
,
00000100
00000010
00001000
00011000
,
00010000
00000000
01000000
00000000
00000000
00010000
01000000
00000000
00000000
00000000
00000000
00000000
,
10000000
00000000
00100000
00000000
00000000
10000000
00100000
00000000
00000000
00000000
00000000
00000000
,
00010000
00000000
00100000
00000000
00000000
00010000
00100000
00000000
00000000
00000000
00000000
00000000
,
00001000
00000000
00010000
00000000
00000000
00001000
00010000
00000000
00000000
00000000
00000000
00000000
,
00010000
00000000
00000000
00001000
00000000
00000000
00000100
00000000
00000000
00000001
00000000
00000100
,
00000001
00000010
00001000
00010000
,
00011000
00000000
01100000
00000000
,
10000000
00000000
00000000
01000000
00000000
00010000
00001000
00000000
00000000
00011000
00000000
00000000
,
00001010
00000011
00000110
00000000
,
00000001
00000000
00001000
00000000
00000000
00000001
00000100
00000000
00000000
00000000
00000000
00000000
,
00001000
00010000
01100000
00000000
,
10000000
00000000
00010000
10000000
00000000
01000000
10000000
00000000
00000000
00000000
00000000
00000000
,
10000000
01000000
00000000
00010000
00000000
00000000
,
00000010
00001000
00000000
00001000
00000000
00000000
,
00001010
00000010
00000110
00000100
,
00000001
00000100
00001000
00011000
,
00001000
00000000
00010000
00000000
00000000
00000000
01000000
00000000
00000000
11000000
00000000
00000000
,
10000000
01000000
00020000
00031000
,
00000010
00000000
00001000
00000000
00000000
00000000
00000010
00000000
00000000
00001000
00000000
00000000
,
00000010
00000001
00000100
00000000
,
00000001
00000000
00000100
00001000
00000000
00000000
00010000
00000000
00000000
01100000
00000000
00000000
,
00000000
00000000
00010000
10000000
00000000
00000000
10100000
00000000
00000000
00100000
00000000
00000000
,
00010000
00000000
00001000
00000000
00000000
00010000
00001000
00000000
00000000
00000000
00000000
00000000
,
00001000
00000000
00000010
00000000
00000000
00001000
00000010
00000000
00000000
00000000
00000000
00000000
,
00000002
00000010
00002003
00000010
,
00003010
00010000
00011000
00000000
,
00001000
00000000
00010000
00000000
00000000
00001000
00010000
00000000
00000000
00000000
00000000
00000000
,
00010000
00000000
00100000
00000000
00000000
00010000
00100000
00000000
00000000
00000000
00000000
00000000
,
20000000
00100000
30020000
00100000
,
00130000
00001000
00011000
00000110
,
00000000
00000000
00000000
00000000
;
#NOTES:
     dance-double:
     :
     Hard:
     11:
     :
00000000
00000000
00000000
00000000
,
00000000
00000000
00000000
00000000
,
00000000
00000000
00000000
00010000
,
00001000
00000000
00000000
00000100
00000000
00000000
00001000
00000000
00000100
00000010
00000000
00000001
,
00000010
00000000
00000100
00001000
00000000
00000100
00000001
00000000
00000001
00000010
00000000
00001000
,
00010000
00000000
01000000
00000000
00000000
00100000
01000000
00000000
00000000
10010000
00000000
00000000
,
10000000
00000000
01000000
00000000
00000000
00100000
01000000
00000000
00000000
01100000
00000000
00010000
,
00001000
00000000
00000000
00001000
00000000
00000100
00000001
00000000
00000010
00000100
00000000
00001000
,
00000100
00011000
00110000
01100000
,
10000000
00000000
01000000
00000000
00000000
01000000
10000000
00000000
00000000
00010000
00000000
00000000
,
00010000
00000000
00100000
00000000
00000000
00100000
10000000
00000000
00000000
01100000
00000000
00000000
,
00010000
00000000
00001000
00000000
00000000
00010000
00000100
00000000
00000000
00001000
00000000
00000000
,
00001000
00000000
00000100
00001000
00000000
00000100
00000010
00000000
00000000
00001001
00000000
00000000
,
00000001
00000000
00000100
00001000
00000000
00000000
00010000
00000000
00100000
10000000
00000000
00000000
,
00000000
00000000
10000000
01000000
00000000
00000000
00010000
00000000
00000000
00011000
00000000
00000000
,
00000100
00000000
00000010
00000001
00000000
00000100
00001000
00000000
00000100
00000010
00000000
00000100
,
00000001
00000000
00000100
00001000
00000000
00000100
00000001
00000000
00000000
00000100
00000000
00000010
,
00001000
00000000
00000000
00011000
00000000
00000000
01100000
00000000
00000000
10000000
00000000
00010000
,
10000000
00000000
01000000
10000000
00000000
01000000
00010000
00000000
00000000
00001000
00000000
00000000
,
00000100
00000000
00000010
00000100
00000000
00000100
00001000
00000000
00000100
00001000
00000000
00000100
,
00001000
00000000
00000010
00000100
00000000
00000001
00001000
00000000
00000100
00001000
00000000
00000100
,
00010000
00000000
00001000
00010000
00000000
00100000
01000000
00000000
01000000
00010000
00000000
01000000
,
00010000
00000000
00100000
01000000
00000000
10000000
00010000
00000000
01000000
00010000
00000000
00100000
,
00001000
00000000
00000000
00011000
00000000
00000000
00000110
00000000
00000000
00000010
00000000
00000001
,
00000010
00000000
00000100
00001000
00000000
00000100
00001000
00000000
00000000
00000101
00000000
00000000
,
00000000
00000000
00000100
00001000
00000000
00010000
01000000
00000000
00100000
00010000
00000000
00100000
,
00010000
00000000
00000000
11000000
00000000
00000000
00000000
00000000
00010000
10000000
00000000
00010000
,
00100000
00000000
00001000
00100000
00000000
00001000
00010000
00000000
00000100
00001000
00000000
00000100
,
00001100
00000000
00000000
00000110
00000000
00000000
00000001
00000000
00001000
00000001
00000000
00001000
,
00000000
00000000
00000001
00000100
00000000
00001000
00100000
00000000
00010000
10000000
00000000
01000000
,
10000000
00000000
00010000
00100000
00000000
00010000
00100000
00000000
10000000
00100000
00000000
01000000
,
00000000
00000000
10000000
01000000
00000000
00100000
00020000
00000000
00000000
01030000
00000000
00000000
,
00000000
00000000
10000000
01000000
00000000
00100000
00020000
00000000
00000000
00031000
00000000
00000000
,
00000110
00000001
00000110
00000100
,
00010000
00000000
00001000
00010000
00000000
00100000
00010000
00000000
00000000
00001000
00000000
00000000
,
00001010
00000000
00000000
00000011
00000000
00000000
00000011
00000000
00000100
00000001
00000000
00000100
,
00000001
00000000
00000010
00000001
00000000
00000100
00000001
00000000
00000000
00000010
00000000
00001000
,
00010000
00000000
00000000
01000000
00000000
00000000
00010000
00000000
01000000
00100000
00000000
10000000
,
00100000
00000000
01000000
00010000
00000000
01000000
10000000
00000000
10000000
00100000
00000000
00010000
,
00001000
00000000
00000100
00000000
00000000
00000010
00000100
00000000
00000000
00001001
00000000
00000000
,
00000001
00000000
00000100
00000000
00000000
00000010
00000100
00000000
00000000
00000110
00000000
00001000
,
00010000
00000000
00000000
00010000
00000000
01000000
10000000
00000000
00100000
01000000
00000000
00010000
,
01000000
00011000
00001010
00000110
,
00000001
00000000
00000100
00000000
00000000
00000100
00000001
00000000
00000000
00001000
00000000
00000000
,
00001000
00000000
00000010
00000000
00000000
00000010
00000001
00000000
00000000
00000110
00000000
00000000
,
00001000
00000000
00010000
00000000
00000000
00001000
01000000
00000000
00000000
00010000
00000000
00000000
,
00010000
00000000
01000000
00010000
00000000
01000000
00100000
00000000
00000000
10010000
00000000
00000000
,
10000000
00000000
01000000
00010000
00000000
00000000
00001000
00000000
00000010
00000001
00000000
00000000
,
00000000
00000000
00000001
00000100
00000000
00000000
00001000
00000000
00000000
00011000
00000000
00000000
,
01000000
00000000
00100000
10000000
00000000
01000000
00010000
00000000
01000000
00100000
00000000
01000000
,
10000000
00000000
01000000
00010000
00000000
01000000
10000000
00000000
00000000
01000000
00000000
00100000
,
00010000
00000000
00000000
00011000
00000000
00000000
00000110
00000000
00000000
00000001
00000000
00001000
,
00000001
00000000
00000100
00000001
00000000
00000100
00001000
00000000
00000000
00010000
00000000
00000000
,
00000100
00000000
00000010
00000001
00000000
00000100
00001000
00000000
00000100
00000010
00000000
00000100
,
00000001
00000000
00000100
00001000
00000000
00000100
00000001
00000000
00000000
00000100
00000000
00000010
,
00001000
00000000
00000000
00011000
00000000
00000000
01100000
00000000
00000000
10000000
00000000
00010000
,
10000000
00000000
01000000
10000000
00000000
01000000
00010000
00000000
00000000
00011000
00000000
00000000
,
00000000
00000000
00000000
00000000
;
