
//----- song ID: kuns -----//
#TITLE:君氏危うくも近うよれ;
#ARTIST:A応P;
#TITLETRANSLIT:Kunshi ayauku mo chikou yore;
#BANNER:Kunshi ayauku mo chikou yore.png;
#BACKGROUND:Kunshi ayauku mo chikou yore-bg.png;
#CDTITLE:./CDTitles/DDR A.png;
#MUSIC:Kunshi ayauku mo chikou yore.ogg;
#SAMPLESTART:54.452;
#SAMPLELENGTH:15;
#DISPLAYBPM:162;
#BPMS:0=161.5,4=162;
#NOTES:
     dance-single:
     :
     Beginner:
     3:
     :
0000
0000
0000
0000
,
0000
0000
0000
0000
,
0000
0000
0000
0000
,
0000
0000
0000
0000
,
0000
0000
0000
0000
,
1000
0000
0000
0000
,
0100
0000
0000
0000
,
0001
0000
0000
0000
,
0010
0010
0010
0000
,
0001
0000
0000
0000
,
0100
0000
0000
0000
,
1000
0000
0000
0000
,
0100
0100
0100
0000
,
0001
0000
0000
0000
,
1000
0000
0000
0000
,
1000
0000
0000
0000
,
0001
0000
0000
0000
,
0001
0001
0000
0000
,
0010
0010
0000
0000
,
0001
0001
0000
0000
,
1000
1000
1000
1000
,
1000
0000
0001
0000
,
1000
0000
0001
0000
,
0010
0000
0000
0000
,
0001
0000
0000
0000
,
0001
0000
1000
0000
,
0001
0000
1000
0000
,
0001
0000
1000
0000
,
0100
0100
0100
0000
,
1000
0000
0001
0000
,
1000
0000
0010
0000
,
0001
0000
1000
0000
,
0001
0000
0100
0000
,
0001
0000
0000
0000
,
0001
0000
0001
0000
,
0100
0000
0000
0000
,
0010
0010
0010
0000
,
0001
0001
0001
0000
,
1000
0000
1000
0000
,
0010
0000
1000
0000
,
0100
0000
0000
0000
,
1000
1000
1000
0000
,
0001
0000
0001
0000
,
0010
0000
0001
0000
,
0100
0000
0000
0000
,
0001
0001
0001
0000
,
1000
0000
1000
0000
,
0001
0000
1000
0000
,
0001
0001
0001
0000
,
1000
0000
0000
0000
,
0001
0000
0001
0000
,
0010
0000
0001
0000
,
0100
0000
0000
0000
,
0001
0001
0100
0000
,
0100
0000
0100
0000
,
0010
0000
0000
0000
,
0001
0000
1000
0000
,
1000
1000
0100
0000
,
0100
0000
0200
0000
,
0310
0000
0000
0000
,
0001
0000
1000
0000
,
0000
0000
0000
0000
;
#NOTES:
     dance-single:
     :
     Easy:
     6:
     :
0000
0000
0000
0000
,
0000
0000
0000
0000
,
0000
0000
0000
0000
,
0000
0000
0000
0000
,
0000
0000
0000
0000
,
1000
0100
0010
0000
,
0100
0010
0001
0000
,
0001
0001
1000
1000
,
0001
1000
0001
0000
,
0001
0100
0010
0000
,
0100
0010
1000
0000
,
1001
0000
0000
0000
,
0110
1001
0110
0000
,
1000
0000
0001
0000
,
0010
0000
0001
0000
,
1000
0000
0010
0000
,
1000
0001
1000
0001
,
0001
0001
1000
0000
,
0010
0010
1000
0000
,
0001
0001
0010
0000
,
0001
1000
0001
0000
,
1000
0001
0100
0100
,
0001
1000
0100
0000
,
0010
0001
0010
0000
,
0001
0001
1000
1000
,
1000
0001
0100
0100
,
0001
1000
0010
0000
,
1000
0000
0100
0000
,
0001
0100
0100
0000
,
1000
0000
0001
0010
,
1000
0000
0010
0000
,
0001
0000
1000
0000
,
0001
0010
0100
0000
,
1000
0000
1000
0000
,
0001
0000
0001
0000
,
0110
0000
1001
0000
,
0001
1000
0001
0000
,
0001
0100
0010
1000
,
0001
0000
0001
0000
,
0010
0000
0001
0000
,
0100
1000
0100
0000
,
0001
0000
0100
0010
,
1000
0100
0100
0000
,
0010
0001
0010
0000
,
1000
0010
0001
0000
,
1000
0100
0010
0001
,
1000
0000
1000
0000
,
0010
0000
1000
0000
,
0100
0001
0100
0010
,
0100
0000
0010
0000
,
0001
0100
0100
0000
,
0010
1000
0010
0000
,
1000
0001
1000
0001
,
1000
0000
0001
0000
,
1001
0000
0110
0000
,
0010
0001
0100
0000
,
1000
0000
0100
0000
,
0001
0010
0001
0000
,
1000
0010
1000
0000
,
2002
0000
0000
3003
,
1000
0001
1000
0110
,
0000
0000
0000
0000
;
#NOTES:
     dance-single:
     :
     Medium:
     10:
     :
0000
0000
0000
0000
,
0000
0000
0000
0000
,
0000
0000
0000
0000
,
0000
0000
0000
0000
,
0000
0000
0000
0000
,
0001
0000
0100
0000
0010
0100
0001
1000
,
0000
0001
0010
0001
1000
0000
1000
0000
,
0001
0000
0010
0000
0001
0100
0001
1000
,
0000
0001
0000
0100
0000
1000
0100
0000
,
0001
0000
0100
0000
0010
0100
0001
1000
,
0000
0001
0010
0001
1000
0000
0001
0000
,
1001
0000
0000
0000
,
0110
0000
0000
0110
0000
0000
0110
0000
0000
0000
0000
0000
1001
0000
0000
0000
,
1000
0100
0000
0000
0100
0001
0000
0000
,
0001
0100
0000
0000
0100
1000
0000
0000
,
1000
0001
0000
0000
0001
0010
0000
0000
,
0001
1000
0000
0001
0000
1000
0000
0000
,
0001
0010
0000
0000
0010
1000
0000
0000
,
1000
0010
0000
0000
0010
0001
0000
0000
,
0001
1000
0000
0000
1000
0010
0000
0000
,
1000
0001
1000
0001
1000
0000
0101
0000
,
0001
0010
0001
0000
0100
0000
0010
0100
,
0000
1000
0100
0001
0000
0010
0001
0010
,
0001
0000
1000
0100
0010
0001
0000
1000
,
0001
1100
1000
0101
,
1000
0010
1000
0000
0100
0000
0010
0100
,
0000
0001
0100
1000
0000
0010
1000
0010
,
1000
0000
0001
1000
0010
1000
0010
1000
,
0000
0001
1000
1000
,
0010
0000
0000
1000
0100
0000
0110
0000
,
0010
0000
0000
0001
0100
0000
0110
0000
,
2010
3010
1200
1300
,
0102
0103
0021
0031
,
1000
0000
0001
0000
0001
1000
0100
0000
,
1000
0000
0100
0000
0010
0001
0010
0000
,
1001
0000
0000
0100
0010
0000
0000
1000
,
0000
0001
0100
0001
0100
0000
0001
0000
,
1001
0000
0000
0001
1000
0001
0100
0010
,
1000
0000
0001
0100
0001
0000
1000
0000
,
0100
0001
0100
1000
,
0001
0000
0001
0000
1000
0100
1000
0100
,
1000
0000
0000
1000
0010
1000
0010
1000
,
0001
0000
1000
0000
0100
0000
0000
0010
,
0001
0000
1000
0000
0001
0010
0001
0200
,
0000
1000
0000
0301
,
1001
0000
0000
1000
0001
1000
0100
0010
,
0001
0000
1000
0100
1000
0000
0001
0000
,
0100
1000
0100
0001
,
1000
0000
0001
0000
1000
0010
0100
0010
,
0100
0000
0000
0001
0010
0001
0010
0001
,
1000
0000
0001
0000
0100
0000
0000
1000
,
0100
0000
0001
0000
1000
0001
1000
0200
,
0000
0010
0010
0300
,
1000
0100
1000
0000
0100
0000
0001
0100
,
0000
1000
0001
0200
0000
0300
0000
0000
,
0001
0010
0001
0000
0010
0000
0001
1000
,
0000
0001
0100
0001
0000
0010
0100
0000
,
1000
0010
1000
0010
0100
0000
0001
1000
,
0000
0010
0100
0020
0000
0230
0000
0300
,
0001
0000
0000
1000
0000
0000
0001
0000
0000
0000
1000
0000
0001
0000
1000
0000
,
0001
0000
0000
0100
0000
0000
0001
0000
0000
0000
0000
0000
0010
0000
0000
0000
,
0000
0000
0000
0000
;
#NOTES:
     dance-single:
     :
     Hard:
     12:
     :
0000
0000
0000
0000
,
0000
0000
0000
0000
,
0000
0000
0000
0000
,
0000
0000
0000
0000
,
0000
0000
0000
0000
,
0001
1000
0100
1000
0010
0100
0001
1000
,
0000
0001
0010
0001
1000
0100
0001
0100
,
1000
0001
0010
0001
1000
0100
1000
1100
,
0000
0011
0010
0100
0000
1000
1000
0001
,
1000
0001
0100
0001
0010
0100
1000
0001
,
0000
1000
0010
1000
0001
0100
0001
0010
,
0001
0000
0000
1000
0000
0000
0001
0000
0000
0000
1000
0000
0100
0000
0010
0000
,
0011
0000
0000
0110
0000
0000
1100
0000
0000
0000
0000
0000
0110
0000
0000
0000
,
1000
0100
0010
0000
0001
1000
0100
0000
,
0010
0001
0100
0000
0001
0100
0010
0000
,
1000
0001
0100
0000
0010
1000
0100
0000
,
0001
0100
0000
1000
0000
0001
0000
0010
,
0001
0100
0010
0000
1000
0001
0100
0000
,
0010
1000
0100
0000
1000
0100
0001
0000
,
0100
0000
1000
0001
0010
0001
1000
0001
,
0000
0010
0001
0100
0001
0010
0001
1000
,
0001
0010
0001
1000
0100
1000
0010
0100
,
0001
1000
0100
2000
0000
3001
0010
0001
,
0010
0100
1000
0100
0010
0001
0000
1000
,
0001
0010
0001
0010
1000
0010
0001
0010
,
1000
0010
0001
0000
0100
0001
0010
0100
,
1000
0001
0100
0002
0000
1003
0010
1000
,
0010
0100
0001
0100
0010
1000
0100
1000
,
0000
0001
1000
0100
1000
0001
0101
0000
,
0001
0000
0000
1000
0100
0000
0010
0000
,
1000
0000
0000
0010
0001
0000
0100
0000
,
1010
1010
0101
0101
,
1000
0100
0001
0000
0001
0100
1000
0000
,
1000
0100
1000
0100
1000
0001
0010
0001
,
1000
0100
1000
0001
0010
0001
1000
0100
,
0110
0000
0000
0001
0010
0000
0000
1000
,
0000
0010
0001
1000
1100
0000
0010
0000
,
0001
1000
0100
1000
0010
0100
0010
1000
,
0001
0010
1000
0010
0001
0000
1000
0001
,
0011
0000
0001
1000
1001
0000
0001
0100
,
0101
0000
1001
0000
1010
0010
0001
0000
,
0010
1000
0100
1000
0010
0100
0010
1000
,
0001
0010
1000
0010
0001
0000
1000
0001
,
0010
0000
0001
1000
0001
0010
0001
0200
,
0000
0000
1300
0000
0100
0010
0001
0010
,
1000
0001
0100
0001
0010
0100
0010
0001
,
1000
0010
0001
0010
1000
0000
0001
1000
,
1010
0000
1000
0001
1000
0010
1000
0100
,
1100
0000
1001
0000
0011
0010
0100
0010
,
0100
0000
0110
0001
0010
0100
0010
0001
,
1000
0010
0001
0010
1000
0000
0001
1000
,
0010
0000
1000
0001
1000
0010
1000
0200
,
0000
0000
0301
0000
0100
0010
1000
0010
,
0001
0010
0001
1000
0100
1000
0001
0011
,
0000
0001
1000
0020
0000
1030
0001
0000
,
0001
0010
0100
1000
0010
0100
0001
1000
,
0000
0001
0100
1000
0000
0100
0100
0000
,
0001
0010
0001
1000
0100
1000
0001
1000
,
0000
1000
0100
0020
0000
0230
0000
0300
,
1000
0000
0000
0010
0000
0000
0001
0000
0000
0000
1000
0000
0100
0000
0001
0000
,
1000
0000
0000
0100
0000
0000
0001
0000
0000
0000
0000
0100
0010
0000
0000
0000
,
0000
0000
0000
0000
;
#NOTES:
     dance-double:
     :
     Easy:
     6:
     :
00000000
00000000
00000000
00000000
,
00000000
00000000
00000000
00000000
,
00000000
00000000
00000000
00000000
,
00000000
00000000
00000000
00000000
,
00000000
00000000
00000000
00000000
,
10000000
01000000
00010000
00000000
,
00001000
00000010
00000001
00000000
,
00000001
00000100
00001000
00000100
,
00001000
00000100
00000001
00000000
,
00000001
00000100
00001000
00000000
,
00010000
00100000
10000000
00000000
,
10000000
10000000
00010000
00010000
,
01100000
10010000
01100000
00000000
,
10000000
00000000
00010000
00000000
,
00001000
00000000
00000001
00000000
,
00001000
00000000
00000010
00000000
,
00001000
00000001
00001000
00000000
,
00000001
00000000
00001000
00000000
,
00010000
00000000
10000000
00000000
,
00010000
00000000
00100000
00000000
,
00010000
10000000
00010000
00000000
,
10000000
01000000
00010000
00001000
,
00010000
00000000
00001000
00000000
,
00010000
00001000
00000100
00000000
,
00000001
00000001
00001000
00001000
,
00000001
00000100
00001000
00001000
,
00010000
00000000
01000000
00000000
,
10000000
00010000
01000000
00000000
,
00001000
00010000
00001000
00000000
,
00020000
00000000
00031000
00000010
,
00000001
00000000
00000100
00000000
,
00000001
00000001
00001000
00001000
,
00010000
00010000
10000000
10000000
,
10000000
00000000
00000000
00000000
00000000
01000000
01000000
00000000
,
01000000
00000000
00010000
00000000
00001000
00000010
00000010
00000000
,
00000001
00000000
00001001
00000000
,
00000100
00001000
00010000
00000000
,
00001000
00010000
00001000
01000000
,
00001000
00010000
00001000
00000000
,
00100000
00000000
00010000
00000000
,
01000000
10000000
01000000
00100000
,
00010000
00000000
00010000
00000100
,
00010000
00001000
00010000
00000000
,
00000010
00000000
00001000
00000000
,
00000001
00000100
00001000
00011000
,
00010000
00001000
00010000
00000100
,
00010000
00001000
00010000
00000000
,
00000010
00000000
00001000
00000000
,
00000100
00000001
00000100
00000010
,
00001000
00000000
00001000
01000000
,
00001000
00010000
00001000
00000000
,
00100000
00000000
00010000
00000000
,
10000000
01000000
00010000
00000000
,
00001000
00010000
00001000
00000100
,
00001001
00000000
00000110
00000000
,
00001000
00000100
00000001
00000100
,
00001000
00000000
01000000
00000000
,
00100000
00010000
10000000
00000000
,
10000000
00100000
00010000
00000000
,
00022000
00000000
00000000
00033000
,
00010000
00001000
00000100
00001001
,
00000000
00000000
00000000
00000000
;
#NOTES:
     dance-double:
     :
     Medium:
     10:
     :
00000000
00000000
00000000
00000000
,
00000000
00000000
00000000
00000000
,
00000000
00000000
00000000
00000000
,
00000000
00000000
00000000
00000000
,
00000000
00000000
00000000
00000000
,
00000001
00000000
00000100
00000000
00000010
00000100
00000001
00001000
,
00000000
00000001
00000010
00000001
00000100
00000000
00001000
00000000
,
00010000
00000000
00100000
00000000
00010000
00001000
00010000
01000000
,
00000000
00010000
00000000
01000000
00000000
10000000
01000000
00000000
,
10000000
00000000
01000000
00000000
00010000
00001000
00000100
00000010
,
00000000
00000100
00000001
00001000
00000001
00000000
00001000
00000000
,
00001100
00000000
00000000
00000000
,
00010000
00000000
00000000
00000010
00000000
00000000
00001000
00000000
00000000
00000000
00000000
00000000
00011000
00000000
00000000
00000000
,
00001000
01000000
00000000
00000000
01000000
10000000
00000000
00000000
,
10000000
01000000
00000000
00000000
01000000
00100000
00000000
00000000
,
00010000
00001000
00000000
00000000
00001000
00000010
00000000
00000000
,
00000001
00001000
00000000
00000100
00000000
00010000
00000000
00000000
,
00010000
00000100
00000000
00000000
00000100
00000001
00000000
00000000
,
00000001
00000100
00000000
00000000
00000100
00000010
00000000
00000000
,
00001000
00010000
00000000
00000000
00010000
00100000
00000000
00000000
,
10000000
00010000
10000000
00010000
10000000
00000000
01010000
00000000
,
00010000
00100000
00010000
00000000
01000000
00000000
00100000
01000000
,
00000000
10000000
01000000
00010000
00000000
00100000
00001000
00010000
,
00001000
00000000
00000010
00000100
00000010
00000001
00000000
00001000
,
00000001
00001100
00001000
00000101
,
00000001
00000100
00001000
00000000
00010000
00000000
00100000
01000000
,
00000000
00010000
01000000
10000000
00000000
01000000
00010000
00100000
,
00001000
00000000
00010000
00001000
00010000
00001000
00010000
00000100
,
00000000
00001000
00000001
00000101
,
00000001
00000000
00000000
00000100
00001000
00000000
00011000
00000000
,
00100000
00000000
00000000
10000000
01000000
00000000
01100000
00000000
,
00110000
00110000
00011000
00011000
,
00000110
00000110
00000011
00000011
,
00000100
00000000
00001000
00000000
00010000
00001000
01000000
00000000
,
00010000
00000000
01000000
00000000
00100000
00010000
00001000
00000000
,
00010000
00000000
00000000
00001000
00000010
00000000
00000000
00000001
,
00000000
00001000
00000001
00001000
00000100
00000000
00000010
00000000
,
00000011
00000000
00000000
00000001
00001000
00000001
00000100
00000010
,
00001000
00000000
00000001
00000100
00001000
00000000
00010000
00000000
,
00001000
00010000
00100000
00010000
,
00001000
00000000
00010000
00000000
01000000
10000000
01000000
10000000
,
01000000
00000000
00000000
10000000
00100000
10000000
00100000
10000000
,
01000000
00000000
00010000
00000000
00001000
00000000
00000000
00000010
,
00000001
00000000
00001000
00000000
00000001
00000010
00000001
00000100
,
00000000
00001000
00010000
00100000
,
10100000
00000000
00000000
10000000
00010000
10000000
01000000
00100000
,
00010000
00000000
10000000
01000000
00010000
00000000
00001000
00000000
,
00010000
00001000
00000010
00001000
,
00010000
00000000
00001000
00000000
00000100
00000001
00001000
00000001
,
00001000
00000000
00000000
00000001
00000010
00000001
00000010
00000001
,
00000100
00000000
00001000
00000000
00010000
00000000
00000000
00100000
,
10000000
00000000
00010000
00000000
10000000
00100000
10000000
02000000
,
00000000
00010000
00100000
03000000
,
10000000
01000000
00010000
00000000
00001000
00000000
00010000
00000100
,
00000000
00001000
00000001
00000200
00000000
00000300
00000000
00000000
,
00000001
00000010
00000001
00000000
00000010
00000000
00000001
00001000
,
00000000
00000100
00010000
00001000
00000000
00100000
01000000
00000000
,
10000000
00100000
10000000
00100000
01000000
00000000
00010000
10000000
,
00000000
00100000
01000000
00200000
00000000
00320000
00000000
00030000
,
00001000
00000000
00000000
00010000
00000000
00000000
00001000
00000000
00000000
00000000
00000100
00000000
00000010
00000000
00001000
00000000
,
00000001
00000000
00000000
00000100
00000000
00000000
00002000
00000000
00000000
00000000
00000000
00000000
00013000
00000000
00000000
00000000
,
00000000
00000000
00000000
00000000
;
#NOTES:
     dance-double:
     :
     Hard:
     13:
     :
00000000
00000000
00000000
00000000
,
00000000
00000000
00000000
00000000
,
00000000
00000000
00000000
00000000
,
00000000
00000000
00000000
00000000
,
00000000
00000000
00000000
00000000
,
00000001
00001000
00000100
00001000
00000010
00000100
00000001
00000100
,
00000000
00001000
00100000
00010000
00100000
01000000
10000000
00100000
,
01000000
00010000
00100000
00010000
10000000
01000000
00100000
00101000
,
00000000
00011000
00000000
00000110
00000000
00000001
00001000
00000000
,
00000001
00001000
00000100
00001000
00000010
00000100
00000001
00000100
,
00000000
00001000
00100000
00010000
00100000
00001000
00010000
00100000
,
00010000
00000000
00000000
00001000
00000000
00000000
00010000
00000000
00000000
00000000
01000000
00000000
10000000
00000000
01000000
00000000
,
10010000
00000000
00000000
01100000
00000000
00000000
11000000
00000000
00000000
00000000
00000000
00000000
01100000
00000000
00000000
00000000
,
10000000
01000000
00100000
00000000
00001000
00000000
00010000
00001000
,
00010000
00100000
00010000
00001000
00000000
00000100
00000010
00001000
,
00000100
00000000
00001000
00000001
00000010
00001000
00000000
00000010
,
00000001
00000100
00000000
00001000
00000000
00010000
00000000
00001000
,
00000100
00000010
00000100
00000000
00000001
00000000
00000100
00000010
,
00001000
00000010
00001000
00000100
00000000
00010000
00001000
01000000
,
00100000
00000000
10000000
01000000
00100000
01000000
00010000
00001000
,
00010000
00000100
00001000
00000010
00000100
00000001
00001000
00000100
,
00010000
00001000
00010000
00000000
00001000
00010000
00100000
01000000
,
00010000
10000000
01000000
20000000
00000000
30010000
00100000
00010000
,
00100000
01000000
10000000
01000000
00100000
01000000
00010000
00001000
,
00000010
00000100
00001000
00000010
00000001
00000010
00001000
00000010
,
00000001
00000010
00001000
00000000
00000100
00000010
00001000
00010000
,
00000000
00001000
01000000
00020000
00000000
10030000
00100000
10000000
,
00100000
01000000
00010000
01000000
00100000
00010000
00001000
00010000
,
00000000
00001000
00000100
00001000
00010000
00001000
00011000
00000000
,
00002000
00000000
00000000
00003010
00000001
00000000
00000100
00000000
,
00002000
00000000
00000000
00013000
01000000
00000000
00010000
00000000
,
01100000
00100000
11000000
10000000
,
10000000
01000000
00010000
00000000
00001000
00100000
00001000
00000000
,
00011000
00000000
00000000
00010000
00001000
00010000
00100000
00010000
,
00001000
00000100
00000010
00001000
00000001
00000100
00000001
00000010
,
00000011
00000000
00000000
00000001
00000100
00000000
00000000
00001000
,
00000000
00100000
00010000
01000000
10000000
00000000
01000000
00000000
,
00010000
10000000
01000000
10000000
00100000
01000000
00100000
00010000
,
00001000
00000010
00000001
00001000
00000001
00000000
00001000
00000001
,
00000011
00000110
00001100
00001000
,
00011000
00000000
00110000
00000000
10100000
10000000
00010000
10000000
,
00100000
00000000
00000000
10000000
00100000
01000000
00100000
10000000
,
00010000
00100000
10000000
00100000
00010000
00000000
01000000
00001000
,
00010000
00000000
00001000
00010000
00001000
00000010
00000001
00000200
,
00000000
00000000
00000310
00000000
00000100
00000010
00000001
00000010
,
00001000
00000001
00000100
00000001
00000010
00000100
00000010
00001000
,
00010000
00100000
10000000
00010000
10000000
00000000
00010000
10000000
,
10100000
00000000
10000000
00010000
01010000
00000000
01000000
00001000
,
00011000
00000000
00000010
00000000
00000011
00000001
00001000
00000001
,
00001000
00000000
00001001
00000001
00000010
00000100
00000010
00000001
,
00001000
00000010
00000001
00000010
00001000
00000000
00000100
00010000
,
00001000
00000000
00010000
00001000
00010000
00100000
10000000
02000000
,
00000000
00000000
03100000
00000000
01000000
00100000
10000000
00100000
,
00010000
00100000
00001000
00010000
00001000
00010000
00000100
00000110
,
00000000
00000010
00000001
00000020
00000000
00000000
00000130
00000000
,
00001000
00000010
00000100
00000001
00000010
00000100
00001000
00000001
,
00000000
00000100
00001000
00010000
00000000
01000000
01000000
00000000
,
10000000
00100000
10000000
01000000
00010000
00001000
00010000
00000100
,
00000000
00001000
00000100
00000020
00000000
00000230
00000000
00000300
,
00001000
00000000
00000000
00000010
00000000
00000000
00000001
00000000
00000000
00000000
00001000
00000000
00000100
00000000
00000001
00000000
,
00001000
00000000
00000000
00000100
00000000
00000000
00000001
00000000
00000000
00000000
00000000
00000100
00000010
00000000
00000000
00000000
,
00000000
00000000
00000000
00000000
;
