
//----- song ID: kouc -----//
#TITLE:恋する☆宇宙戦争っ!!;
#ARTIST:Prim;
#TITLETRANSLIT:Koisuru☆uchuu sensou!!;
#BANNER:Koisuru uchuu sensou!!.png;
#BACKGROUND:Koisuru uchuu sensou!!-bg.png;
#CDTITLE:./CDTitles/bm IIDX 19 Lincle.png;
#MUSIC:Koisuru uchuu sensou!!.ogg;
#SAMPLESTART:50.399;
#SAMPLELENGTH:15;
#DISPLAYBPM:200;
#BPMS:0=200.5,4=200;
#NOTES:
     dance-single:
     :
     Beginner:
     4:
     :
0000
0000
0000
0000
,
0000
0000
0000
0000
,
0000
0001
0000
0001
,
0000
0001
0000
0001
,
0000
1000
0000
1000
,
0000
1000
0000
1000
,
0000
0010
0000
0010
,
0000
1000
0000
1000
,
1000
0000
0000
0000
,
0001
0000
0000
0000
,
0000
0010
0000
0010
,
0000
0010
0000
0010
,
0000
0001
0000
0001
,
0000
0001
0000
0001
,
0000
1000
0000
1000
,
0000
0001
0000
0001
,
0001
0000
0000
1000
,
0000
0000
0010
0000
,
2000
0000
3000
0000
,
0100
0000
0100
0000
,
0002
0000
0003
0000
,
0010
0000
0010
0000
,
1000
0000
0001
0000
,
1000
0000
0000
0000
,
0001
0000
0001
0000
,
1000
0000
1000
0000
,
0020
0000
0030
0000
,
0001
0000
0001
0000
,
0020
0000
0030
0000
,
1000
0000
1000
0000
,
0001
0000
1000
0000
,
0001
0000
0100
0000
,
0001
0000
0001
0000
,
0010
0000
0000
0000
,
2000
0000
3000
0000
,
0002
0000
0003
0000
,
0020
0000
0030
0000
,
2000
0000
3000
0000
,
2000
0000
3000
0000
,
0020
0000
0030
0000
,
0001
0000
0001
0000
,
0010
0010
0010
0000
,
1000
0000
1000
0000
,
0001
0000
0001
0000
,
1000
0000
1000
0000
,
0001
0000
0000
0000
,
1000
0000
1000
0000
,
0010
0000
0010
0000
,
1000
0000
1000
0000
,
0001
0000
0001
0000
,
0100
0000
0100
0000
,
0001
0000
0001
0000
,
0010
0000
0010
0000
,
0001
0000
0000
0000
,
1000
0000
1000
0000
,
0010
0000
0010
0000
,
1000
0000
1000
0000
,
0100
0000
0100
0000
,
0002
0000
0000
0000
,
0000
0000
0003
0000
,
2000
0000
0000
0000
,
0000
0000
3000
0000
,
0020
0000
0000
0000
,
0000
0000
0030
0000
,
2002
0000
0000
0000
,
0000
0000
3003
0000
,
0001
0000
0000
0000
,
1000
0000
0000
0000
,
0010
0000
0000
0000
,
0100
0000
0000
0000
,
1000
0000
0000
0000
,
0001
0000
0000
0000
,
1000
0000
1000
0000
,
0001
0000
0001
0000
,
0010
0000
0010
0000
,
0010
0000
0010
0000
,
2002
0000
0000
0000
,
0000
0000
3003
0000
,
0001
0000
0001
0000
,
1000
0000
1000
0000
,
0001
0000
0001
0000
,
1000
0000
0000
0000
,
0001
0000
0001
0000
,
0010
0000
0010
0000
,
0001
0000
0001
0000
,
1000
0000
1000
0000
,
0100
0000
0100
0000
,
1000
0000
1000
0000
,
0010
0000
0010
0000
,
2000
0000
3000
0000
,
0001
0000
0001
0000
,
0010
0000
0010
0000
,
0001
0000
0001
0000
,
0100
0000
0100
0100
,
0000
0001
0000
0001
,
0000
0001
0000
0001
,
0000
1000
0000
1000
,
0000
1000
0000
1000
,
0000
0010
0000
0010
,
0000
1000
0000
1000
,
1000
0000
0000
0001
,
0000
0000
0010
0010
,
0010
0000
0000
0000
,
0000
0000
0000
0000
;
#NOTES:
     dance-single:
     :
     Easy:
     7:
     :
0000
0000
0000
0000
,
0000
0000
0000
0000
,
0000
1000
0000
0001
,
0000
1000
0000
0001
,
0000
0010
0000
0100
,
0000
1000
0000
1001
,
0000
0001
0100
1000
,
0000
0100
0001
0010
,
0001
1000
1000
0000
,
1000
0001
0001
0000
,
1000
0010
0000
1000
,
0100
1000
0000
0001
,
0100
0001
0000
0010
,
0001
0010
0000
1001
,
0010
0100
0000
0001
,
1000
0001
0000
1000
,
0001
0100
1000
0100
,
0001
0010
0100
0100
,
0000
1000
0100
0001
,
0100
1000
1000
1000
,
0000
0001
0100
1000
,
0100
0001
0001
0001
,
0000
1000
0100
0010
,
0001
2000
0000
3000
,
0001
0100
1000
0100
,
0001
0001
0001
0001
,
0000
1000
0100
0010
,
0100
0010
0001
0100
,
0000
0001
0100
0010
,
0100
0010
1000
0100
,
0000
0010
0001
0100
,
0001
0010
0100
0010
,
0001
0100
1000
0100
,
0001
0001
1000
1001
,
0020
0000
0001
0000
,
0230
0000
1000
0000
,
0320
0000
0001
0000
,
0130
0000
0001
0001
,
2000
0000
0100
0000
,
3002
0000
0100
0000
,
1003
0001
0010
0001
,
1000
0001
1000
0010
,
1000
0010
0100
0001
,
1000
0100
0001
0100
,
1000
0001
1000
0010
,
1000
0110
0000
0001
,
0100
0010
0100
0001
,
1000
0200
0000
0000
,
0310
0001
1000
0010
,
1000
0001
0010
0000
,
0001
0100
1000
0100
,
0001
0100
0100
0001
,
1000
0100
0001
0100
,
1000
0110
0000
1000
,
0010
0001
0010
1000
,
0010
0002
0000
0000
,
0003
0010
0100
0010
,
1000
0100
0010
0001
,
1000
2000
3000
0002
,
0003
0200
0300
0002
,
0003
0200
0300
0020
,
0030
2000
3000
0002
,
0003
0020
0030
0200
,
0300
2000
3000
0100
,
1000
0100
0010
0001
,
0001
0100
0220
0000
,
0330
0010
1000
0000
,
0000
0001
1000
0000
,
0000
0001
0010
0000
,
0000
0001
1000
0000
,
0000
0100
1000
0000
,
0000
0001
1000
0001
,
0010
0010
0001
0001
,
1000
1000
0100
0100
,
0010
0001
0010
0100
,
1000
0100
0010
0001
,
1000
0010
1000
0100
,
0001
0100
1000
0001
,
1000
0010
1000
0100
,
1000
0001
0000
0010
,
0001
0100
1000
0100
,
0001
0100
0000
0010
,
1000
0100
0010
0001
,
0100
0010
1000
0000
,
0001
0100
1000
0100
,
0010
0100
0010
1000
,
0001
0100
1000
0000
,
0001
0010
1000
0000
,
0010
0100
0001
0100
,
1000
0100
1000
0010
,
0100
1000
0100
0000
,
0001
0100
0001
0000
,
2002
0000
3003
0000
,
0001
1000
0010
0010
,
0010
0110
0000
1001
,
0000
0110
0000
1001
,
0000
1001
0000
0110
,
0000
1001
0000
0011
,
0000
0001
1000
0001
,
0100
0010
0100
0010
,
1000
0100
0001
0100
,
1000
0001
0100
0010
,
0200
0000
0000
0000
,
0000
0000
0300
0000
,
0000
0000
0000
0000
;
#NOTES:
     dance-single:
     :
     Medium:
     12:
     :
0000
0000
0000
0000
,
0000
0000
0000
0000
,
0000
0110
0000
1001
,
0000
0110
0000
1001
,
0000
0011
0000
1100
,
0000
0011
0000
0110
,
1000
0001
0000
0100
0000
0010
0000
0010
,
0000
1000
0001
0000
0010
0000
1001
0000
,
0002
0000
0000
2000
0000
0000
3003
0000
,
0010
0100
0000
0020
0000
0000
0030
0000
,
0001
0010
1000
0100
,
0001
0010
1000
0100
,
0001
0010
1000
0100
,
0001
0010
1000
1001
,
0001
0100
0000
0010
0000
0010
0000
1000
,
0000
0100
0001
0000
0100
0000
1000
0000
,
0010
1000
0000
0001
0100
0000
0010
1000
,
0000
0001
0100
0000
0010
0000
1000
0000
,
0001
1000
0001
1000
0010
0000
1000
0000
,
0100
1000
0100
1000
0001
0000
0010
0000
,
0001
0100
0001
0100
0010
0000
1000
0000
,
0100
0010
0100
0010
0001
0000
1000
0000
,
0010
0100
0010
0000
1000
0100
0001
0000
,
0100
1000
0010
0100
0000
0001
0100
0000
,
0010
1000
0010
0000
0100
0001
0100
0000
,
0001
0010
0001
0000
1000
0100
1000
0000
,
0001
0010
0100
1000
0100
0010
0001
0000
,
1000
0010
0100
0001
0100
0010
1000
0000
,
0001
0100
0010
1000
0010
0100
0001
0000
,
1000
0100
0010
0001
0010
0100
1000
0000
,
0001
0100
1000
0100
0001
0100
0010
0000
,
1000
0100
0001
0100
1000
0100
0010
0000
,
0001
1000
0001
0000
1000
0001
0100
0000
,
0010
0100
0010
0000
1000
0001
0010
0000
,
0011
0000
0000
0010
0001
0000
0101
0100
,
0000
1000
0000
0100
0001
0000
0101
0000
,
1010
0000
0000
0010
1000
0000
1100
0100
,
0000
0001
0000
0100
1000
0000
1100
0000
,
0101
0000
0001
0010
0001
0000
1000
0010
,
1000
0000
0100
0001
0100
0000
1000
0001
,
1000
0010
1000
0010
0100
0010
0100
0010
,
0100
0001
0010
0001
0100
0010
1000
0100
,
0010
0000
0001
1000
0000
0010
0100
0010
,
0000
1000
0100
1000
0000
0010
0100
0002
,
0000
1000
0000
0010
0000
1000
0000
0013
,
0100
1000
0100
1000
0000
0001
0100
1000
,
0100
0000
0001
0010
0000
0100
1000
0100
,
0001
0000
0100
2000
0000
0000
3000
0000
,
0010
0100
0010
0000
1000
0001
1000
0000
,
0011
0101
1100
0101
,
0010
0000
1000
0001
0000
0010
0100
0010
,
0000
0001
0100
0001
0000
0010
0100
2000
,
0000
0001
0000
0010
0000
0001
0000
3010
,
0100
0001
0100
0001
0000
1000
0100
0001
,
0100
0000
1000
0010
0000
0100
0001
0100
,
1000
0000
0100
0002
0000
0000
0003
0000
,
1000
0000
0011
0000
0100
1000
0000
0100
,
1000
0010
0100
0001
0010
0100
1000
0100
,
0000
0000
1100
0000
0010
0100
0010
0000
,
0001
0000
0110
0000
1000
0100
1000
0000
,
0010
0000
0101
0000
0100
0010
0100
0000
,
0001
0000
1001
0000
1000
0001
1000
0000
,
0001
0011
0010
0110
,
0100
1100
1000
1001
,
0010
0010
0000
1000
1000
0000
0001
0001
,
0000
0010
0010
0000
0100
0000
1100
0000
,
2002
3000
0200
0003
,
0320
0000
2000
0030
,
3200
0000
0001
0000
,
1000
0000
0001
0000
,
2300
0000
0200
3000
,
0320
0000
0002
0030
,
1003
0010
0100
0010
,
2000
0010
3002
0010
,
1003
0100
0001
0100
,
1000
0100
0001
0100
,
1000
0100
1000
0000
0001
0100
0001
0000
,
1000
0001
1000
0001
1000
0100
0010
0001
,
2000
0000
3010
0100
0000
0001
0100
0002
,
0000
1003
0100
1000
0000
0001
0010
0001
,
0000
0110
0000
0011
0000
0101
0000
0010
,
1000
0010
1000
0010
0000
1000
0100
0001
,
0100
0000
0010
0001
0000
0001
0100
1000
,
0100
0000
0010
2000
0000
0000
0000
3000
,
0010
1000
0100
1000
0010
0100
0001
0010
,
0001
0100
0010
1000
0001
0000
0101
0000
,
1000
0001
1000
0001
0000
0100
0010
1000
,
0000
0001
0010
0100
0000
1000
0100
1000
,
0000
0101
0000
1100
0000
0101
0000
0010
,
0001
1000
0001
1000
0010
0001
0010
0001
,
0010
0000
0100
0010
0000
1000
0010
1000
,
0000
0100
1000
0200
0000
0000
0000
0000
,
0300
0000
1001
0000
0010
0001
0000
1000
,
0001
1000
0001
0100
0010
0000
0010
0000
,
1001
0110
1000
0110
,
0001
0110
1000
0110
,
0001
1001
0100
1001
,
0010
0110
1001
0101
,
1000
0100
0000
0010
0000
0010
0000
0001
,
0000
0100
1000
0000
0100
0000
0001
0000
,
0101
0000
0000
1010
0000
0000
0110
0000
,
0000
1001
0000
0000
0101
0000
1100
0000
,
0220
0000
0000
0000
,
0000
0000
0330
0000
,
0000
0000
0000
0000
;
#NOTES:
     dance-single:
     :
     Hard:
     14:
     :
0000
0000
0000
0000
,
0000
0000
0000
0000
,
0001
1000
0010
0000
0100
0001
1000
0000
,
0100
0010
0001
0000
0100
0010
1000
0000
,
0001
0100
1000
0100
0001
0100
1000
0100
,
0001
0010
1000
0010
0001
0000
1010
0000
,
0020
0001
0000
0001
0000
0031
0100
0010
,
0000
0010
2000
0000
0100
0000
3100
0000
,
0110
0000
0000
2002
0000
0000
3003
0000
,
1000
0010
0001
0020
0000
0000
0030
0000
,
1000
0001
0100
0000
0010
1000
0001
0000
,
0010
0100
1000
0000
0010
0100
0001
0000
,
1000
0010
0001
0010
1000
0010
0001
0010
,
1000
0100
0001
0100
1000
0000
0101
0000
,
0200
1000
0000
1000
0000
1300
0010
0100
,
0000
0100
0002
0000
0010
0000
0013
0000
,
0100
1000
0000
1000
0001
0000
0001
0100
,
0000
0100
0010
0000
0110
0000
1001
0000
,
1000
0100
0001
0100
1000
0010
0100
0001
,
0010
0100
1000
0010
0100
0001
0010
1000
,
0010
0001
0010
0100
1000
0100
0001
0100
,
1000
0010
0100
0001
1000
0100
0010
0001
,
0000
1000
0010
0100
0001
0010
0100
1000
,
1100
0000
0001
0011
0000
0000
0000
0000
,
1000
0001
1000
0001
0010
0100
1000
0001
,
0100
0010
0100
0010
1000
0100
0110
0000
,
0001
0010
1000
0010
0001
0100
0010
1000
,
0100
0010
0001
0100
0010
1000
0100
0001
,
0100
1000
0100
0010
0001
0010
1000
0010
,
0001
0100
0010
1000
0001
0010
0200
0000
,
1300
0001
0100
0010
1000
0100
0010
0001
,
0011
0000
1000
1100
0000
0000
0000
0000
,
0001
1000
0001
1000
0100
0010
0001
1000
,
0010
0100
0010
0100
0001
0010
0100
1000
,
1001
0000
1000
0100
0010
0000
0011
0000
,
0101
0000
0010
1000
0100
0000
1001
0000
,
0002
0000
0013
0100
2000
0000
3010
0100
,
2000
0000
3001
0010
0100
0010
0110
0000
,
1001
0000
0001
0010
0100
0000
1100
0000
,
1001
0000
0010
0100
0001
1000
0010
0000
,
0100
0001
1000
0001
0010
0100
1000
0001
,
1000
0100
0001
1000
0010
0001
1000
0001
,
1000
0100
0001
0100
0010
1000
0010
0001
,
1000
0010
0100
0001
0010
0100
1000
0100
,
1000
0000
0000
1000
0100
0000
0000
0100
0010
0000
0000
0010
0001
0000
0000
0001
,
0100
0001
1000
0101
0000
0100
0010
1000
,
0001
0010
0100
1000
0010
0100
0001
0010
,
0100
1000
0001
0100
0010
1000
0001
0100
,
0010
0010
0001
0000
0010
0010
1000
0000
,
0001
0100
1000
0001
0010
1000
0001
1000
,
0001
0010
1000
0010
0100
0001
0100
1000
,
0001
0100
0010
1000
0100
0010
0001
0010
,
0001
0000
0000
0001
0010
0000
0000
0010
0100
0000
0000
0100
1000
0000
0000
1000
,
0010
1000
0001
1100
0000
0100
0010
0001
,
1000
0010
0100
0001
0010
0100
1000
0100
,
0010
0001
1000
0010
0100
0001
1000
0010
,
0100
0100
0001
0001
1000
1000
0010
0010
,
1000
0010
0100
0001
1000
0100
0010
0001
,
1000
0001
1001
0000
0010
0100
0110
0000
,
1000
0010
1000
0010
0100
0001
1000
0000
,
0001
0010
0011
0000
1000
0100
1100
0000
,
0100
0010
0001
0010
0100
1000
0100
0000
,
0010
0100
0010
0000
0001
1000
0001
0000
,
0100
0010
0100
0000
0001
1000
0001
0000
,
1000
0100
0001
1000
0010
0001
1000
0001
,
0100
1000
0001
0010
1000
0001
1001
0000
,
2000
0010
3002
0100
,
0023
0000
0000
0200
0000
0000
0330
0000
,
0002
0100
2003
0010
,
3200
0000
0000
0020
0000
0000
0330
0000
,
2000
0100
3200
0010
,
0320
0000
0000
0002
0000
0000
0033
0000
,
0001
0001
0100
0100
,
0010
0010
1000
1000
,
0001
0100
0010
1000
,
0001
0010
0100
1000
,
0001
0100
0001
0100
0010
1000
0010
1000
,
0001
0100
0010
1000
0001
0010
0100
1000
,
0001
0100
1000
0100
0010
0001
0010
1000
,
0001
0010
0100
1000
0100
0010
0001
0100
,
0001
0000
0000
0001
0100
0000
0000
0100
0010
0000
0000
0010
1000
0000
0000
1000
,
0100
1000
0001
1100
0000
0100
0010
0001
,
1000
0010
0100
0001
0010
0100
1000
0010
,
0100
0001
1000
0100
0010
0001
1000
0100
,
0010
0010
1000
0000
0010
0010
0001
0000
,
1000
0100
0001
1000
0010
0001
1000
0001
,
1000
0010
0001
0010
0100
1000
0100
0001
,
1000
0100
0010
0001
0010
0100
1000
0010
,
1000
0000
0000
1000
0010
0000
0000
0010
0100
0000
0000
0100
0001
0000
0000
0001
,
0010
0001
1000
0101
0001
0100
0010
1000
,
0001
0010
0100
1000
0010
0100
0001
0100
,
0010
1000
0001
0010
0100
1000
0001
0010
,
0100
0100
1000
1000
0001
0001
0010
0010
,
0001
0010
0100
1000
0001
0100
0010
1000
,
0001
1000
0100
0000
0010
0001
1000
0000
,
0010
0100
0001
0000
0010
0100
1000
0000
,
0001
0010
1000
0010
0001
0010
1000
0010
,
0001
0100
1000
0100
0001
0100
1100
0000
,
0200
0001
0000
0001
0000
0301
0010
0100
,
0000
0100
2000
0000
0010
0000
3010
0000
,
0110
0000
0001
0101
0000
0000
1001
0000
,
1000
1100
0000
0000
0001
0010
0100
2000
,
0002
0000
0000
0000
,
0000
0000
3003
0000
,
0000
0000
0000
0000
;
#NOTES:
     dance-single:
     :
     Challenge:
     17:
     :
0000
0000
0000
0000
,
0000
0000
0000
0000
,
0001
0011
1000
1100
,
0001
0110
1000
0110
,
0001
0011
1000
1100
,
0001
0110
1000
0110
,
0001
0010
0000
1010
0000
0011
0000
1100
,
0000
0001
0100
0000
1100
0000
0101
0000
,
2000
0000
0000
0002
0000
0000
3003
0000
,
0010
1000
0000
0220
0000
0000
0330
0000
,
0001
0100
1000
0100
0001
0100
1000
0100
,
0010
1000
0100
0001
0100
1000
0100
0001
,
0100
1000
0010
0100
0010
1000
0100
0001
,
0100
0010
0001
0100
0020
0000
0031
0000
,
0010
0100
0110
0000
1000
0001
1001
0000
,
0010
1000
1010
0000
0100
0001
0101
0000
,
1000
0100
0000
0100
0001
0000
0001
0010
,
0000
0010
1000
0000
1001
0000
1001
0000
,
0001
0000
1000
0000
0001
0000
1000
0000
0001
0000
0100
0000
0010
1000
0010
0000
,
1000
0000
0001
0000
1000
0000
0001
0000
1000
0000
0100
0000
0010
0001
0010
0000
,
0001
0000
1000
0000
0001
0000
1000
0000
0001
0000
0010
0000
0100
1000
0100
0000
,
1000
0000
0001
0000
1000
0000
0001
0000
1000
0000
0010
0000
0100
0001
0100
0000
,
0001
0100
1000
0100
0001
0010
1000
0010
,
0001
1000
0100
0001
0000
0001
0010
1000
,
0010
0001
0100
0010
1000
0100
0010
0001
,
1000
0000
0010
0000
0100
0000
0001
0000
0010
0100
0010
0000
0100
1000
0100
0000
,
1000
0000
0001
0000
0100
0000
0010
0000
0100
0000
0001
0000
1000
0001
1000
0000
,
0001
0000
1000
0000
0100
0000
0010
0000
0100
0000
1000
0000
0001
1000
0001
0000
,
1000
0000
0010
0000
0100
0000
0010
0000
1000
0000
0001
0000
1000
0001
1000
0000
,
0001
0010
0100
0010
0001
1000
0020
0000
,
0031
0000
0010
0000
1000
0000
0100
0000
0001
0000
0100
0000
1000
0001
1000
0000
,
0001
0000
0010
0000
1000
0000
0010
0000
0001
1000
0001
0000
1000
0000
0010
0000
,
0100
0001
0100
0000
0001
0010
0001
0000
1000
0010
1000
0000
0010
0100
0010
0000
,
0100
0000
0001
0000
1000
0000
0100
0000
1000
0100
1000
0100
1000
0100
0010
0000
,
0110
0000
1000
0001
0010
0001
1000
0100
,
0000
0101
0000
1100
0100
0000
0011
0000
,
1100
0000
0001
1000
0010
1000
0001
0100
,
0000
1100
0000
0101
0100
0000
1010
0000
,
0101
0000
0000
0000
0000
0000
1000
0001
1000
0000
0000
0000
0001
0000
0100
0000
,
0000
0000
0110
0000
0000
0000
0001
0100
0001
0000
0000
0000
0110
0000
0000
0000
,
1000
0001
0100
0010
1000
0001
1000
0100
,
0001
0000
0100
0000
1000
0000
0010
0000
0100
0001
1000
0010
0100
0001
1000
0010
,
0100
0000
0001
0000
0010
0000
1000
0000
0010
0000
0001
0000
0100
0000
0010
0100
,
0010
0000
1000
0000
0100
0000
0001
0000
0100
0000
1000
0000
0010
0000
0100
0010
,
0100
0000
0001
1000
0100
0000
1000
0100
1000
0000
0100
0010
0001
0000
1000
0000
,
1010
0010
0100
0101
0000
0001
1000
0001
,
0100
0000
0010
0100
0010
0000
2000
0000
0000
0000
3100
0000
0010
0000
0001
0000
,
1000
0000
0100
0010
0100
0000
0002
0000
0000
0000
0000
0000
0003
0000
0000
0000
,
0100
0020
0001
0000
1000
0000
0001
0030
,
1000
0000
0010
0000
0001
0000
0100
0000
0010
1000
0010
1000
0001
1000
0100
0010
,
0001
0000
1000
0000
0100
0000
0001
0000
0001
0000
0100
0000
1000
0000
1000
0100
,
1000
0000
0100
0000
0001
0000
0001
0000
0000
0000
0100
0000
0010
0000
0001
0010
,
0000
0000
1000
0010
0000
0000
0001
0010
0000
0000
1000
0010
0000
0000
0001
0000
,
1001
0010
0100
0110
0000
1000
0100
0001
,
0100
1000
0010
0011
0000
1000
0100
0001
,
0010
1000
0010
0022
0000
0000
0000
0033
,
1000
0000
0001
1000
0001
0000
0100
0010
0100
0000
0001
1000
0001
0000
0100
0000
,
0010
0000
1000
0000
0010
0000
0100
0000
0010
0100
0001
1000
0100
0010
0001
0010
,
0100
0000
1000
0000
0100
1000
0100
0000
1000
0000
0010
0000
1000
0010
1000
0000
,
0010
0000
0100
0000
0001
0100
0001
0000
1000
0000
0100
0000
1000
0100
1000
0000
,
0010
0000
1000
0000
0010
1000
0010
0000
0100
0000
0001
0000
0100
0001
0100
0000
,
0001
0000
0010
0000
0001
0010
0002
0000
2000
0000
3003
0000
1001
0000
0000
0000
,
0010
0000
1000
0000
0010
0100
0001
0000
1000
0000
0100
0000
0001
0000
0100
0000
,
0010
0000
0001
0000
0100
0010
1000
0000
0002
0000
0000
0000
0103
0000
0000
0000
,
1010
1010
0000
0101
0101
0000
0011
0011
,
0000
0000
1000
0001
1000
0001
1000
0001
1000
0010
0100
0001
1000
0010
0100
0001
,
2000
0010
0001
0100
,
0001
0010
3001
0110
,
0012
1000
0100
1000
,
0010
1000
0103
0110
,
2010
0100
0001
0100
,
0010
0100
3001
0110
,
0020
0100
2030
0100
,
3020
0100
2030
0001
,
3200
0001
2300
0010
,
3002
0010
0203
1000
,
0310
1000
0100
0010
0001
0100
0010
1000
,
0001
0100
0001
0100
0010
1000
0010
1000
0100
1000
0100
0010
0001
0100
0010
1000
,
0001
0000
0100
0000
0010
0000
1000
0010
0100
0000
0010
0000
1000
0000
0010
0100
,
0001
0000
0100
0000
0001
0100
0001
0000
1000
0000
0100
0000
0010
0000
0001
0010
,
0001
0000
0010
0100
0010
0000
0100
1000
0100
0000
0010
0100
0010
0000
0001
0000
,
1001
0100
0010
0011
0000
1000
0010
0001
,
0010
0000
1000
0000
0010
0000
0100
0010
0100
0000
0001
1000
0100
0000
0001
0000
,
0100
0000
1000
0000
0100
0000
0010
0100
0010
0000
0001
1000
0010
0000
0100
0000
,
0001
0100
1000
0100
0001
0010
0001
1000
,
0001
0000
0100
0010
0100
0000
0010
1000
0001
0100
0010
1000
0100
0010
0100
1000
,
0100
1000
0001
0100
1000
0010
1000
0100
,
0010
0000
1000
0000
0100
0010
0100
0000
1000
0000
0010
0000
0001
0000
0011
0000
,
0000
1010
0100
1100
0000
1100
0100
0010
,
0001
0000
0010
0000
1000
0000
0010
0000
1000
0010
0001
0000
1000
0010
0001
0000
,
1000
0000
0100
0000
0010
0000
0100
0010
1000
0000
0001
1000
0100
0000
0010
0000
,
0001
0000
0001
0000
0100
0000
1000
0000
0100
0010
0100
0010
1000
0100
0010
0001
,
1000
0000
0110
0000
0001
0100
0000
0001
,
1000
0000
0100
0000
0010
0000
0100
0000
1000
0001
0100
0010
0100
0001
1000
0100
,
0010
1100
0010
0101
,
0010
1100
0010
0101
,
0010
1100
0001
1100
,
0010
0101
1200
0301
,
1000
0010
0000
0011
0000
1010
0000
0101
,
0000
1000
0100
0000
0101
0000
1100
0000
,
0110
0110
0000
1001
1001
0000
0101
0101
,
0000
0000
1010
0000
1010
0000
0000
0000
0001
0000
1000
0001
0010
0000
0001
1000
,
0200
0000
0000
0000
,
0000
0000
0300
0000
,
0000
0000
0000
0000
;
#NOTES:
     dance-double:
     :
     Easy:
     8:
     :
00000000
00000000
00000000
00000000
,
00000000
00000000
00000000
00000000
,
00000000
01000000
00000000
00001000
,
00000000
00000010
00000000
00000001
,
00000000
00000100
00000000
00001000
,
00000000
00100000
00000000
10010000
,
00000000
10000000
01000000
00010000
,
00000000
00001000
00000010
00000001
,
00002000
00000000
00000000
00000001
00000000
00000000
00003000
00000000
,
00000002
00000000
00000000
00001000
00000000
00000000
00000003
00000000
,
00001000
00000001
00000000
00001000
,
00000010
00001000
00000000
00000100
,
00010000
00001000
00000000
00010000
,
00001000
00100000
01000000
10000000
,
00010000
01000000
00000000
00001000
,
00010000
00001000
00000000
00000100
,
00000001
00000000
00000000
00001001
00000000
00000000
00000001
00000000
,
00000000
00001100
00000000
00000000
00000010
00000000
00000010
00000000
,
00000000
00000001
00000100
00001000
,
00010000
00001000
00010000
00001000
,
00000000
00100000
01000000
10000000
,
01000000
10000000
01000000
00010000
,
00000000
00001000
00010000
00000010
,
00001000
00000200
00000000
00000300
,
00010000
00001000
00100000
00010000
,
10000000
01000000
00010000
00011000
,
00000000
00010000
00001000
00000010
,
00000001
00000100
00001000
00011000
,
00000000
00001000
00010000
00100000
,
10000000
01000000
00010000
00011000
,
00000000
00000010
00001000
00000100
,
00000001
00000100
00001000
00000001
,
00000000
00001000
00000010
00010000
,
00001000
01000000
00010000
10000000
,
10020000
00000000
00100000
00000000
,
01030000
00000000
00100000
00001000
,
00021000
00000000
00000010
00000000
,
00031000
00000000
00000010
00001000
,
00001002
00000000
00000100
00000000
,
00001003
00000000
00000010
00001000
,
00000001
00000100
00001000
00010000
,
00100000
10000000
10000000
10000000
,
00010000
10000000
01000000
00010000
,
00001000
00000010
00000100
00000010
,
00000001
00000100
00001000
00010000
,
00100000
01100000
00000000
10000000
,
01000000
00010000
00001000
01000000
,
00100000
00020000
00000000
00000000
,
00031000
00000100
00000010
00000100
,
00000010
00000100
00001000
00000000
,
00010000
00001000
00100000
00010000
,
10000000
01000000
00100000
00010000
,
01000000
00001000
00100000
00001000
,
00010000
00001000
00000000
00010000
,
00000100
00000100
00000000
00000100
,
00010000
00020000
00000000
00000000
,
00030000
00001000
01000000
10000000
,
01000000
00010000
01000000
00001000
,
00010000
00002000
00003000
00000020
,
00000030
00000002
00000003
00000200
,
00000300
00002000
00003000
00020000
,
00030000
00200000
00300000
20000000
,
30000000
02000000
03000000
00020000
,
00030000
00002000
00003000
00100000
,
01000000
00000000
00000000
01000000
00000000
00000000
00010000
00000000
,
00000000
00010000
00000000
00000000
00001000
00000000
00011000
00000000
,
00000000
00000010
00000001
00000000
,
00000000
00000001
00001000
00000000
,
00000000
00000010
00010000
00000000
,
00000000
00001000
01000000
00000000
,
00000000
00100000
10000000
00000000
,
00000000
00010000
01000000
00100000
,
10000000
10000000
00010000
00010000
,
00100000
00100000
00001000
00001000
,
00010000
00001000
00000010
00000001
,
00000010
00001000
00010000
00001000
,
00010000
00100000
10000000
00100000
,
00010000
00001000
00000100
00000001
,
00001000
00000010
00000100
00001000
,
00010000
00100000
00000000
00100000
,
00010000
00100000
10000000
01000000
,
10000000
01000000
00000000
00010000
,
00001000
00010000
00000100
00000010
,
00000001
00001000
00000001
00000000
,
00000100
00000010
00010000
00001000
,
00010000
00000010
00000100
00000001
,
00000001
00000100
00010000
00000000
,
00001000
00100000
10000000
00000000
,
01000000
00100000
00001000
00000010
,
00000001
00000100
00001000
00001000
,
00000100
00000010
00000100
00000000
,
00001000
00010000
00001000
00000000
,
00022000
00000000
00033000
00000000
,
00001000
00100000
00010000
10000000
,
00010000
01010000
00000000
10100000
,
00000000
00110000
00000000
00011000
,
00000000
00001010
00000000
00000101
,
00000000
00001010
00000000
00001001
,
00000001
00000100
00001000
00010000
,
00100000
10000000
00100000
00010000
,
00001000
00000000
00000000
00100000
00000000
00000000
00010000
00000000
,
00000000
00000010
00000000
00000000
00001000
00000000
00010000
00000000
,
00002000
00000000
00000000
00000000
,
00000000
00000000
00003000
00000000
,
00000000
00000000
00000000
00000000
;
#NOTES:
     dance-double:
     :
     Medium:
     13:
     :
00000000
00000000
00000000
00000000
,
00000000
00000000
00000000
00000000
,
00000000
00110000
00000000
00011000
,
00000000
01010000
00000000
00011000
,
00000000
00001010
00000000
00011000
,
00000000
00001100
00000000
00011000
,
00001000
00010000
00000000
00000010
00000000
00000100
00000000
00000010
,
00000000
00001000
00000001
00000000
00000100
00000000
00001000
00000000
,
00020000
00000000
00000000
00002000
00000000
00000000
00033000
00000000
,
00100000
00010000
00000000
00200000
00000000
00000000
00300000
00000000
,
00010000
00100000
00001000
00000010
,
00000001
00000100
00001000
00010000
,
00100000
01000000
00010000
00001000
,
00000010
00001000
00000100
00000110
,
00001000
00000001
00000000
00000100
00000000
00001000
00000000
00010000
,
00000000
01000000
10000000
00000000
00010000
00000000
10000000
00000000
,
00010000
00100000
00000000
00001000
00010000
00000000
00010000
00100000
,
00000000
00001000
00010000
00000000
00000010
00000000
00001000
00000000
,
00000001
00001000
00000001
00001000
00000100
00000000
00010000
00000000
,
00001000
00010000
00001000
00010000
00100000
00000000
10000000
00000000
,
00010000
10000000
00010000
10000000
01000000
00000000
00010000
00000000
,
00001000
00010000
00001000
00010000
00000100
00000000
00000010
00000000
,
00000001
00000100
00001000
00000000
00010000
00100000
10000000
00000000
,
10000000
01000000
00010000
00001000
00000000
00000010
00000001
00000000
,
00001000
00000001
00001000
00000000
00000010
00000100
00000010
00000000
,
00010000
00001000
00010000
00000000
00100000
01000000
00100000
00000000
,
10000000
01000000
10000000
00010000
00100000
00001000
00010000
00000000
,
00000010
00001000
00000010
00010000
00001000
01000000
00100000
00000000
,
10000000
00010000
00100000
00001000
00010000
00000010
00001000
00000000
,
00000001
00001000
00000010
00010000
00001000
00100000
00010000
00000000
,
10000000
01000000
00100000
01000000
10000000
01000000
00010000
00000000
,
00001000
00010000
00001000
00000100
00001000
00000100
00000001
00000000
,
00001000
00000001
00001000
00000000
00000010
00010000
00001000
00000000
,
00100000
01000000
00100000
00000000
00010000
10000000
01000000
00000000
,
11000000
00000000
00000000
10000000
01000000
00000000
01010000
00010000
,
00000000
00001000
00000000
00010000
00001000
00000000
00001100
00000000
,
00000101
00000000
00000000
00000001
00000100
00000000
00001100
00001000
,
00000000
00010000
00000000
00001000
00010000
00000000
01010000
00000000
,
11000000
00000000
10000000
01000000
10000000
00000000
00010000
00100000
,
00010000
00000000
01000000
00001000
01000000
00000000
00001000
00010000
,
00001000
00010000
00000010
00010000
00001000
00010000
01000000
10000000
,
01000000
10000000
01000000
00100000
00010000
00001000
00000100
00000010
,
00000001
00000000
00000010
00000100
00000000
00010000
00001000
00010000
,
00000000
00000010
00001000
00000100
00000000
00001000
00000010
00000200
,
00000000
00000001
00000000
00000010
00000000
00000001
00000000
00000310
,
00001000
00000100
00010000
00001000
00000000
00100000
01000000
10000000
,
01000000
00000000
00010000
00001000
00000000
01000000
00100000
00010000
,
00100000
00000000
01000000
00002000
00000000
00000000
00003000
00000000
,
00010000
00001000
00010000
00000000
00000010
00000100
00000010
00000000
,
00001010
00000000
00000011
00000000
00001000
00000100
00010000
01000000
,
10000000
00000000
00100000
01000000
00000000
00001000
00010000
00001000
,
00000000
00100000
00010000
01000000
00000000
00010000
00100000
02000000
,
00000000
10000000
00000000
00100000
00000000
10000000
00000000
03100000
,
00010000
01000000
00001000
00010000
00000000
00000010
00000100
00000001
,
00000100
00000000
00001000
00010000
00000000
00000100
00000010
00001000
,
00000010
00000000
00000100
00020000
00000000
00000000
00030000
00000000
,
00001000
00000000
01010000
00000000
10000000
01000000
00000000
00100000
,
00001000
00010000
00000010
00000100
00000001
00000100
00001000
00010000
,
00000000
00000000
10100000
00000000
10000000
00010000
10000000
00000000
,
00100000
00000000
01010000
00000000
00001000
00010000
00001000
00000000
,
00010000
00000000
00001010
00000000
00000100
00000010
00000100
00000000
,
00000001
00000000
00001100
00000000
00010000
00001000
00010000
00000000
,
00100000
10100000
01000000
01010000
,
00010000
00011000
00000100
00000110
,
00000001
00000001
00000000
00001000
00001000
00000000
00000100
00000100
,
00000000
00010000
00010000
00000000
00100000
00000000
10010000
00000000
,
20020000
30000000
00200000
00030000
,
00002000
00300000
00020000
00003000
,
00000200
00030000
00002000
00000300
,
00000002
00003000
00000100
00000003
,
00002000
00000000
00000020
00003000
,
00020000
00000030
00002000
00030000
,
00103000
01000000
00010000
00001000
,
00000020
00000001
00000100
00000001
,
00000230
00001000
00000010
00001000
,
00020300
00100000
00032000
01000000
,
00013000
00001000
00000010
00000001
,
00000100
00000001
00000100
00001000
00010000
00100000
10000000
00010000
,
20000000
00000000
31000000
00100000
00000000
00001000
00010000
00002000
,
00000000
00003100
00000001
00000100
00000000
00000001
00000010
00000001
,
00000000
00001001
00000000
00001100
00000000
00011000
00000000
00100000
,
01000000
10000000
01000000
10000000
00000000
00010000
00100000
00010000
,
00001000
00000000
00000001
00001000
00000000
00001000
00000010
00001000
,
00010000
00000000
10000000
00020000
00000000
00000000
00000000
00030000
,
01000000
00010000
10000000
00010000
01000000
00001000
00010000
00000100
,
00000010
00000001
00000100
00001000
00010000
00000000
01010000
00000000
,
10000000
01000000
10000000
01000000
00000000
00010000
00001000
00010000
,
00000000
00000010
00000100
00000010
00000000
00001000
00000100
00001000
,
00000000
00000110
00000000
00001100
00000000
00011000
00000000
00100000
,
00010000
10000000
01000000
10000000
00100000
00010000
00100000
00010000
,
00001000
00000000
00000100
00001000
00000000
00010000
00001000
00010000
,
00000000
01000000
00010000
02000000
00000000
00000000
00000000
00000000
,
03000000
00000000
10010000
00000000
10000000
01000000
00000000
00010000
,
00001000
00000110
00000101
00001100
,
00011000
00000010
00011000
00100000
,
00011000
00000010
00011000
00100000
,
00011000
00000100
00011000
01000000
,
00011000
00000100
00011000
01010000
,
00010000
10000000
00000000
01000000
00000000
00010000
00000000
00001000
,
00000000
00000100
00000001
00000000
00001000
00000000
00000001
00000000
,
00001100
00000000
00000000
00011000
00000000
00000000
01100000
00000000
,
00000000
10010000
00000000
00000000
00110000
00000000
00010010
00000000
,
00022000
00000000
00000000
00000000
,
00000000
00000000
00033000
00000000
,
00000000
00000000
00000000
00000000
;
#NOTES:
     dance-double:
     :
     Hard:
     15:
     :
00000000
00000000
00000000
00000000
,
00000000
00000000
00000000
00000000
,
10000000
01000000
10000000
00000000
01000000
00010000
00001000
00000000
,
00000010
00000001
00000100
00000000
00000010
00001000
00000100
00000000
,
00010000
00001000
00000100
00001000
00010000
00001000
00000100
00000000
,
00001000
00010000
00100000
00010000
00001000
00010000
00100000
00000000
,
20000000
00100000
00000000
00100000
00000000
30100000
01000000
00010000
,
00000000
00010000
00200000
00000000
01000000
00000000
01300000
00000000
,
00020000
00000000
00000000
00002000
00000000
00000000
00033000
00000000
,
00001000
00000100
00000001
00000200
00000000
00000000
00000300
00000000
,
00000001
00000010
00000001
00000000
00000010
00001000
00010000
00000000
,
01000000
10000000
00100000
00000000
01000000
00010000
00100000
00000000
,
00001000
00010000
00100000
00010000
00001000
00010000
00100000
00010000
,
00001000
00000100
00000010
00000100
00001000
00000100
00000001
00000000
,
00000002
00000100
00000000
00000100
00000000
00000103
00000010
00001000
,
00000000
00001000
00000200
00000000
00000010
00000000
00000310
00000000
,
00000001
00000010
00000000
00000010
00001000
00000000
00001000
00010000
,
00000000
00010000
01000000
00000000
01100000
00000000
10010000
00000000
,
10000000
01000000
00010000
01000000
10000000
00100000
01000000
00010000
,
00100000
00001000
00010000
01000000
10000000
01000000
00100000
00010000
,
00001000
00000100
00000001
00000100
00001000
00000010
00000100
00000001
,
00000010
00001000
00010000
00001000
00000100
00000001
00000010
00000100
,
00000000
00001000
00000100
00000010
00000001
00000100
00000010
00000000
,
00001010
00000000
00000100
00010000
00000000
00000000
00000000
00000000
,
00001000
00010000
00001000
00010000
00100000
01000000
00010000
10000000
,
01000000
00010000
01000000
00010000
00001000
00000010
00000001
00000000
,
00000001
00000100
00001000
00000100
00000001
00000010
00000100
00001000
,
00000010
00010000
00001000
00000100
00000001
00000100
00000010
00001000
,
00010000
01000000
10000000
01000000
00010000
00100000
01000000
10000000
,
00100000
00010000
00001000
00010000
01000000
10000000
00200000
00000000
,
01300000
00010000
01000000
00100000
10000000
01000000
00100000
00000000
,
00110000
00000000
01000000
00001000
00000000
00000000
00000000
00000000
,
00000020
00000032
00000023
00002030
,
00023000
00000000
02030000
00000000
13000000
00010000
10000000
00000000
,
10010000
00000000
10000000
01000000
00010000
00000000
01010000
00000000
,
00011000
00000000
00001000
00000100
00000001
00000000
00001001
00000000
,
00000002
00000000
00000013
00000100
00002000
00000000
00003010
00000100
,
00002000
00000000
00013000
00100000
01000000
00100000
10000000
00000000
,
10010000
00000000
10000000
00100000
00010000
00000000
00110000
00000000
,
00011000
00000000
00001000
00000010
00000001
00000000
00001001
00000000
,
00000001
00000010
00001000
00010000
00001000
00000100
00000001
00001000
,
00000001
00000010
00001000
00010000
00000010
00001000
00010000
01000000
,
00100000
10000000
00010000
01000000
00001000
00010000
01000000
10000000
,
00100000
00010000
00001000
00000100
00000010
00001000
00000001
00000010
,
00001000
00010000
00001000
00000100
00000001
00000010
00000100
00001000
,
00000001
00000100
00001000
00010000
00000000
00100000
10000000
01000000
,
00010000
00001000
00010000
01000000
00100000
10000000
00100000
00010000
,
01000000
00100000
00010000
00001000
00000100
00000001
00000010
00001000
,
00000010
00000010
00000001
00000000
00000010
00000010
00001000
00000000
,
00010000
00100000
10000000
00010000
10000000
01000000
00010000
00001000
,
00000010
00000001
00001000
00000100
00010000
00001000
01000000
00100000
,
00010000
00001000
00000100
00000010
00010000
00001000
00010000
00100000
,
00010000
00001000
00100000
00010000
01000000
00001000
00010000
01000000
,
10000000
01000000
00010000
00001000
00000000
00000010
00000001
00000100
,
00001000
00010000
00001000
00000100
00000010
00000001
00000010
00001000
,
00000100
00000010
00001000
00010000
01000000
10000000
00100000
00010000
,
00200000
20300000
30200000
00320000
,
00031000
00000010
00000001
00000010
00001000
00010000
00100000
00010000
,
00001000
00010000
00001000
00000000
00100000
01000000
00100000
00000000
,
00010000
10000000
00010000
10000000
01000000
00010000
00001000
00000000
,
00000010
00000001
00000010
00000000
00000100
00001000
00000100
00000000
,
00010000
00001000
00000010
00000001
00000100
00001000
00010000
00000000
,
00100000
01000000
00100000
00000000
10000000
00010000
10000000
00000000
,
01000000
00100000
00010000
00000000
10000000
01000000
00010000
00000000
,
10000000
00100000
00010000
01000000
00010000
00100000
01000000
00010000
,
00001000
00000010
00001000
00010000
00000010
00000000
00011000
00000000
,
00002000
00000010
00003020
00000001
,
00000032
00000000
00000000
00002000
00000000
00000000
00003003
00000000
,
00000002
00000100
00000203
00001000
,
00002300
00000000
00000000
00020000
00000000
00000000
00033000
00000000
,
00002000
00100000
00203000
00010000
,
00320000
00000000
00000000
20000000
00030000
00000000
30100000
00000000
,
10000000
10000000
01000000
01000000
,
00010000
00010000
00001000
00001000
,
00000010
00000001
00000010
00001000
,
00010000
00100000
10000000
00100000
,
00010000
00001000
00010000
00001000
00000010
00000001
00000010
00000001
,
00000100
00001000
00010000
00100000
10000000
01000000
00010000
00001000
,
00000010
00000001
00001000
00000100
00010000
00001000
00000100
00000001
,
00000010
00001000
00010000
01000000
00100000
00010000
10000000
00100000
,
00010000
00001000
00010000
01000000
10000000
00100000
01000000
00010000
,
10000000
01000000
00010000
00001000
00000000
00000010
00000001
00000100
,
00001000
00010000
00001000
00000100
00000010
00000001
00000010
00001000
,
00000100
00000010
00001000
00010000
01000000
10000000
00100000
00010000
,
00100000
00100000
10000000
00000000
00100000
00100000
00010000
00000000
,
00001000
00000010
00000001
00001000
00000001
00000100
00001000
00010000
,
00100000
10000000
00010000
01000000
00001000
00010000
00000100
00000010
,
00001000
00010000
01000000
00100000
00001000
00010000
00001000
00000010
,
00001000
00010000
00000010
00001000
00000100
00010000
00001000
00000100
,
00000001
00000100
00001000
00010000
00000000
00100000
10000000
01000000
,
00010000
00001000
00010000
01000000
00100000
10000000
00100000
00010000
,
01000000
00100000
00010000
00001000
00000100
00000001
00000010
00001000
,
00000020
00000032
00000023
00002030
,
00013000
00100000
10000000
00010000
01000000
00001000
00010000
01000000
,
10000000
00100000
10000000
00000000
00100000
00010000
00001000
00000000
,
00000100
00000001
00000010
00000000
00000100
00001000
00000010
00000000
,
00010000
00001000
00000010
00001000
00010000
00001000
00000010
00001000
,
00010000
01000000
00010000
00001000
00010000
01000000
10000000
00000000
,
20000000
01000000
00000000
01000000
00000000
31000000
00100000
00010000
,
00000000
00010000
02000000
00000000
00100000
00000000
03100000
00000000
,
10100000
00000000
00000000
01010000
00000000
00000000
00101000
00000000
,
00000000
00010100
00000000
00000000
00001000
00000010
00000100
00000002
,
00002000
00000000
00000000
00000000
,
00000000
00000000
00003003
00000000
,
00000000
00000000
00000000
00000000
;
#NOTES:
     dance-double:
     :
     Challenge:
     17:
     :
00000000
00000000
00000000
00000000
,
00000000
00000000
00000000
00000000
,
00010000
00110000
10000000
11000000
,
00010000
00011000
00000100
00000101
,
00000010
00000011
00001000
00011000
,
00100000
10100000
00010000
00011000
,
00000010
00000100
00000000
00000101
00000000
00001100
00000000
00011000
,
00000000
00010000
01000000
00000000
11000000
00000000
01010000
00000000
,
00002000
00000000
00000000
00020000
00000000
00033000
00000000
00000000
,
00000010
00000100
00000000
00000220
00000000
00000000
00000330
00000000
,
00000001
00000100
00001000
00000100
00000001
00000100
00001000
00010000
,
00001000
00000100
00001000
00010000
00100000
00010000
00001000
00010000
,
01000000
10000000
01000000
00010000
01000000
10000000
00100000
10000000
,
01000000
00010000
00001000
00000010
00000002
00000000
00000003
00000000
,
00000010
00000001
00000011
00000000
00000100
00001000
00001100
00000000
,
00010000
00001000
00011000
00000000
00010000
01000000
01010000
00000000
,
10000000
01000000
00000000
00001000
00010000
00000000
00100000
00001000
,
00000000
00000010
00001000
00000000
00000010
00000000
00001001
00000000
,
00000001
00000000
00001000
00000000
00000001
00000000
00001000
00000000
00000001
00000000
00000100
00000000
00001000
00010000
00001000
00000000
,
00010000
00000000
00001000
00000000
00010000
00000000
00001000
00000000
00010000
00000000
01000000
00000000
10000000
00010000
10000000
00000000
,
00010000
00000000
10000000
00000000
00010000
00000000
10000000
00000000
00100000
00000000
00010000
00000000
00001000
00010000
00001000
00000000
,
00010000
00000000
00001000
00000000
00010000
00000000
00001000
00000000
00000010
00000000
00000001
00001000
00000001
00000000
00000000
00000000
,
00000001
00000100
00001000
00000100
00000001
00000010
00001000
00000010
,
00000001
00000100
00001000
00010000
00000000
10000000
01000000
00010000
,
10000000
00100000
10000000
01000000
00010000
01000000
10000000
00010000
,
00100000
00000000
00010000
00000000
00001000
00000000
00000100
00000000
00000010
00000001
00000010
00000000
00000001
00001000
00000001
00000000
,
00001000
00000000
00000001
00000000
00000010
00000000
00000100
00000000
00010000
00000000
00001000
00000000
00100000
00010000
00100000
00000000
,
00010000
00000000
10000000
00000000
00100000
00000000
01000000
00000000
00001000
00000000
00010000
00000000
00000100
00001000
00000100
00000000
,
00001000
00000000
00000001
00000000
00000100
00000000
00000010
00000000
00010000
00000000
00001000
00000000
00100000
01000000
00100000
00000000
,
01000000
10000000
01000000
00100000
00001000
00010000
00000020
00000000
,
00000031
00000000
00000010
00000000
00001000
00000000
00000100
00000000
00010000
00000000
00001000
00000000
01000000
00010000
01000000
00000000
,
00100000
10000000
00010000
01000000
00001000
00100000
00010000
10000000
,
01000000
00100000
01000000
00000000
10000000
01000000
10000000
00000000
00010000
00100000
00010000
00000000
01000000
00100000
01000000
00000000
,
00001000
00000000
00010000
00000000
00000100
00000000
00001000
00000000
00000100
00001000
00000100
00001000
00000001
00001000
00000001
00000000
,
00000101
00000000
00001000
00000001
00000100
00001000
00010000
00001000
,
00000000
00100000
00000000
10000000
00100000
00000000
00110000
00000000
,
11000000
00000000
00010000
10000000
01000000
00010000
00001000
00010000
,
00000000
00000010
00000000
00000001
00000010
00000000
00001100
00000000
,
00000101
00000000
00000000
00000000
00000000
00000000
00000001
00000010
00000001
00000000
00000000
00000000
00001000
00000000
00000100
00000000
,
00000000
00000000
00001000
00000000
00000000
00000000
00010000
00100000
00010000
00000000
00000000
00000000
10000000
00000000
01000000
00000000
,
10000000
01000000
00010000
00001000
00000010
00000001
00000010
00001000
,
00010000
00000000
00000010
00000000
00001000
00000000
00000001
00000000
00000100
00000001
00001000
00000010
00010000
00001000
00100000
00010000
,
00100000
10000000
00100000
00010000
00100000
00001000
00010000
00001000
,
00100000
00000000
10000000
00000000
00100000
00000000
00001000
00000000
01000000
00000000
00010000
00000000
01000000
00000000
00001000
00010000
,
00000010
00000000
00001000
00000000
00000010
00000000
00001000
00000001
00001000
00000000
00000100
00000000
00000010
00000000
00000001
00000000
,
00000010
00001000
00010000
00001000
00000000
00010000
00001000
00010000
,
01000000
00010000
00001000
00000010
00000000
00000001
00001000
00000001
,
00000100
00001000
00010000
00200000
00000000
00000000
00300000
00000000
,
10000000
02000000
00010000
00000000
10000000
00000000
00010000
03000000
,
10000000
00000000
01000000
00000000
00100000
00000000
01000000
00000000
10000000
00010000
10000000
00010000
10000000
00010000
00100000
00001000
,
00010000
00000000
00001000
00000000
00000100
00000000
00000001
00000000
00000100
00000000
00001000
00000000
00010000
00000000
00100000
10000000
,
00100000
00000000
10000000
00000000
00010000
00000000
10000000
00000000
00000000
00000000
10000000
00000000
01000000
00000000
00010000
00001000
,
00000000
00000000
00010000
01000000
00000000
00000000
00010000
00001000
00000000
00000000
00010000
01000000
00000000
00000000
10000000
00000000
,
01000000
00010000
00001000
00010000
00000000
00000010
00001000
00000010
,
00000100
00000001
00000100
00001000
00000000
00100000
00010000
00100000
,
01000000
10000000
01000000
00020000
00000000
00000000
00000000
00030000
,
00001000
00000000
00010000
00001000
00010000
00000000
00000010
00001000
00000010
00000000
00000100
00000001
00000100
00000000
00000001
00000000
,
00000100
00000000
00001000
00000000
00010000
00000000
00100000
00000000
10000000
00010000
10000000
00010000
10000000
01000000
00100000
00010000
,
00001000
00000000
00000100
00000000
00001000
00000100
00001000
00000000
00000001
00000000
00000100
00000000
00000001
00000100
00000001
00000000
,
00000100
00000000
00001000
00000000
00000100
00001000
00000100
00000000
00001000
00000000
00010000
00000000
00001000
00010000
00001000
00000000
,
00010000
00000000
00100000
00000000
00010000
00100000
00010000
00000000
00100000
00000000
10000000
00000000
00100000
10000000
00100000
00000000
,
10000000
00000000
01000000
00000000
10000000
01000000
20000000
00000000
00020000
00000000
30030000
00000000
10010000
00000000
00000000
00000000
,
10000000
00000000
00010000
00000000
00100000
00010000
10000000
00000000
00100000
00000000
01000000
00000000
00100000
00000000
00010000
00000000
,
00001000
00000000
00000100
00000000
00000001
00001000
00000010
00000000
00000200
00000000
00000000
00000000
00000301
00000000
00000000
00000000
,
00001100
00001100
00000000
00110000
00110000
00000000
00001010
00001010
,
00000000
00000000
00000001
00001000
00000001
00001000
00000001
00001000
00000001
00001000
00000001
00001000
00000001
00001000
00000001
00001000
,
00000002
00001000
00000100
00001000
,
00000100
00000010
00000103
00001100
,
00021000
00000010
00001000
00000100
,
00001000
00000010
00031000
00101000
,
10020000
00100000
10000000
01000000
,
10000000
00100000
01030000
00011000
,
00000020
00000100
00020030
00000100
,
00030020
00000100
00020030
00001000
,
00230000
10000000
00320000
00000010
,
00032000
01000000
00203000
01000000
,
00301000
00010000
00001000
00000010
00000001
00001000
00000010
00001000
,
00000001
00001000
00000001
00001000
00000010
00010000
00000010
00010000
00001000
00010000
00001000
00010000
00001000
01000000
00001000
01000000
,
00010000
00000000
10000000
00000000
01000000
00000000
00010000
00000000
00001000
00000000
00010000
00000000
00000100
00000000
00000010
00000001
,
00000100
00000000
00001000
00000000
00000100
00000000
00000010
00000000
00001000
00000000
00000100
00000000
00010000
00000000
00001000
00100000
,
00001000
01000000
00010000
10000000
01000000
00100000
00001000
00010000
,
01000000
00100000
01000000
00000000
10000000
00010000
10000000
00000000
00000000
00000000
10000000
00000000
00010000
00000000
10000000
00000000
,
01000000
00000000
00010000
00000000
00001000
00000000
00000010
00000001
00001000
00000000
00000001
00001000
00000001
00000000
00000100
00000000
,
00001000
00000000
00010000
00000000
00100000
00000000
10000000
00010000
00100000
00000000
00010000
10000000
01000000
00000000
00010000
00000000
,
00001000
00000010
00001000
00010000
00100000
01000000
00010000
01000000
,
00001000
00000000
00100000
00010000
00100000
00000000
00010000
00100000
00001000
00010000
00001000
00010000
00000010
00001000
00000001
00000100
,
00000001
00000100
00010000
00001000
00000010
00010000
01000000
10000000
,
01000000
00001000
00010000
00100000
00001000
00000100
00000001
00000100
,
00010000
00001000
00100000
10000000
01000000
00001000
00010000
00000010
,
00000001
00001000
00000001
00001000
00000100
00000001
00000010
00001000
,
00000001
00001000
00000100
00020000
00000000
10030000
00100000
00010000
,
00001000
00000100
00000002
00000000
00000103
00001000
00000010
00010000
,
00001000
00000000
01100000
00000000
10000000
01000000
00000000
00001000
,
00000100
00000000
00010000
00000000
00001000
00000000
00000010
00000000
00000001
00001000
00000010
00001000
00000010
00010000
00001000
00100000
,
00010000
11000000
00100000
00011000
,
00000010
00000101
00000010
00011000
,
00100000
11000000
00100000
00011000
,
00000010
00000101
00012000
00103000
,
00100000
01000000
00000000
11000000
00000000
01010000
00000000
00011000
,
00000000
00001000
00000100
00000000
00000101
00000000
00001100
00000000
,
00011000
00011000
00000000
01100000
01100000
00000000
10010000
10010000
,
00000000
00000000
01010000
00000000
01010000
00000000
00000000
00000000
01000000
00000000
00001000
00010000
00001000
00000000
00010000
00000010
,
00002000
00000000
00000000
00000000
,
00000000
00000000
00003000
00000000
,
00000000
00000000
00000000
00000000
;
