
//----- song ID: kois -----//
#TITLE:恋時雨;
#ARTIST:ときめきアイドル project;
#TITLETRANSLIT:Koishigure;
#ARTISTTRANSLIT:Tokimeki Idol project;
#BANNER:Koishigure.png;
#BACKGROUND:Koishigure-bg.png;
#CDTITLE:./CDTitles/DDR A.png;
#MUSIC:Koishigure.ogg;
#SAMPLESTART:56.281;
#SAMPLELENGTH:15;
#BPMS:0=185;
#NOTES:
     dance-single:
     :
     Beginner:
     3:
     :
0000
0000
0000
0000
,
0000
0000
0000
0000
,
0000
0000
0000
0000
,
0000
0000
0000
0000
,
0000
0000
0000
0000
,
1000
0000
0000
0000
,
0001
0000
0000
0000
,
1000
0000
0010
0000
,
0100
0000
0000
0000
,
0002
0003
0000
0000
,
0010
0000
0010
0000
,
0002
0000
0000
0003
,
0000
0000
0000
0000
,
2000
0000
0000
3000
,
0000
0000
0000
0000
,
0001
0000
0001
0000
,
0010
0000
0010
0000
,
0001
0000
1000
0000
,
0001
0000
0000
0000
,
1000
0000
1000
0000
,
1000
0000
0000
0000
,
0001
0000
0001
0000
,
0001
0000
0000
0000
,
0020
0030
0000
0000
,
0200
0300
0000
0000
,
0020
0000
0000
0030
,
0000
0000
0000
0000
,
0001
0000
0001
0000
,
0001
0000
0000
0000
,
1000
0000
1000
0000
,
1000
0000
0000
0000
,
0020
0030
0000
0000
,
0200
0300
0000
0000
,
0020
0000
0000
0030
,
0000
0000
0000
0000
,
0001
0000
0010
0000
,
0001
0000
0000
0000
,
1000
0000
0010
0000
,
1000
0000
0000
0000
,
1001
0000
0000
0000
,
0110
0000
0000
0000
,
1001
0000
0000
0000
,
0000
0000
0000
0000
,
0000
0000
0000
0000
,
1000
0000
1000
0000
,
0010
0000
1000
0000
,
0100
0000
1000
0000
,
0010
0000
0000
0000
,
0001
0000
0001
0000
,
0010
0000
0010
0000
,
0200
0000
0300
0000
,
0000
0000
0000
0000
,
0001
0000
0001
0000
,
0010
0000
0001
0000
,
0100
0000
0001
0000
,
0010
0000
0000
0000
,
2000
3000
0000
0000
,
0002
0003
0000
0000
,
0001
0000
0001
0000
,
1000
0000
1000
0000
,
1001
0000
0000
0000
,
0001
0000
1000
0000
,
0002
0000
0000
0003
,
0000
0000
0000
0000
,
2000
0000
0000
3000
,
0000
0000
0000
0000
,
0020
0000
0000
0030
,
0000
0000
0000
0000
,
0200
0000
0000
0300
,
0000
0000
0000
0000
,
0001
0000
0001
0000
,
0001
0000
0000
0000
,
1000
0000
1000
0000
,
1000
0000
0000
0000
,
0010
0000
0010
0000
,
0100
0000
0100
0000
,
0010
0000
0010
0000
,
1001
0000
0000
0000
,
0000
0000
0000
0000
;
#NOTES:
     dance-single:
     :
     Easy:
     7:
     :
0000
0000
0000
0000
,
0000
0000
0000
0000
,
0000
0000
0000
0000
,
0000
0000
0000
0000
,
0000
0000
0000
0000
,
2000
0000
3000
0000
,
0002
0000
0003
0000
,
0020
0000
0230
0000
,
2300
0000
3000
0000
,
0010
0100
0010
0100
,
1001
0000
0110
0000
,
1000
0001
0100
0010
,
1000
0001
1000
0000
,
0001
0001
0010
0100
,
1000
0001
1000
1000
,
0001
0010
0100
0000
,
1000
0100
0010
0000
,
0001
1000
0001
1000
,
1001
0000
0000
0000
,
1000
0000
1000
0000
,
1000
0100
0001
0100
,
0001
0000
0001
0000
,
0001
0100
1000
0001
,
1000
0000
0001
0000
,
0100
0000
0010
0000
,
1000
0000
1001
0000
,
0000
0000
0000
0000
,
0001
0000
0001
0000
,
0001
0010
1000
0010
,
1000
0000
1000
0000
,
1000
0010
0001
1000
,
0001
0000
0010
0100
,
0010
0000
0100
0000
,
2000
0000
0000
3001
,
0020
0000
0000
0030
,
0100
0100
0000
0000
,
1000
0001
1000
0001
,
0010
0010
0000
0000
,
0001
1000
0001
1000
,
0200
0000
0000
0300
,
0020
0000
0000
0030
,
0001
0010
0100
1000
,
1001
0000
0000
0000
,
0000
0000
0001
0100
,
0010
0000
1000
0010
,
0100
0000
0001
1000
,
0100
0010
0001
0010
,
0100
0000
1000
0010
,
0100
0000
0001
1000
,
0001
0010
0100
1000
,
0100
0000
1001
0000
,
0000
0000
1000
0100
,
0010
0000
0001
0010
,
0100
0000
1000
0001
,
0100
0010
1000
0010
,
0100
0000
0000
0001
,
0100
0010
0100
0010
,
1000
0001
1000
0010
,
0200
0000
0320
0000
,
2030
0000
3002
0000
,
0013
0100
1000
0100
,
0110
0000
1001
0000
,
0220
0000
0000
0000
,
0000
0000
0000
0000
,
0330
0000
0000
0001
,
0100
1000
0100
0001
,
2000
0000
0000
0000
,
0000
0000
0000
0000
,
0000
0000
0000
0000
,
3000
0000
0000
0000
,
0001
1000
0100
0010
,
0001
1000
0001
0000
,
1000
1000
0010
0100
,
0001
1000
0001
0001
,
1000
0010
0100
0000
,
0001
0100
0010
0000
,
1000
0001
1000
0001
,
2002
0000
0000
0000
,
0000
0000
0000
0000
,
0000
0000
0000
0000
,
0000
0000
0000
0000
,
3003
0000
0000
0000
,
0000
0000
0000
0000
;
#NOTES:
     dance-single:
     :
     Medium:
     9:
     :
0000
0000
0000
0000
,
0000
0000
0000
0000
,
0000
0000
0000
0000
,
0000
0000
0000
0000
,
0000
0000
0001
1000
,
0001
0000
1000
0001
,
1000
0000
0001
0010
,
0100
1000
0001
1000
,
0010
0000
0000
0100
,
0001
1000
0100
0010
,
0001
1000
0001
0000
1000
0001
1000
0000
,
0001
0000
0010
0000
0100
1000
0001
0000
,
0010
0000
0100
0000
1000
0001
1000
0000
,
0010
0000
1000
0000
0001
0100
0010
0000
,
1000
0000
0001
0000
0100
0010
0100
0000
,
0001
1000
0100
0000
0010
0000
0001
0000
,
1000
0001
1000
0000
0001
0000
0100
0000
,
0010
0000
0100
0010
0000
0010
0100
0000
,
1001
0000
0000
0000
0000
0000
0000
1000
,
0100
0000
0000
1000
0100
0000
0000
1000
,
0100
0010
0001
1000
,
0001
0000
0000
0001
0100
0000
0000
0001
,
0100
0010
1000
0001
,
1000
0000
0100
0010
,
0001
0010
0100
1000
,
0100
0000
0000
0010
0002
0000
0000
0000
,
0000
0000
0000
0000
0003
0000
0000
1000
,
0100
0000
0000
0010
0001
0000
0000
1000
,
0100
0010
0001
0010
,
0100
0000
0000
1000
0001
0000
0000
0100
,
0010
0100
0001
1000
,
0001
0000
0001
0010
,
0100
1000
0001
1000
,
0200
0000
0000
0310
,
1001
0000
0000
0000
,
1100
0000
0110
0000
0000
0011
0000
1001
,
0000
0000
0000
0000
,
0101
0000
0110
0000
0000
1010
0000
1001
,
0000
0000
0001
0100
0000
0000
0000
0000
,
0010
0010
0010
0010
,
0100
0100
0100
0100
,
1001
0110
1001
0110
,
1001
0000
0000
0000
,
0000
0000
0000
0000
0010
0000
0001
1000
,
0100
0000
0010
0000
0001
0000
1000
0001
,
0100
0010
1000
0001
,
0010
0010
0100
0100
,
1000
0000
1000
0000
0001
1000
0001
0000
,
1000
0000
0100
0000
0010
0001
1000
0000
,
0010
0000
0100
0001
0010
0000
0100
0000
,
1000
0000
0000
0001
0100
0000
0000
0000
,
0000
0000
0000
0000
0010
0000
1000
0001
,
0100
0000
0010
0000
1000
0000
0001
1000
,
0100
0010
0001
1000
,
0010
0010
0100
0100
,
0001
0000
0001
0000
1000
0010
0200
0000
,
0302
0203
0320
2030
,
3002
0023
0230
2300
,
3100
0010
0001
0000
1000
0001
0100
0000
,
0010
1000
0100
0000
0110
0000
0000
0000
,
0011
0110
1100
1001
,
0110
0000
1001
0000
,
1000
0000
0100
0000
0010
0001
1000
0000
,
1001
0100
1001
0010
,
0001
0000
1000
0000
0100
0010
0002
0000
,
0023
0230
2300
3200
,
0310
0000
0001
0000
1000
0001
0100
0000
,
0010
0000
1000
0000
0001
0100
0010
0000
,
1010
0100
0101
0010
,
0110
1000
1001
0000
,
1000
0000
0010
0000
0100
0001
1000
0000
,
0010
0000
0100
0000
0001
1000
0001
0000
,
0010
0000
0001
0000
1000
0100
0010
0000
,
0001
0000
1000
0000
0100
0010
0100
0000
,
1000
0001
0100
0000
0010
0000
1000
0000
,
0001
1000
0001
0000
1000
0000
0100
0000
,
0010
0000
0100
0010
0000
0010
0100
0000
,
2002
0000
0000
0000
,
0000
0000
0000
0000
,
0000
0000
0000
0000
,
0000
0000
0000
0000
,
3003
0000
0000
0000
,
0000
0000
0000
0000
;
#NOTES:
     dance-single:
     :
     Hard:
     12:
     :
0000
0000
0000
0000
,
0000
0000
0000
0000
,
0000
0000
0000
0000
,
0000
0000
0000
0000
,
0000
0000
1000
0001
,
0100
0000
0001
1000
,
0010
0000
0010
1000
,
0001
0010
0100
1000
,
0200
0000
0300
0110
,
0001
0010
0001
0010
0100
1000
0100
0010
,
0001
1000
0001
0000
1000
0001
1000
0000
,
0001
1000
0010
0000
0100
0001
1000
0000
,
0010
1000
0001
0000
0010
0100
1000
0000
,
0001
1000
0010
0000
0100
0001
1000
0000
,
1100
0110
0011
1001
,
1000
0000
0000
1000
0100
0000
0000
0100
0010
0000
0000
0010
0001
0000
0000
0001
,
0100
0000
0000
0100
0010
0000
0000
0010
1000
0000
0000
1000
0001
0000
0000
0000
,
0011
0000
0010
0100
0000
0100
0010
0000
,
1001
0000
0000
0000
0000
0000
0000
1000
,
0100
0000
0000
0001
0100
0000
0000
1000
,
0100
0010
0001
1000
,
0001
0000
0000
0001
0100
0000
0000
1000
,
0100
0001
0010
0100
,
1000
0000
1000
0100
,
0010
0000
0001
1000
0001
0000
0100
0000
,
0010
0000
0000
1000
0002
0000
0000
0000
,
0000
0000
0000
0000
0003
0000
0000
0001
,
0010
0000
0100
1000
0001
0000
0100
0001
,
1000
0000
0000
1000
0010
0000
0000
0010
0100
0000
0000
0100
0001
0000
0000
0001
,
1000
0000
0100
0010
0001
0000
1000
0001
,
0100
0000
0000
0100
0010
0000
0000
0010
1000
0000
0000
1000
0001
0000
0000
0001
,
1000
0000
0100
0010
,
0011
0000
0100
1000
0100
0000
0010
0000
,
0002
0000
0000
1003
,
0020
0000
0000
0030
,
0110
0000
0110
0000
0000
0000
0000
1001
,
0000
1000
0100
0001
1000
0010
0001
0010
,
0110
0000
0100
1000
0000
1001
0000
1010
,
0000
0001
0010
1000
0001
0100
1000
0100
,
0010
0001
0010
0001
0010
0001
0010
0001
,
1000
0100
1000
0100
1000
0100
1000
0000
,
1100
0101
0011
1010
,
2002
0000
0000
0000
,
3003
0000
0001
1000
,
0100
0000
0010
0001
1000
0100
0010
0001
,
0100
0000
0010
1000
0001
0100
0010
1000
,
0010
0000
0000
0010
0100
0000
0000
0100
0001
0000
0000
0001
1000
0000
0000
1000
,
0001
0000
0010
0100
1000
0001
0100
0010
,
0100
0000
0001
0100
1000
0100
0001
0010
,
0100
0000
0010
0001
1000
0000
0010
0100
,
0002
0010
2003
0100
,
3002
0000
0000
0000
0000
0000
0000
0000
0000
0000
0000
0000
0000
0000
0000
0000
0000
0000
0000
0000
0000
0000
0000
0000
0000
0000
0000
0000
0000
0000
0000
0000
0000
0000
0000
0000
0000
0000
0000
0000
0000
0000
0000
0000
0000
0000
0000
0000
0100
0000
0000
0000
0000
0000
0000
0000
0000
0000
0000
0000
0000
0000
0000
0000
0000
0000
0000
0000
0000
0000
0000
0000
0000
0000
0000
0000
0000
0000
0000
0000
0000
0000
0000
0000
0000
0000
0000
0000
0000
0000
0000
0000
0000
0000
0000
0000
2003
0000
0000
0000
0000
0000
0000
0000
0000
0000
0000
0000
0000
0000
0000
0000
0000
0000
0000
0000
0000
0000
0000
0000
0000
0000
0000
0000
0000
0000
0000
0000
0000
0000
0000
0000
0000
0000
0000
0000
0000
0000
0000
0000
0000
0000
0000
0000
0010
0000
0000
0000
0000
0000
0000
0000
0000
0000
0000
0000
0000
0000
0000
0000
0000
0000
0000
0000
0000
0000
0000
0000
0000
0000
0000
0000
0000
0000
0000
0000
0000
0000
0000
0000
0000
0000
0000
0000
0000
0000
0000
0000
0000
0000
0000
3000
,
0001
0000
0010
0001
1000
0100
0010
0001
,
0100
0000
0010
1000
0001
0100
0010
1000
,
0010
0000
0000
0010
0100
0000
0000
0100
0001
0000
0000
0001
1000
0000
0000
1000
,
0002
0000
0000
1003
,
1000
0100
0010
0100
0001
0100
0010
0100
,
1000
0010
0100
0010
0001
0010
0100
0010
,
1000
0001
0100
0000
0010
1000
0001
0000
,
0010
0100
1000
0000
0100
0010
0001
0000
,
0011
0000
0010
0100
0010
0100
0010
0100
,
1000
0001
0000
0000
0001
1000
0000
0000
,
1000
0100
1000
0100
0010
0001
0010
0001
,
0100
0010
0100
0010
1000
0001
1000
0001
,
0010
0100
0010
0100
1000
0001
1000
0000
,
1100
0101
0011
1010
,
1001
0000
0001
0010
0100
1000
0001
1000
,
0001
0000
0100
0010
1000
0010
0100
0001
,
1000
0000
0100
0010
0001
1000
0100
0010
,
0001
0100
1000
0100
0001
0010
1000
0000
,
0110
0000
0010
0001
1000
0000
0001
0100
,
0010
0000
0000
0010
1000
0000
0000
1000
0001
0000
0000
0001
0100
0000
0000
0000
,
1001
0000
1000
0100
0010
0000
0001
1000
,
0100
0000
0000
0100
0010
0000
0000
0010
0001
0000
0000
0001
1000
0000
0000
0000
,
1001
0000
1000
0010
0100
0001
0010
0100
,
1000
0000
0010
0100
0001
1000
0100
0010
,
0001
0000
0010
0100
0000
0100
0010
0000
,
2002
0000
0000
0000
,
0000
0000
3003
0000
,
0001
0000
0100
0010
1000
0000
0100
0000
,
0010
0001
0010
0100
,
0000
1001
0000
0000
0000
0000
0000
0000
,
0000
0000
0000
0000
;
#NOTES:
     dance-double:
     :
     Easy:
     7:
     :
00000000
00000000
00000000
00000000
,
00000000
00000000
00000000
00000000
,
00000000
00000000
00000000
00000000
,
00000000
00000000
00000000
00000000
,
00000000
00000000
00000000
00000000
,
00000002
00000000
00000003
00000000
,
00000020
00000000
00000030
00000000
,
00002000
00000000
00023000
00000000
,
02030000
00000000
03000000
00000000
,
10000000
10000000
10000000
10000000
,
10010000
00000000
01100000
00000000
,
10000000
01000000
00010000
00001000
,
00010000
00001000
00000010
00000000
,
00000001
00000001
00000100
00000001
,
00000100
00001000
00010000
00001000
,
00010000
00100000
10000000
00000000
,
00010000
00100000
01000000
00000000
,
00010000
00001000
00010000
00001000
,
00011000
00000000
00000000
00000000
,
00001000
00000000
00001000
00000000
,
00001000
00000010
00000001
00000010
,
00001000
00000000
00001000
00000000
,
00001000
00010000
00100000
00010000
,
00001000
00000000
00010000
00000000
,
01000000
00000000
10000000
00000000
,
00010000
00000000
10010000
00000000
,
00000000
00000000
00000000
00000000
,
10000000
00000000
10000000
00000000
,
10000000
01000000
00010000
00001000
,
00010000
00000000
00001000
00000000
,
00001000
00000100
00000001
00000100
,
00001000
00000000
00010000
00000000
,
00001000
00000000
00000010
00000000
,
00000002
00000000
00000000
00001003
,
00000020
00000000
00000000
00000030
,
00000100
00000100
00000000
00000000
,
00001000
00010000
00001000
00010000
,
00100000
00100000
00000000
00000000
,
10000000
01000000
10000000
01000000
,
00020000
00000000
00000000
00030000
,
00002000
00000000
00000000
00003000
,
00000010
00000001
00000010
00000100
,
00001001
00000000
00000000
00000000
,
00000000
00000000
00000001
00000100
,
00001000
00000000
00010000
00001000
,
00000100
00000000
00001000
00010000
,
00001000
00100000
00010000
10000000
,
01000000
00000000
10000000
01000000
,
00010000
00000000
00001000
00010000
,
00001000
00000010
00000001
00000010
,
00000100
00000000
00001001
00000000
,
00000000
00000000
00000001
00000010
,
00001000
00000000
00010000
00001000
,
00000010
00000000
00001000
00010000
,
00001000
01000000
00010000
10000000
,
00100000
00000000
00000000
10000000
,
01000000
00010000
01000000
00010000
,
00001000
00010000
00001000
00000010
,
00000002
00000000
00000203
00000000
,
00002300
00000000
00023000
00000000
,
00031000
00010000
00100000
01000000
,
01100000
00000000
10010000
00000000
,
02200000
00000000
00000000
00000000
,
00000000
00000000
00000000
00000000
,
03300000
00000000
00000000
10000000
,
01000000
00010000
00001000
00000010
,
00000002
00000000
00000000
00000000
,
00000000
00000000
00000000
00000000
,
00000000
00000000
00000000
00000000
,
00000003
00000000
00000000
00000000
,
00000001
00000100
00001000
00010000
,
00001000
00010000
00100000
00000000
,
10000000
10000000
01000000
10000000
,
01000000
00010000
00001000
00010000
,
00001000
00000010
00000001
00000000
,
00001000
00000010
00000100
00000000
,
00001000
00010000
00001000
00010000
,
00022000
00000000
00000000
00000000
,
00000000
00000000
00000000
00000000
,
00000000
00000000
00000000
00000000
,
00000000
00000000
00000000
00000000
,
00033000
00000000
00000000
00000000
,
00000000
00000000
00000000
00000000
;
#NOTES:
     dance-double:
     :
     Medium:
     9:
     :
00000000
00000000
00000000
00000000
,
00000000
00000000
00000000
00000000
,
00000000
00000000
00000000
00000000
,
00000000
00000000
00000000
00000000
,
00000000
00000000
00010000
00001000
,
00010000
00000000
00001000
00010000
,
00001000
00000000
00010000
00100000
,
10000000
01000000
00010000
00001000
,
00000010
00000000
00000000
00000001
,
00000100
00001000
00000100
00001000
,
00010000
00001000
00010000
00000000
00001000
00010000
00001000
00000000
,
00010000
00000000
00100000
00000000
10000000
00010000
01000000
00000000
,
00100000
10000000
01000000
00010000
,
00001000
00000000
00010000
00000000
00001000
00000010
00000001
00000000
,
00001000
00000001
00000100
00000010
,
00001000
00000001
00000100
00000000
00000010
00000000
00000100
00000000
,
00001000
00010000
00001000
00000000
00010000
00000000
00100000
00000000
,
10000000
00000000
00100000
01000000
00000000
01000000
00100000
00000000
,
10010000
00000000
00000000
00000000
00000000
00000000
00000000
10000000
,
01000000
00000000
00000000
10000000
01000000
00000000
00000000
10000000
,
01000000
00010000
00001000
00000010
,
00000001
00000000
00000000
00000001
00000100
00000000
00000000
00000001
,
00000100
00001000
00010000
00100000
,
10000000
00000000
01000000
00100000
,
00010000
00100000
01000000
10000000
,
01000000
00000000
00000000
00100000
00020000
00000000
00000000
00000000
,
00000000
00000000
00000000
00000000
00030000
00000000
00000000
10000000
,
01000000
00000000
00000000
00100000
00010000
00000000
00000000
00001000
,
00000100
00000010
00000001
00000010
,
00000100
00000000
00000000
00001000
00000001
00000000
00000000
00000100
,
00000010
00000100
00001000
00010000
,
00001000
00000000
00010000
00100000
,
10000000
00010000
10000000
01000000
,
00200000
00000000
00000000
00310000
,
10010000
00000000
00000000
00000000
,
12000000
00000000
03100000
00000000
00000000
00110000
00000000
00011000
,
00000000
00000000
00000000
00000000
,
00000201
00000000
00000310
00000000
00000000
00001010
00000000
00011000
,
00000000
00000000
00001000
00010000
00000000
00000000
00000000
00000000
,
00100000
00100000
00100000
00100000
,
10000000
10000000
10000000
10000000
,
10010000
01100000
10010000
01100000
,
10010000
00000000
00000000
00000000
,
00000000
00000000
00000000
00000000
10000000
00000000
00010000
10000000
,
01000000
00000000
00010000
00000000
00001000
00000000
00010000
00001000
,
00000100
00000001
00001000
00000001
,
00000010
00000010
00001000
00001000
,
00010000
00000000
00010000
00000000
01000000
00100000
01000000
00000000
,
10000000
00000000
01000000
00000000
00010000
00001000
00010000
00000000
,
00001000
00000000
00000010
00000001
00000010
00000000
00000100
00000000
,
00001000
00000000
00000000
00000001
00000100
00000000
00000000
00000000
,
00000000
00000000
00000000
00000000
00000001
00000000
00001000
00000001
,
00000100
00000000
00001000
00000000
00010000
00000000
00001000
00010000
,
01000000
10000000
00010000
10000000
,
00100000
00100000
00010000
00010000
,
00001000
00000000
00001000
00000000
00000100
00000010
00000200
00000000
,
00000302
00000203
00002300
00023000
,
00230000
20300000
30020000
20030000
,
31000000
00100000
01000000
00000000
00010000
00001000
00010000
00000000
,
00000010
00000100
00000010
00000000
00001001
00000000
00000000
00000000
,
00000101
00000101
00001100
00001100
,
00011000
00000000
01100000
00000000
,
10000000
00000000
01000000
00000000
00010000
00001000
00010000
00000000
,
00001000
00000000
00000010
00000000
00000001
00001000
00000001
00000000
,
00000100
00000000
00001000
00000000
00010000
00001000
00020000
00000000
,
00032000
00023000
00230000
20300000
,
30010000
00000000
00100000
00000000
01000000
10000000
01000000
00000000
,
00010000
00000000
00001000
00000000
00000100
00000010
00000100
00000000
,
00000001
00000000
00001000
00000000
00000001
00000010
00000001
00000000
,
00000010
00001000
00010000
00001000
,
00010000
00000000
00100000
00000000
10000000
00010000
01000000
00000000
,
00100000
10000000
01000000
00010000
,
00001000
00000000
00010000
00000000
00001000
00000010
00000001
00000000
,
00001000
00000001
00000100
00000010
,
00001000
00000001
00000100
00000000
00000010
00000000
00000100
00000000
,
00001000
00010000
00001000
00000000
00010000
00000000
00100000
00000000
,
10000000
00000000
00100000
01000000
00000000
01000000
00100000
00000000
,
20020000
00000000
00000000
00000000
,
00000000
00000000
00000000
00000000
,
00000000
00000000
00000000
00000000
,
00000000
00000000
00000000
00000000
,
30030000
00000000
00000000
00000000
,
00000000
00000000
00000000
00000000
;
#NOTES:
     dance-double:
     :
     Hard:
     13:
     :
00000000
00000000
00000000
00000000
,
00000000
00000000
00000000
00000000
,
00000000
00000000
00000000
00000000
,
00000000
00000000
00000000
00000000
,
00000000
00000000
00000010
00010000
,
00001000
00000000
00100000
00001000
,
00010000
00000000
00001000
00000100
,
00000001
00000010
00001000
00010000
,
02000000
00000000
03000000
01100000
,
10000000
01000000
10000000
01000000
00010000
00001000
00010000
00000000
,
00001000
00000100
00000001
00000000
00000001
00000010
00001000
00000000
,
00010000
00001000
00100000
00000000
00010000
10000000
01000000
00000000
,
00100000
00001000
00010000
00000000
00001000
00000100
00000001
00000000
,
00001000
00000001
00000010
00000000
00001000
00010000
00001000
00000000
,
00101000
00110000
01100000
11000000
,
10000000
00000000
00000000
10000000
01000000
00000000
00000000
01000000
00010000
00000000
00000000
00010000
00001000
00000000
00000000
00000000
,
00000010
00000000
00000000
00000010
00000001
00000000
00000000
00000001
00001000
00000000
00000000
00001000
00000001
00000000
00000000
00000000
,
00000101
00000000
00000010
00001000
00000000
00010000
00001000
00000000
,
00011000
00000000
00000000
00000000
00000000
00000000
00000000
00100000
,
00010000
00000000
00000000
00000010
00001000
00000000
00000000
00100000
,
00010000
10000000
01000000
00010000
,
00001000
00000000
00000000
00000100
00001000
00000000
00000000
01000000
,
00010000
00001000
00000010
00000001
,
00000100
00000000
00001000
00010000
,
00100000
00000000
10000000
00010000
10000000
00000000
01000000
00000000
,
00010000
00000000
00000000
00001000
00020000
00000000
00000000
00000000
,
00000000
00000000
00000000
00000000
00030000
00000000
00000000
00001000
,
00000010
00000000
00000001
00001000
00000010
00000000
00000100
00000001
,
00000010
00000000
00000000
00000010
00001000
00000000
00000000
00001000
00010000
00000000
00000000
00010000
01000000
00000000
00000000
01000000
,
10000000
00000000
00100000
01000000
00010000
00000000
10000000
01000000
,
00010000
00000000
00000000
00010000
00001000
00000000
00000000
00001000
00000010
00000000
00000000
00000010
00000001
00000000
00000000
00000001
,
00001000
00000000
00000001
00000100
,
00001000
00000000
00010000
00001000
00010000
00000000
00100000
00000000
,
20000000
00000000
00000000
30010000
,
00200000
00000000
00000000
00300000
,
01100000
00000000
01100000
00000000
00000000
00000000
00000000
10010000
,
00000000
10000000
01000000
00010000
00001000
00000100
00000001
00000000
,
00000110
00000000
00000010
00000100
00000000
00000100
00000010
00001000
,
00000000
00000001
00000010
00001000
00010000
00100000
10000000
00000000
,
02000000
00000000
00000000
03000000
,
00020000
00000000
00000000
00000000
00000000
00000000
00030000
00001000
,
00010000
00000000
00100000
00010000
00001000
00000000
00000010
00002000
,
00020000
00000000
00000000
00000000
,
00033000
00000000
00000010
00010000
,
00001000
00000000
00010000
00001000
00000010
00000001
00001000
00000001
,
00000100
00000000
00001000
00010000
00100000
10000000
00010000
10000000
,
01000000
00000000
00000000
01000000
00010000
00000000
00000000
00010000
00001000
00000000
00000000
00001000
00000010
00000000
00000000
00000010
,
00000001
00000000
00001000
00000001
00000100
00000010
00010000
00001000
,
00100000
00000000
01000000
10000000
00010000
10000000
01000000
00010000
,
00001000
00000000
00000010
00000001
00000100
00000000
00000010
00001000
,
00020000
01000000
10000000
00100000
,
00032000
00000100
00000001
00000010
,
00013000
00000000
01000000
00100000
10000000
00010000
10000000
01000000
,
00010000
00000000
00001000
00000010
00000001
00001000
00000001
00000100
,
00001000
00000000
00000000
00001000
00010000
00000000
00000000
00010000
00100000
00000000
00000000
00100000
10000000
00000000
00000000
10000000
,
00010000
00000000
10000000
00000000
01000000
00100000
00010000
00000000
,
00002000
00000100
00000001
00000010
,
00023000
01000000
10000000
00100000
,
00031000
00000100
00000001
00000000
00000100
00000010
00001000
00000000
,
00010000
00001000
00100000
00000000
00010000
10000000
00100000
00000000
,
01100000
00000000
00010000
10000000
00010000
10000000
00010000
10000000
,
01000000
00100000
00000000
00000000
00100000
01000000
00000000
00000000
,
10000000
01000000
10000000
01000000
00010000
00001000
00010000
00001000
,
00000010
00000001
00000010
00000001
00000100
00001000
00000100
00001000
,
00010000
00001000
00010000
00001000
00100000
00010000
00100000
00000000
,
01100000
11000000
01010000
00011000
,
00001010
00000000
00000010
00000001
00000010
00001000
00010000
00001000
,
00010000
00000000
00100000
10000000
00100000
00010000
00001000
00010000
,
00001000
00000000
00000100
00000001
00000100
00001000
00010000
01000000
,
10000000
00010000
00100000
00001000
00100000
00010000
00001000
00000000
,
00000110
00000000
00000010
00000001
00001000
00000000
00000001
00000100
,
00001000
00000000
00000000
00001000
00010000
00000000
00000000
00010000
00100000
00000000
00000000
00100000
01000000
00000000
00000000
00000000
,
10010000
00000000
10000000
01000000
00100000
00000000
01000000
00010000
,
00001000
00000000
00000000
00001000
00010000
00000000
00000000
00010000
00001000
00000000
00000000
00001000
00000100
00000000
00000000
00000100
,
00000001
00000000
00001000
00000010
00000100
00000001
00000010
00001000
,
00010000
00000000
00100000
10000000
00010000
01000000
00100000
00010000
,
00001000
00000000
00000010
00001000
00000000
00100000
00001000
00000000
,
00022000
00000000
00000000
00000000
,
00000000
00000000
00033000
00000000
,
00001000
00000000
00000010
00001000
00010000
00000000
00100000
00000000
,
00010000
00001000
00000100
00001000
,
00010000
00001000
00000000
00000000
00000000
00000000
00000000
00000000
,
00000000
00000000
00000000
00000000
;
