
//----- song ID: koin -----//
#TITLE:恋のパズルマジック;
#ARTIST:ときめきアイドル project Rhythmixxx;
#TITLETRANSLIT:Koi no puzzle magic;
#ARTISTTRANSLIT:Tokimeki Idol project Rhythmixxx;
#BANNER:Koi no puzzle magic.png;
#BACKGROUND:Koi no puzzle magic-bg.png;
#CDTITLE:./CDTitles/DDR A.png;
#MUSIC:Koi no puzzle magic.ogg;
#SAMPLESTART:49.355;
#SAMPLELENGTH:15;
#BPMS:0=140;
#NOTES:
     dance-single:
     :
     Beginner:
     3:
     :
0000
0000
0000
0000
,
0000
0000
0000
0000
,
0000
0000
0000
0000
,
0000
0000
0000
0000
,
0000
0000
0000
0000
,
0001
0000
0000
0000
,
1000
0000
0000
0000
,
0010
0000
0000
0000
,
0100
0100
0100
0000
,
1000
1000
0000
0000
,
0001
0001
0000
0000
,
0010
0010
0010
0000
,
0001
0000
0010
0000
,
0001
0001
0000
0000
,
1000
1000
0000
0000
,
0010
0010
0010
0000
,
1000
0000
1000
0000
,
1000
0000
0001
0000
,
1000
1000
1000
0000
,
0001
0000
1000
0000
,
0001
0001
0001
0000
,
0000
1000
0100
0000
,
1000
1000
1000
0000
,
0001
0000
1000
0000
,
0001
0000
1000
0000
,
0002
0000
0003
0000
,
0200
0000
0300
0000
,
2000
0000
3000
0000
,
0200
0000
0300
0000
,
0001
0000
0001
0000
,
0010
0001
0100
0000
,
0100
0000
0100
0000
,
0010
0010
0010
0000
,
1000
0000
1000
0000
,
0010
1000
0100
0000
,
0100
0000
0100
0000
,
0010
0010
0010
0000
,
1000
1000
1000
0000
,
0001
0001
0001
0000
,
0010
0000
0010
0000
,
1000
1000
1000
0000
,
0000
0001
0001
0000
,
1000
1000
1000
0000
,
0010
0000
0010
0000
,
0001
0001
0001
0000
,
0001
0000
1000
0000
,
0001
0001
0001
0000
,
1000
0000
0001
0000
,
0010
0010
0010
0000
,
0000
0010
0010
0000
,
1000
0000
0001
0000
,
1000
0000
0001
0000
,
0010
0010
0010
0000
,
1001
0000
0000
0000
,
0001
0000
0000
0000
,
1000
0000
0000
0000
,
0010
0000
0000
0000
,
0100
0100
0100
0110
,
0000
0000
0000
0000
;
#NOTES:
     dance-single:
     :
     Easy:
     6:
     :
0000
0000
0000
0000
,
0000
0000
0000
0000
,
0000
0000
0000
0000
,
0000
0000
0000
0000
,
0000
0000
0000
0000
,
0020
0000
0000
0030
,
2000
0000
0000
3000
,
0020
0000
0000
0030
,
0002
0000
0000
0013
,
1000
1000
0001
0001
,
1000
0100
1000
0000
,
0001
0001
1000
1000
,
0001
0010
0001
0000
,
0001
0001
1000
1000
,
0001
0100
0001
0000
,
1000
1000
0001
0001
,
1000
0010
1000
0000
,
1001
0110
0110
0000
,
1000
0100
0001
0000
,
0001
0100
1000
0000
,
0001
1000
0100
0000
,
0000
1001
0110
0110
,
1000
0010
0001
0000
,
1000
0100
0001
0000
,
1000
0001
0100
0000
,
0002
0000
0100
0003
,
0200
0000
0010
0300
,
2000
0000
0100
3000
,
0200
0000
0000
0310
,
1000
1000
0001
0001
,
0010
0001
0100
1000
,
0100
0000
0001
0000
,
0110
1001
0110
0000
,
0001
0001
1000
1000
,
0010
1000
0100
0001
,
0100
0000
1000
0000
,
0010
1000
0100
0000
,
1000
1000
0001
0001
,
0100
0001
0010
1000
,
0010
0000
0001
0000
,
0110
1001
0110
0000
,
0000
0001
1000
1000
,
0100
0110
0010
1001
,
0010
0000
0001
0000
,
0100
1000
0100
0000
,
0001
0100
1000
0100
,
0001
0001
1000
0000
,
1000
0100
0001
0100
,
0010
0010
0100
0000
,
0110
0000
0001
0100
,
1000
0100
0001
0000
,
1000
0100
0001
0100
,
0010
0001
0100
1000
,
1001
0000
0000
0000
,
0020
0000
0000
0030
,
0002
0000
0000
0003
,
0020
0000
0000
0030
,
2000
0000
0000
3010
,
0000
0000
0000
0000
;
#NOTES:
     dance-single:
     :
     Medium:
     9:
     :
0000
0000
0000
0000
,
0000
0000
0000
0000
,
0000
0000
0000
0000
,
0000
0000
0000
0000
,
0000
0000
0000
0000
,
0001
0000
1000
0000
1000
0010
0100
0000
,
0001
0000
1000
0000
1000
0001
1000
0000
,
0010
0001
0010
0000
1000
0100
1000
0000
,
0010
1000
0001
0000
1000
0000
1001
0000
,
1000
0000
0001
0000
0001
1000
0100
0000
,
1000
0100
1000
0000
0001
0000
0100
0000
,
1000
0100
0001
0010
,
0001
0010
0001
0000
1000
0000
0001
0000
,
0001
0000
1000
0000
1000
0001
0100
0000
,
0001
0100
0001
0000
1000
0000
0100
0000
,
0010
0001
0010
1000
,
0010
0001
1000
0000
0001
0000
0000
0000
,
1001
0110
0110
0000
,
0001
0000
0100
0000
1000
0100
0001
0000
,
0010
0001
0100
0001
,
0001
1000
0100
1000
0000
0000
0001
0000
,
1001
0110
1001
0110
,
1000
0000
0100
0010
0000
0000
0001
0000
,
1000
0100
0001
0100
,
1000
0001
0100
0001
0100
0000
0100
0000
,
0001
0000
0000
0010
0000
0000
1000
0000
,
0010
0000
0000
0001
0000
0000
0100
0000
,
1000
0000
0000
0100
0000
0000
0001
0000
,
1000
0000
0001
0100
0000
0000
1001
0000
,
1000
0001
0100
1010
,
1000
0000
0010
0000
1000
0100
1000
0000
,
0001
0000
1000
0000
0010
0000
0001
0010
,
2000
0100
3001
1100
,
0001
1000
0010
0011
,
0001
0000
0010
0000
0001
0100
0001
0000
,
1000
0001
1000
0001
,
0100
0000
0000
0100
0000
0000
0100
0000
0000
0100
0000
0000
0100
0000
0000
0000
,
0001
1000
0100
0011
,
0001
0000
0010
0000
0001
0100
0001
0000
,
1000
0000
0001
0000
0010
0000
1000
0010
,
0002
0100
1003
0101
,
1000
0001
0010
1010
,
1000
0000
0010
1000
0000
0000
1001
0000
,
0001
0100
1000
0100
,
0001
0000
0000
0100
0000
0000
0100
0000
0000
0100
0000
0000
0010
0000
0000
0000
,
1000
0100
1000
0001
,
0100
0000
0000
0001
0000
0000
1000
0000
0000
0000
0000
0000
1000
0000
0000
0000
,
0010
0001
0010
1000
,
1000
0000
0000
1000
0000
0000
1000
0000
0000
0000
0000
0000
1001
0000
0000
0000
,
0001
0100
0001
1000
,
0100
0000
0000
1000
0000
0000
0001
0000
0000
0000
0000
0000
0001
0000
0000
0000
,
0010
1000
0010
0001
,
0100
0000
0000
0100
0000
0000
0100
0000
0000
0100
0000
0000
0010
0000
0000
0000
,
0000
0000
0000
0000
,
1000
0000
0001
0000
0001
0010
0100
0000
,
1000
0000
0001
0000
0001
1000
0001
0000
,
0010
1000
0010
0000
0001
0100
0001
0000
,
0010
0001
1000
0000
0001
0000
2002
0000
,
0000
0000
0000
3003
,
0000
0000
0000
0000
;
#NOTES:
     dance-single:
     :
     Hard:
     11:
     :
0000
0000
0000
0000
,
0000
0000
0000
0000
,
0000
0000
0000
0000
,
0000
0000
0000
0000
,
0000
0000
0000
0000
,
0001
0000
1000
0100
1000
0010
0100
0000
,
0001
0000
1000
0100
1000
0001
1000
0000
,
0010
0000
0001
0010
0000
1000
0100
1000
,
0010
1000
0001
0010
0001
0000
1001
0000
,
1000
0000
0001
0010
0001
1000
0100
1000
,
0000
0100
1000
0001
0000
0010
0001
0000
,
0010
0000
1000
0010
0000
0001
0000
0010
,
0000
0001
1000
0100
1000
0000
0101
0000
,
1000
0000
0001
0010
0001
0100
0010
0100
,
0000
1000
0001
1000
0000
0001
1000
0000
,
0011
0000
1000
0100
0000
1000
0000
0001
,
0000
0010
0001
0010
0000
0000
0110
0000
,
0001
0010
0001
0100
1000
0100
0010
0001
,
0010
1000
0100
0010
0000
0001
1000
0001
,
0010
0000
0001
0100
0000
0100
0000
0001
,
0000
1000
0100
1000
0000
0000
0011
0000
,
1001
0000
0100
0010
1000
0100
1000
0010
,
2000
0000
0100
0100
3000
0001
0010
0001
,
1000
0100
1000
0001
0000
0010
0000
0001
,
0000
0100
1000
0100
0001
0100
0001
0000
,
1000
0100
1000
0001
0010
0001
0010
0000
,
0001
0100
0001
1000
0010
1000
0010
0000
,
1001
0000
0000
0110
0000
0000
1001
0000
,
1000
0000
0001
0100
0000
0000
1001
0000
,
1000
0000
0001
0010
0000
0001
1000
0100
,
1000
0000
0010
1000
0001
0100
0001
0000
,
1000
0000
0001
0001
0000
0010
0001
0010
,
0001
0000
0000
1000
0000
0000
0100
0000
0000
0000
0000
0000
0101
0000
0000
0000
,
0001
0000
0100
0010
0000
1000
0001
0100
,
0001
0000
0010
0001
1000
0100
1000
0000
,
0001
0000
0000
1000
0000
0000
0100
0000
0000
0000
0010
0000
0001
0000
0010
0000
,
1000
0000
0000
1000
0000
0000
0010
0000
0000
0001
0000
0000
1100
0000
0000
0000
,
0001
0000
1000
0010
0000
1000
0001
0100
,
0001
0000
0010
0001
1000
0100
1000
0000
,
0001
0000
1000
1000
0000
0010
1000
0010
,
1000
0000
0000
0001
0000
0000
0100
0000
0000
0010
0000
0000
0110
0000
0000
0000
,
1000
0000
0110
0000
0000
0001
1000
0100
,
1000
0000
0000
0000
0010
0000
0110
0000
0000
0000
0100
0010
0100
0000
0000
0000
,
1000
0000
0000
0001
0000
0000
0100
0000
0000
0000
0010
0000
1000
0000
0010
0000
,
0001
0000
0000
0001
0000
0000
0010
0000
0000
1000
0000
0000
0101
0000
0000
0000
,
1000
0000
0001
0010
0001
0100
0001
1000
,
0100
0000
0000
1000
0000
0000
0001
0000
0000
0000
0000
0000
1100
0000
0000
0000
,
0101
0000
0001
1000
0100
1000
0001
0010
,
1001
0000
0000
1100
0000
0000
0011
0000
0000
0000
0000
0000
1001
0000
0000
0000
,
0011
0000
1000
0000
1000
0100
1000
0001
,
0100
0000
0000
0001
0000
0000
1000
0000
0000
0000
0000
0000
0101
0000
0000
0000
,
1100
0000
1000
0001
0100
0001
1000
0010
,
1001
0000
0000
0101
0000
0000
1010
0000
0000
0101
0000
0000
1001
0000
0000
0000
,
1000
0000
0000
0000
0000
0000
0001
0000
0000
0010
0000
0000
0001
0000
1000
0000
0001
0000
0100
0000
0000
0000
0000
0000
,
1001
0000
0001
0100
0001
0010
0100
0000
,
1000
0000
0001
0100
0001
1000
0001
0000
,
0010
0000
1000
0010
0000
0001
0100
0001
,
0010
0001
1000
0010
1000
0000
2002
0000
,
0000
0000
0000
3003
,
0000
0000
0000
0000
;
#NOTES:
     dance-double:
     :
     Easy:
     6:
     :
00000000
00000000
00000000
00000000
,
00000000
00000000
00000000
00000000
,
00000000
00000000
00000000
00000000
,
00000000
00000000
00000000
00000000
,
00000000
00000000
00000000
00000000
,
00000002
00000000
00000000
00000003
,
00002000
00000000
00000000
00003000
,
00020000
00000000
00000000
00030000
,
20000000
00000000
00000000
30100000
,
10000000
10000000
00010000
00010000
,
10000000
01000000
00010000
00000000
,
00001000
00001000
00000100
00000100
,
00000001
00000010
00000001
00000000
,
00000001
00000100
00001000
00010000
,
00100000
01000000
00010000
00000000
,
10000000
10000000
00010000
00010000
,
10000000
00100000
00010000
00000000
,
00011000
00100000
00011000
00000000
,
00010000
00001000
00000100
00000000
,
00000001
00000100
00001000
00000000
,
00010000
00100000
10000000
00000000
,
00000000
10010000
01100000
01100000
,
10000000
00100000
00010000
00000000
,
00001000
00000100
00000001
00000000
,
00001000
00000001
00000100
00000000
,
00000002
00000000
00000103
00000000
,
00002000
00000000
00013000
00000000
,
00200000
00000000
10300000
00000000
,
02000000
00000000
00000000
03100000
,
10000000
01000000
00010000
00001000
,
00000010
00000001
00000100
00001000
,
00000100
00000000
00000001
00000000
,
00000011
00001001
00001100
00000000
,
00010000
00010000
00001000
00010000
,
00100000
10000000
01000000
00010000
,
01000000
00000000
10000000
00000000
,
00100000
00010000
00001000
00000010
,
00000001
00000100
00001000
00010000
,
00100000
10000000
01000000
00010000
,
01000000
00000000
10000000
00000000
,
10100000
10010000
01010000
00000000
,
00000000
00001000
00010000
00001000
,
00000010
00000000
00000001
00000100
00000000
00000000
00001000
00000000
,
00000100
00000000
00000001
00000000
,
00000010
00001000
00010000
00000000
,
00010000
01000000
10000000
01000000
,
00010000
00010000
01000000
00000000
,
10000000
01000000
00010000
00001000
,
00000010
00000010
00000100
00000000
,
00000000
00000100
00000001
00000100
,
00001000
00001000
00000100
00000010
,
00000001
00000100
00001000
00010000
,
00100000
00100000
01000000
00000000
,
10010000
00000000
00000000
00000000
,
00200000
00000000
00000000
00300000
,
00020000
00000000
00000000
00030000
,
00002000
00000000
00000000
00003000
,
00000200
00000000
00000000
00000310
,
00000000
00000000
00000000
00000000
;
#NOTES:
     dance-double:
     :
     Medium:
     9:
     :
00000000
00000000
00000000
00000000
,
00000000
00000000
00000000
00000000
,
00000000
00000000
00000000
00000000
,
00000000
00000000
00000000
00000000
,
00000000
00000000
00000000
00000000
,
00000001
00000000
00001000
00000000
00001000
00000010
00000100
00000000
,
00000001
00000000
00001000
00000000
00000001
00000100
00001000
00000000
,
00100000
00010000
00100000
00000000
00010000
01000000
00010000
00000000
,
00100000
00010000
10000000
00000000
10000000
00000000
10010000
00000000
,
10000000
00000000
01000000
00000000
00010000
00001000
00000100
00000000
,
00000010
00000100
00000001
00000000
00000001
00000000
00000100
00000000
,
00001000
00010000
00001000
00100000
,
00010000
00100000
00010000
00000000
10000000
00000000
01000000
00000000
,
00010000
00000000
00001000
00000000
00001000
00010000
01000000
00000000
,
00100000
01000000
10000000
00000000
10000000
00000000
01000000
00000000
,
00010000
00001000
00010000
00000010
,
00001000
00000010
00001000
00000000
00000001
00000000
00000000
00000000
,
00001000
00000110
00000110
00001000
,
00010000
00000000
00100000
00000000
10000000
01000000
00010000
00000000
,
01000000
10000000
01000000
00010000
,
00001000
00010000
00001000
00010000
00000000
00000000
00001000
00000000
,
00010000
01100000
01100000
00010000
,
00001000
00000000
00000010
00000000
00000001
00000100
00001000
00000000
,
00000100
00000001
00000100
00001000
,
00010000
00001000
00010000
00001000
00010000
00100000
10000000
00000000
,
00010000
00000000
00000000
00100000
00000000
00000000
10000000
00000000
,
00100000
00000000
00000000
00001000
00000000
00000000
00010000
00000000
,
00001000
00000000
00000000
00000100
00000000
00000000
00000001
00000000
,
00001000
00000000
00000001
00000100
00000000
00000000
00000101
00000000
,
00001000
00010000
00100000
10100000
,
10000000
00000000
00100000
00000000
10000000
01000000
10000000
00000000
,
00010000
00000000
10000000
00000000
00100000
00000000
00010000
00001000
,
00020000
00001000
01030000
00010000
,
00010000
00001000
00000010
00000011
,
00000001
00000000
00000010
00000000
00000001
00000100
00000001
00000000
,
00001000
00000000
00000001
00000000
00000010
00000000
00001000
00010000
,
00001000
00000000
00000000
00001000
00000000
00000000
00001000
00000000
00000000
00001000
00000000
00000000
00011000
00000000
00000000
00000000
,
00010000
00001000
00000010
00000011
,
00000001
00000000
00000010
00000000
00000001
00000100
00000001
00000000
,
00001000
00000000
00000001
00000000
00000010
00000000
00001000
00010000
,
00001000
00000000
00000000
00010000
00000000
00000000
00001000
00000000
00000000
00010000
00000000
00000000
00001000
00000000
00000000
00000000
,
00000000
00010000
00100000
10100000
,
10000000
00000000
01000000
10000000
00000000
01000000
10000000
00000000
,
00010000
00000000
10000000
00000000
00100000
00000000
00010000
00001000
,
00010000
00000000
00000000
00001000
00000000
00000000
00020000
00000000
00000000
00000000
00000000
00000000
00031000
00000000
00000000
00000000
,
00001000
00000100
00000010
00001000
,
00000100
00000000
00000001
00000100
00000000
00000000
00001000
00000000
,
00000010
00000100
00001000
00010000
,
00100000
00000000
00000000
00010000
00000000
00000000
00001000
00000000
00000000
00000000
00000000
00000000
00011000
00000000
00000000
00000000
,
00010000
01000000
00100000
00010000
,
01000000
00000000
10000000
01000000
00000000
00000000
00010000
00000000
,
00100000
01000000
00010000
00001000
,
00000010
00000000
00000000
00000001
00000000
00000000
00000001
00000000
00000000
00000000
00000000
00000000
00001001
00000000
00000000
00000000
,
00000001
00000100
00001000
00010000
,
00100000
00000000
10000000
00000000
00010000
00100000
01000000
00000000
,
10000000
00000000
00010000
00000000
10000000
01000000
00010000
00000000
,
00000010
00001000
00000010
00000000
00001000
00000100
00001000
00000000
,
00000010
00001000
00000001
00000000
00000001
00000000
00002002
00000000
,
00000000
00000000
00000000
00003003
,
00000000
00000000
00000000
00000000
;
#NOTES:
     dance-double:
     :
     Hard:
     11:
     :
00000000
00000000
00000000
00000000
,
00000000
00000000
00000000
00000000
,
00000000
00000000
00000000
00000000
,
00000000
00000000
00000000
00000000
,
00000000
00000000
00000000
00000000
,
00000001
00000000
00001000
00000100
00001000
00000010
00000100
00000000
,
00000001
00000000
00000100
00001000
00010000
00001000
00010000
00000000
,
00100000
00000000
00010000
00100000
00000000
10000000
01000000
10000000
,
00100000
10000000
00010000
00100000
00010000
00000000
10010000
00000000
,
10000000
00000000
01000000
00100000
01000000
00010000
00001000
00000010
,
00000000
00000100
00001000
00000001
00000000
00000010
00000001
00000000
,
00000010
00000000
00001000
00000010
00000000
00000001
00000000
00000100
,
00000000
00001000
00010000
00100000
10000000
00000000
01010000
00000000
,
10000000
00000000
01000000
00100000
00010000
01000000
00100000
00010000
,
00001000
00010000
00001000
00010000
00000000
00000100
00001000
00000000
,
00000001
00000000
00001000
00000100
00000000
00010000
00000000
00001000
,
00000000
00010000
00100000
00010000
00000000
00000000
01100000
00000000
,
00020000
01000000
10000000
00100000
,
00032000
00000000
00000000
00000000
00000000
00000000
00000000
00000000
00000000
00000000
00000000
00000000
00000000
00000000
00000000
00000000
00000000
00000000
00000000
00000000
00000000
00000000
00000000
00000000
00000000
00000000
00000000
00000000
00000000
00000000
00000000
00000000
00000000
00000000
00000000
00000000
00000000
00000000
00000000
00000000
00000000
00000000
00000000
00000000
00000000
00000000
00000000
00000000
00000100
00000000
00000000
00000000
00000000
00000000
00000000
00000000
00000000
00000000
00000000
00000000
00000000
00000000
00000000
00000000
00000000
00000000
00000000
00000000
00000000
00000000
00000000
00000000
00000000
00000000
00000000
00000000
00000000
00000000
00000000
00000000
00000000
00000000
00000000
00000000
00000000
00000000
00000000
00000000
00000000
00000000
00000000
00000000
00000000
00000000
00000000
00000000
00000001
00000000
00000000
00000000
00000000
00000000
00000000
00000000
00000000
00000000
00000000
00000000
00000000
00000000
00000000
00000000
00000000
00000000
00000000
00000000
00000000
00000000
00000000
00000000
00000000
00000000
00000000
00000000
00000000
00000000
00000000
00000000
00000000
00000000
00000000
00000000
00000000
00000000
00000000
00000000
00000000
00000000
00000000
00000000
00000000
00000000
00000000
00000000
00000010
00000000
00000000
00000000
00000000
00000000
00000000
00000000
00000000
00000000
00000000
00000000
00000000
00000000
00000000
00000000
00000000
00000000
00000000
00000000
00000000
00000000
00000000
00000000
00000000
00000000
00000000
00000000
00000000
00000000
00000000
00000000
00000000
00000000
00000000
00000000
00000000
00000000
00000000
00000000
00000000
00000000
00000000
00000000
00000000
00000000
00000000
00003000
,
00020000
01000000
10000000
00100000
,
00032000
00000100
00000001
00003010
,
00000000
00002100
00000001
00000010
,
00023000
00000000
00000000
00000000
00000000
00000000
00000000
00000000
00000000
00000000
00000000
00000000
00000000
00000000
00000000
00000000
00000000
00000000
00000000
00000000
00000000
00000000
00000000
00000000
00000000
00000000
00000000
00000000
00000000
00000000
00000000
00000000
00000000
00000000
00000000
00000000
00000000
00000000
00000000
00000000
00000000
00000000
00000000
00000000
00000000
00000000
00000000
00000000
01000000
00000000
00000000
00000000
00000000
00000000
00000000
00000000
00000000
00000000
00000000
00000000
00000000
00000000
00000000
00000000
00000000
00000000
00000000
00000000
00000000
00000000
00000000
00000000
00000000
00000000
00000000
00000000
00000000
00000000
00000000
00000000
00000000
00000000
00000000
00000000
00000000
00000000
00000000
00000000
00000000
00000000
00000000
00000000
00000000
00000000
00000000
00000000
10000000
00000000
00000000
00000000
00000000
00000000
00000000
00000000
00000000
00000000
00000000
00000000
00000000
00000000
00000000
00000000
00000000
00000000
00000000
00000000
00000000
00000000
00000000
00000000
00000000
00000000
00000000
00000000
00000000
00000000
00000000
00000000
00000000
00000000
00000000
00000000
00000000
00000000
00000000
00000000
00000000
00000000
00000000
00000000
00000000
00000000
00000000
00000000
00100000
00000000
00000000
00000000
00000000
00000000
00000000
00000000
00000000
00000000
00000000
00000000
00000000
00000000
00000000
00000000
00000000
00000000
00000000
00000000
00000000
00000000
00000000
00000000
00000000
00000000
00000000
00000000
00000000
00000000
00000000
00000000
00000000
00000000
00000000
00000000
00000000
00000000
00000000
00000000
00000000
00000000
00000000
00000000
00000000
00000000
00000000
00030000
,
00002000
00000100
00000001
00000010
,
00023000
01000000
10000000
00130000
,
10000000
01000000
10000000
00010000
00100000
00010000
00100000
00000000
,
00001000
00010000
00001000
00010000
00000010
00010000
00000010
00000000
,
00000011
00000000
00000000
00000110
00000000
00000000
00001100
00000000
,
00011000
00000000
00010000
01000000
00000000
00000000
10010000
00000000
,
10000000
00000000
00010000
00100000
00001000
00010000
00001000
00000100
,
00000010
00000000
00010000
00001000
00010000
00001000
00000100
00000000
,
00000001
00000000
00000100
00001000
00000000
00100000
00010000
00100000
,
00001000
00000000
00000000
00010000
00000000
00000000
00000100
00000000
00000000
00000000
00000000
00000000
00000010
00000000
00000000
00000000
,
00000001
00000000
00001000
00000010
00010000
00001000
00010000
01000000
,
00100000
00000000
00001000
00010000
00001000
00010000
01000000
00000000
,
10000000
00000000
01000000
00010000
00000000
00000010
00001000
00000010
,
00001000
00000000
00000000
00000001
00000000
00000000
00000100
00000000
00000000
00001000
00000000
00000000
00000110
00000000
00000000
00000000
,
00000001
00000000
00001000
00000010
00010000
00001000
00010000
01000000
,
00100000
00000000
00001000
00010000
00001000
00010000
01000000
00000000
,
10000000
00000000
01000000
00010000
00000000
00000010
00001000
00000010
,
00010000
00000000
00000000
00001000
00000000
00000000
01000000
00000000
00000000
00100000
00000000
00000000
01000000
00000000
00000000
00000000
,
00000000
00000000
00010000
00100000
00001000
00010000
00001000
00000100
,
00000010
00000000
00000000
00000000
00010000
00000000
00001000
00000000
00000000
00000000
00010000
00001000
00010000
00000000
00000000
00000000
,
00001000
00000000
00000100
00001000
00000000
00100000
00010000
00100000
,
00010000
00000000
00000000
10000000
00000000
00000000
01000000
00000000
00000000
00010000
00000000
00000000
00001000
00000000
00000000
00000000
,
00010000
00000000
00000100
00000010
00000001
00000100
00000001
00001000
,
00000100
00000000
00000000
00001000
00000000
00000000
00000001
00000000
00000000
00000000
00000000
00000000
00000101
00000000
00000000
00000000
,
00000110
00000000
00001000
00010000
00100000
10000000
00010000
00100000
,
10010000
00000000
00000000
11000000
00000000
00000000
00110000
00000000
00000000
00000000
00000000
00000000
00011000
00000000
00000000
00000000
,
00001000
00000000
01000000
00100000
10000000
01000000
10000000
00010000
,
01000000
00000000
00000000
00010000
00000000
00000000
10000000
00000000
00000000
00000000
00000000
00000000
11000000
00000000
00000000
00000000
,
01100000
00000000
00010000
00001000
00000010
00000001
00001000
00000010
,
00001001
00000000
00000000
00000101
00000000
00000000
00001010
00000000
00000000
00011000
00000000
00000000
00101000
00000000
00000000
00000000
,
00010000
00000000
00000000
00000000
00000000
00000000
10000000
00000000
00000000
00100000
00000000
00000000
01000000
00000000
00001000
00000000
01000000
00000000
00010000
00000000
00000000
00000000
00000000
00000000
,
10000000
00000000
00010000
01000000
00010000
00100000
01000000
00000000
,
10000000
00000000
01000000
00010000
00001000
00010000
00001000
00000000
,
00000010
00000000
00001000
00000010
00000000
00000001
00000100
00000001
,
00000010
00000001
00001000
00000010
00001000
00000000
00002002
00000000
,
00000000
00000000
00000000
00003003
,
00000000
00000000
00000000
00000000
;
