
//----- song ID: jewe -----//
#TITLE:Jewelry days;
#ARTIST:ときめきアイドル project;
#ARTISTTRANSLIT:Tokimeki Idol project;
#BANNER:Jewelry days.png;
#BACKGROUND:Jewelry days-bg.png;
#CDTITLE:./CDTITLES/DDR A.png;
#MUSIC:Jewelry days.ogg;
#SAMPLESTART:60.838;
#SAMPLELENGTH:15;
#BPMS:0=179;
#NOTES:
     dance-single:
     :
     Beginner:
     3:
     :
0000
0000
0000
0000
,
0000
0000
0000
0000
,
0000
0000
0000
0000
,
0000
0000
0000
0000
,
0000
0000
0000
0000
,
0000
0000
0000
0000
,
0000
0000
0000
0000
,
0000
0000
0000
0000
,
0000
0000
0000
0000
,
0000
0000
0000
0000
,
1000
0000
0000
0000
,
0001
0000
0100
0000
,
0001
0000
1000
0000
,
0001
0000
0000
0000
,
0001
0000
0001
0000
,
1000
0000
1000
0000
,
0001
0001
0000
0000
,
1000
1000
0000
0000
,
0001
0000
0000
0000
,
1000
0000
0000
0000
,
0010
0000
0000
0000
,
0100
0000
0000
0000
,
0001
0000
0000
0000
,
0010
0001
0001
0000
,
1000
0000
0000
0000
,
0001
0000
0000
0000
,
1000
0000
1000
0000
,
0001
0000
0001
0000
,
2000
0000
0000
3000
,
0002
0000
0000
0003
,
0001
0000
0001
0000
,
1000
0000
1000
0000
,
0002
0000
2003
0000
,
3002
0000
2003
0000
,
3001
1000
1000
0000
,
0001
0000
1000
0000
,
0001
0000
0100
0000
,
0020
0000
0000
0030
,
0010
0000
0010
0000
,
1000
0000
0000
0000
,
0001
0000
0010
0020
,
0000
0030
0000
0000
,
1000
1000
0000
0000
,
0001
0001
0000
0000
,
0010
0000
0000
0000
,
0010
0010
0000
0000
,
1000
0000
0001
0000
,
1000
0000
0001
0000
,
0010
0001
0001
0000
,
0010
0000
0000
0000
,
1000
0000
0001
0000
,
1000
0000
0001
0000
,
1000
0000
1000
0000
,
0001
0000
0000
0000
,
0001
0000
1000
0000
,
0001
0000
1000
0000
,
0010
1000
1000
0000
,
0010
0000
0000
0000
,
0001
0000
1000
0000
,
0001
0000
1000
0000
,
0001
0000
0001
0000
,
1000
0000
1000
0000
,
1000
0000
0001
0000
,
1000
0000
0001
0000
,
1000
0000
1000
0000
,
0001
0000
0000
0000
,
1000
0000
1000
0000
,
0001
0000
0001
0000
,
0020
0000
0030
0000
,
0200
0000
0300
0000
,
2000
0000
0000
3000
,
0000
0000
0000
0000
,
0002
0000
0000
0003
,
0000
0010
0010
0010
,
0020
0000
0000
0000
,
0000
0000
0000
0030
,
0000
0000
0000
0000
;
#NOTES:
     dance-single:
     :
     Easy:
     6:
     :
0000
0000
0000
0000
,
0000
0000
0000
0000
,
0000
0000
0000
0000
,
0000
0000
0000
0000
,
0000
0000
0000
0000
,
0010
0000
0000
0000
,
1000
0000
0001
0000
,
0200
0000
0000
0300
,
0020
0000
0000
0030
,
0000
0000
0000
0000
,
2000
0000
0000
0000
,
3002
0000
0203
0000
,
0302
0000
1003
0001
,
0010
0000
0000
0000
,
0001
0100
0100
0000
,
1000
0100
0100
0000
,
0001
0000
1000
0000
,
0100
0000
0010
0000
,
0001
0100
1000
0000
,
1000
0100
0001
0000
,
1000
0001
1000
0001
,
1000
0001
0001
0001
,
0001
1000
0010
0000
,
1000
0100
0001
0100
,
1000
0000
0001
0000
,
0001
0100
1000
0100
,
0010
0000
1000
0000
,
1000
0000
0001
0000
,
1000
1000
0001
0001
,
0010
0001
1000
1000
,
0001
0001
0001
0000
,
1000
1000
1000
0000
,
0001
0010
0100
1000
,
0001
0000
1000
0000
,
0100
1000
0001
1000
,
0001
1000
0001
0010
,
0001
0000
0100
0000
,
0001
0000
1001
0000
,
1000
0010
0001
0010
,
1000
0010
0001
0010
,
1000
0001
1000
0220
,
0000
0330
0100
0010
,
1000
0001
1000
0001
,
1000
0002
1000
0103
,
0020
0000
0130
0100
,
0001
1000
0000
0000
,
0001
0100
1000
0100
,
0001
0010
0100
1000
,
0010
0001
0010
1000
,
1000
0000
0001
0000
,
0001
0001
1000
1000
,
0010
1000
0100
0001
,
0100
1000
0001
0000
,
0001
0010
1000
0010
,
0001
0100
1000
0100
,
0001
0010
0100
1000
,
1001
0000
0110
0000
,
1001
0000
0110
0000
,
0001
0001
1000
1000
,
0001
0010
1000
0010
,
0001
0000
1000
0000
,
0110
0000
1001
0000
,
1000
1000
0001
0001
,
1000
0010
0001
0010
,
1000
0000
0001
0000
,
0110
0000
1001
0000
,
1000
0001
1000
0001
,
0100
1000
0100
0001
,
0020
0000
0031
0000
,
1000
0000
0001
0000
,
1000
0001
0100
0000
,
0010
1000
0001
0000
,
1000
0100
0001
0100
,
1000
0010
0001
0010
,
2000
0000
0000
0000
,
0000
0000
0000
0000
,
0000
0000
0000
0000
,
3000
0000
0000
0000
,
0000
0000
0000
0000
;
#NOTES:
     dance-single:
     :
     Medium:
     9:
     :
0000
0000
0000
0000
,
0000
0000
0000
0000
,
0000
0000
0000
0000
,
0000
0000
0000
0000
,
0000
0000
0000
0000
,
0020
0000
0000
0000
,
2030
0000
3002
0000
,
0203
0000
0000
0300
,
0020
0000
0000
0030
,
0000
0000
0001
0000
,
1000
0000
0000
0000
0001
0100
0001
0100
,
0000
0010
0100
0001
,
0100
0000
0001
1000
0100
1000
0000
0100
,
0000
0010
0001
0010
,
0001
0000
1000
0100
1000
0000
0100
0000
,
0010
0001
0100
1000
,
0100
0000
0001
1000
0001
0000
1000
0000
,
0100
0000
0000
0100
0010
0000
0100
0000
,
0010
0001
0100
1000
,
0100
0001
0010
1000
,
0020
0001
0001
0031
,
0000
1000
0001
1000
0001
1000
0001
1000
,
0000
1000
0010
0001
,
0010
1000
0001
0100
,
1000
0000
0100
0010
1000
0000
0100
0000
,
0001
0100
1000
0001
,
0010
0000
0000
0001
0100
0000
0000
0000
,
1000
0000
0000
0100
0010
0000
0000
0000
,
1000
0000
1000
0000
0001
0010
0001
0000
,
0010
0000
0001
0000
1000
0100
1000
0000
,
0001
0000
0001
0000
0001
0000
1000
0100
,
1000
0000
1000
0000
1000
0000
0001
0100
,
0001
0010
1000
0010
,
0001
0000
0000
0100
0000
0000
1000
0000
,
0100
0000
0001
0010
0001
0000
1000
0000
,
0001
1000
0001
0010
,
0001
0000
0000
1000
0100
0000
0000
0010
,
0001
0000
0000
1000
0001
0000
0000
0000
,
0001
0000
0100
0000
1000
0000
0100
0010
,
1000
0100
0001
0100
,
1000
0001
1000
0220
,
0000
0330
1000
0001
,
1100
0000
1100
0000
0010
0001
0010
0000
,
0001
0002
1000
0103
,
0110
0000
0000
0010
0000
0000
0100
0010
,
1000
0010
1000
0000
0000
0000
0000
0000
,
0001
0000
0100
0000
1000
0100
0001
0000
,
1000
0010
0100
0001
,
0100
0000
0001
0000
1000
0100
0000
1000
,
0000
0001
1000
0001
,
0001
1100
1000
0100
,
0010
0001
0100
1000
,
0100
0000
0001
1000
0000
0000
1000
0000
,
0100
0010
0000
0001
0000
1000
0001
0000
,
1000
0000
0100
0000
0010
0001
1000
0000
,
0010
0001
0010
1000
,
0001
0000
0010
0001
0000
1000
0000
0100
,
0000
0000
1000
0100
1000
0000
0001
0000
,
0100
1000
0100
0001
,
0010
1000
0010
0001
,
1000
0000
0100
1000
0000
0000
1000
0000
,
0001
0000
0100
0001
0000
0000
1001
0000
,
0100
0001
0100
1000
,
0100
0010
1000
0100
,
0010
0000
0000
1001
0000
0000
0110
0000
,
1001
0000
0000
0010
0000
0000
0000
0000
,
1000
0000
0001
0000
1000
0100
1000
0000
,
0100
0000
1000
0000
0001
0100
1000
0000
,
0100
0100
0010
0010
,
1000
0001
1000
0110
,
1000
0000
0001
0100
0001
0000
1000
0000
,
0001
0000
0010
0001
0010
0000
0001
2000
,
0000
0000
0000
3000
,
0000
0001
1000
0001
1000
0001
0100
0002
,
0000
0000
0000
0000
,
0000
0000
0000
0000
,
0000
0000
0000
0000
,
0003
0000
0000
0000
,
0000
0000
0000
0000
;
#NOTES:
     dance-single:
     :
     Hard:
     12:
     :
0000
0000
0000
0000
,
0000
0000
0000
0000
,
0000
0000
0000
0000
,
0000
0000
0000
0000
,
0000
0000
0000
0000
,
2000
0000
0000
0000
,
3002
0000
2003
0000
,
3200
0000
0000
0300
,
0020
0000
0000
0000
,
0130
0000
0000
1000
0100
1000
0001
0010
,
0000
0000
0000
0001
0010
0001
1000
0100
,
0000
1000
0100
0001
,
0100
0010
0001
1000
0100
1000
0000
0200
,
0000
0010
0010
0310
,
0001
0000
1000
0100
1000
0010
0100
0001
,
0010
0001
0100
1000
,
0100
0000
0001
0010
0001
1000
0100
1000
,
0001
0000
0000
1000
0001
0000
0010
0000
,
0020
0001
0100
1030
,
0200
0001
0010
1300
,
1000
0001
0010
0001
0100
0001
1000
0100
,
0000
1000
0010
1000
0001
0010
0001
0100
,
0000
0000
0000
0001
0010
0001
1000
0100
,
0000
1000
0000
1000
0001
0000
1000
0000
,
0001
0000
0100
0020
1000
0000
0100
0000
,
0031
0010
1000
0001
,
0010
0000
0010
0001
0200
0000
1000
0000
,
1300
0000
0100
0010
0100
0000
0100
0001
,
0000
1000
0100
1000
0001
0010
0001
0100
,
0010
1000
0001
0010
0001
0100
0001
1000
,
0001
0000
0000
1000
0100
1000
0010
0100
,
0000
0001
0000
0100
1000
0100
0010
1000
,
0200
1000
0010
0301
,
0100
0000
0000
0110
0000
0000
1001
0000
,
0001
0000
1000
0200
0010
0000
0010
0000
,
1300
1000
0001
0010
,
0011
0000
0001
0010
1000
0000
0010
0001
,
1000
0000
0001
1000
0001
0000
1000
0100
,
1000
0000
0001
0010
0001
0000
1000
0100
,
1000
0000
0010
0100
0000
0000
1010
0000
,
0101
1010
0101
0220
,
0000
0000
0330
0000
1000
0001
1000
0100
,
0000
0100
1000
0000
0010
1000
0100
1000
,
0001
0002
1000
0103
,
0010
0100
0010
1000
0010
1000
0100
0010
,
0001
0001
0001
1000
0100
1000
0010
0200
,
0000
0000
0000
0310
1000
0001
0010
0002
,
0000
1000
0100
0103
,
0001
1000
0100
1000
0001
0010
0000
0110
,
0000
0001
1000
0100
,
0001
0000
0100
1000
0010
0100
1000
0100
,
0001
0100
1000
0100
,
0001
0000
0010
0001
0000
0000
1000
0000
,
0100
1000
0000
0001
0000
1000
0001
2000
,
0000
0000
0000
3001
0010
0001
1000
0200
,
0010
0001
0010
1300
,
0001
0000
0010
0001
0000
1000
0100
1000
,
0000
0001
0100
0020
0000
0000
1030
0000
,
0100
0000
1000
0000
0100
0000
0001
0100
,
1000
0010
0001
0010
,
1000
0000
0100
1000
0000
0000
1001
0000
,
0001
0000
0100
0001
0000
0000
1001
0000
,
0100
0000
0001
0000
0100
0000
1000
0100
,
0001
0010
1000
0010
,
0011
0000
0000
1100
0000
0000
0101
0000
,
1000
0100
0010
0001
0010
0100
1000
0000
,
0000
0001
0010
0001
1000
0100
1000
0010
,
0100
0001
0010
0001
1000
0100
1000
0200
,
0010
0000
0010
0000
0310
0000
0100
1000
,
0000
0001
0000
0010
0000
0000
1000
0000
,
0010
0000
0001
1000
0000
0010
1000
0001
,
0000
0000
0000
0001
0010
0000
0001
1000
,
0100
0001
0100
1000
,
0100
1000
0100
0010
0001
0100
0001
2000
,
0000
0000
0000
0000
,
0000
0000
0000
0000
,
0000
0000
0000
0000
,
3000
0000
0000
0000
,
0000
0000
0000
0000
;
#NOTES:
     dance-double:
     :
     Easy:
     6:
     :
00000000
00000000
00000000
00000000
,
00000000
00000000
00000000
00000000
,
00000000
00000000
00000000
00000000
,
00000000
00000000
00000000
00000000
,
00000000
00000000
00000000
00000000
,
00010000
00000000
00000000
00000000
,
10000000
00000000
01000000
00000000
,
00020000
00000000
00000000
00000000
,
00032000
00000000
00000000
00003000
,
00000000
00000000
00000000
00000000
,
00020000
00000000
00000000
00000000
,
00032000
00000000
00003200
00000000
,
00000302
00000000
00000103
00001000
,
00010000
00000000
00000000
00000000
,
00010000
00100000
00100000
00000000
,
10000000
01000000
01000000
00000000
,
10000000
00000000
01000000
00000000
,
00010000
00000000
00001000
00000000
,
00000010
00000001
00000100
00000000
,
00001000
00010000
00001000
00000000
,
00010000
00100000
10000000
00000000
,
10000000
01000000
00010000
00001000
,
00010000
00001000
00000010
00000000
,
00000001
00000100
00001000
00000000
,
00000100
00000000
00000001
00000000
,
00000010
00000000
00001000
00000000
,
00010000
00100000
10000000
00000000
,
01000000
00000000
00010000
00000000
,
00001000
00001000
00010000
00010000
,
00001000
00000010
00000001
00000000
,
00000100
00000100
00000100
00001000
,
00010000
00010000
00010000
00001000
,
00010000
00000000
00100000
00000000
,
10000000
00010000
10000000
01000000
,
00010000
00001000
00010000
00000000
,
00001000
00000010
00000001
00000010
,
00000001
00000000
00000100
00000000
,
00001000
00010000
00100000
00000000
,
10000000
00100000
00010000
00100000
,
10000000
01000000
00010000
00001000
,
00010000
00001000
00010000
00000220
,
00000000
00000330
00000001
00001000
,
00000001
00001000
00000100
00010000
,
00001000
00020000
00230000
20300000
,
30200000
01000000
01300000
01000000
,
00010000
10000000
00000000
00000000
,
00010000
01000000
10000000
01000000
,
00100000
00010000
00001000
00000000
,
00000010
00000001
00000010
00001000
,
00000010
00000001
00000100
00000000
,
00001000
00001000
00010000
00010000
,
00100000
10000000
00010000
00100000
,
01100000
00000000
00010000
00000000
,
00001000
00000000
00000010
00000001
,
00001000
00000100
00000001
00000100
,
00000010
00001000
00010000
00000000
,
00100000
10000000
00100000
00010000
,
00001000
00000000
00011000
00000000
,
00001000
00010000
00001000
00010000
,
00001000
00000010
00000001
00000010
,
00000001
00000000
00000100
00000000
,
00001000
00000000
00010000
00100000
,
10000000
01000000
10000000
01000000
,
10000000
00100000
00010000
00100000
,
10000000
00000000
01000000
00000000
,
00010000
00000000
00011000
00000000
,
00001000
00000010
00000001
00000000
,
00001000
00000001
00000100
00001000
,
00000200
00000000
00000320
00000000
,
00002030
00000000
00003001
00000000
,
00000001
00000100
00001000
00000000
,
00010000
00001000
00100000
00000000
,
00010000
01000000
10000000
01000000
,
00010000
00100000
00001000
00100000
,
00020000
00000000
00000000
00000000
,
00000000
00000000
00000000
00000000
,
00000000
00000000
00000000
00000000
,
00030000
00000000
00000000
00000000
,
00000000
00000000
00000000
00000000
;
#NOTES:
     dance-double:
     :
     Medium:
     9:
     :
00000000
00000000
00000000
00000000
,
00000000
00000000
00000000
00000000
,
00000000
00000000
00000000
00000000
,
00000000
00000000
00000000
00000000
,
00000000
00000000
00000000
00000000
,
00000002
00000000
00000000
00000000
,
00000203
00000000
00002300
00000000
,
00023000
00000000
00000000
00000000
,
00230000
00000000
00000000
00300000
,
00000000
00000000
00000000
00000000
,
10000000
00000000
00000000
00000000
00010000
01000000
00010000
01000000
,
00000000
00100000
00010000
00001000
,
00000010
00000000
00000001
00001000
00000100
00001000
00000000
00000100
,
00000000
00000010
00000001
00000100
,
00001000
00010000
00100000
00010000
,
00001000
00010000
01000000
10000000
,
01000000
00000000
10000000
00010000
10000000
00000000
00010000
00000000
,
10000000
00000000
00000000
01000000
10000000
00000000
01000000
00000000
,
00010000
00001000
00000010
00000001
,
00000010
00001000
00000010
00000001
,
00000200
00001000
00001000
00001300
,
00000000
00010000
00001000
00010000
00001000
00010000
00001000
00010000
,
00000000
00100000
10000000
00100000
,
00010000
00100000
10000000
01000000
,
00010000
00000000
00001000
00000010
00000100
00000000
00001000
00000000
,
00000001
00000100
00001000
00000100
,
00000001
00000000
00000000
00000010
00000100
00000000
00000000
00000000
,
00010000
00000000
00000000
00001000
00010000
00000000
00000000
00000000
,
00100000
00000000
10000000
00000000
00010000
00100000
00010000
00000000
,
00100000
00000000
00010000
00000000
10000000
01000000
10000000
00000000
,
10000000
00000000
01000000
00000000
00010000
00000000
00001000
00010000
,
00001000
00000000
00000010
00000000
00000001
00000000
00000001
00000100
,
00000001
00000010
00000001
00000010
,
00001000
00000000
00000000
00010000
00000000
00000000
00100000
00000000
,
10000000
00000000
00010000
00100000
00010000
00000000
10000000
00000000
,
01000000
00010000
00001000
00000010
,
00000001
00000000
00000000
00001000
00000100
00000000
00000000
00000010
,
00000001
00000000
00000000
00001000
00000001
00000000
00000000
00000000
,
00000001
00000000
00000100
00000000
00001000
00000000
00010000
00100000
,
01000000
00010000
10000000
00010000
,
10000000
01000000
00010000
00020000
,
00000000
00031000
00000010
00000001
,
00001100
00000000
00001100
00000000
00000010
00000001
00000010
00000000
,
00000001
00000100
00001000
00010000
,
00100000
00000000
00000000
00010000
00000000
00000000
00001000
00000000
,
00010000
01000000
10000000
00000000
00000000
00000000
00000000
00000000
,
00010000
00000000
01000000
00000000
10000000
01000000
00010000
00000000
,
10000000
01000000
00010000
00001000
,
00000010
00000000
00000001
00000000
00001000
00000100
00000000
00001000
,
00000000
00000001
00001000
00000001
,
00000100
00000001
00000100
00001000
,
00010000
00100000
01000000
10000000
,
01000000
00000000
00010000
10000000
00000000
00000000
01000000
00000000
,
10000000
01000000
00000000
00010000
00000000
00001000
00010000
00000000
,
00001000
00000000
00000100
00000000
00000001
00000100
00000001
00000000
,
00000100
00001000
00010000
00001000
,
00010000
00000000
00100000
10000000
00000000
00010000
00000000
01000000
,
00000000
00000000
00010000
10000000
00000000
00000000
00000000
00000000
,
01000000
00010000
00001000
00000010
,
00000001
00000010
00000001
00000100
,
00000001
00000000
00000100
00001000
00000000
00000000
00010000
00000000
,
00100000
00000000
00010000
00001000
00000000
00000000
00001000
00000000
,
00000100
00001000
00010000
00100000
,
10000000
00100000
10000000
01000000
,
10000000
00000000
00000000
00100000
00000000
00000000
00010000
00000000
,
00001000
00000000
00000000
00000010
00000000
00000000
00000001
00000000
,
00001000
00000000
00000001
00000000
00001000
00000100
00001000
00000000
,
00000100
00000000
00001000
00000000
00000001
00000100
00001000
00000000
,
00010000
00010000
00001000
00001000
,
00010000
00100000
10000000
01100000
,
10000000
00000000
00010000
01000000
00010000
00000000
10000000
00000000
,
01000000
00000000
00010000
00001000
00010000
00000000
00000100
00002000
,
00000000
00000000
00000000
00003000
,
00000000
00000010
00001000
00000010
00001000
00000010
00010000
00002000
,
00000000
00000000
00000000
00000000
,
00000000
00000000
00000000
00000000
,
00000000
00000000
00000000
00000000
,
00003000
00000000
00000000
00000000
,
00000000
00000000
00000000
00000000
;
#NOTES:
     dance-double:
     :
     Hard:
     12:
     :
00000000
00000000
00000000
00000000
,
00000000
00000000
00000000
00000000
,
00000000
00000000
00000000
00000000
,
00000000
00000000
00000000
00000000
,
00000000
00000000
00000000
00000000
,
00012000
00000000
00000000
00000000
,
00023000
00000000
00032000
00000000
,
00003200
00000000
00000000
00000300
,
00000020
00000000
00000000
00000000
,
00000130
00000000
00000000
00000001
00000100
00000001
00001000
00000010
,
00000000
00000000
00000000
00001000
00000010
00001000
00000001
00000100
,
00000000
00000001
00000100
00001000
,
00010000
00100000
10000000
00010000
01000000
00010000
00000000
00200000
,
00000000
01000000
01000000
01300000
,
10000000
00000000
00010000
01000000
00010000
00100000
01000000
10000000
,
01000000
00010000
00001000
00000010
,
00000001
00000000
00001000
00000010
00001000
00000001
00000100
00000001
,
00000010
00000000
00000000
00000001
00000100
00000000
00001000
00000000
,
00010000
00000000
00100000
00000000
10000000
01000000
10000000
00000000
,
01000000
00000000
00010000
00000000
00001000
00010000
00000100
00000000
,
00001000
00000000
00000010
00000000
00000100
00000001
00001000
00000100
,
00000000
00001000
00000010
00001000
00000001
00000010
00000001
00000100
,
00000000
00000000
00000000
00000001
00000100
00001000
00010000
00001000
,
00000000
00100000
00000000
00001000
00010000
00000000
01000000
00000000
,
10000000
00000000
01000000
00100000
00010000
00000000
10000000
00000000
,
01000000
00010000
00001000
00000010
,
00000100
00000000
00000100
00001000
00000020
00000000
00000001
00000000
,
00000031
00000000
00000010
00000100
00000010
00000000
00000100
00000010
,
00000000
00001000
00000100
00010000
00001000
00100000
00010000
01000000
,
00100000
10000000
00010000
00100000
00010000
01000000
00010000
10000000
,
00010000
00000000
00000000
10000000
01000000
10000000
00100000
01000000
,
00000000
00001000
00000000
00010000
00001000
00000100
00000010
00001000
,
00000200
00001000
00000010
00000301
,
00000100
00000000
00000000
00000110
00000000
00000000
00001001
00000000
,
00000001
00000000
00000100
00002000
00010000
00000000
00010000
00000000
,
00103000
00010000
10000000
00100000
,
10010000
00000000
00010000
00100000
00010000
00000000
00100000
00010000
,
10000000
00000000
01000000
00010000
00001000
00000000
00000110
00000000
,
00000010
00000000
00000001
00000010
00000001
00000000
00001000
00000100
,
00001000
00000000
00000010
00000100
00000000
00000000
00000010
00000000
,
00000100
00001000
00010000
02200000
,
00000000
00000000
03300000
00000000
10000000
00010000
10000000
01000000
,
00000000
01000000
10000000
00000000
00100000
10000000
01000000
10000000
,
01000000
00010000
00001000
00000010
,
00000100
00000010
00000100
00001000
00000100
00001000
00000010
00000000
,
00000100
00000010
00001000
00000001
00000100
00001000
00010000
00200000
,
00000000
00000000
00000000
00310000
00001000
00100000
00010000
20000000
,
00000000
01000000
01000000
31000000
,
00010000
10000000
01000000
10000000
01000000
00010000
00000000
00011000
,
00000000
00001000
00000010
00000001
,
00000010
00000000
00000100
00001000
00000010
00000100
00001000
00000100
,
00000001
00000100
00001000
00010000
,
00001000
00000000
00100000
00010000
00000000
00000000
10000000
00000000
,
01000000
10000000
00000000
00010000
00000000
01000000
00010000
20000000
,
00000000
00000000
30000000
00100000
00010000
00001000
00010000
00000200
,
00000000
00000001
00000010
00001300
,
00000001
00000000
00000010
00000001
00000000
00001000
00000000
00000001
,
00000000
00000000
00000100
00002000
00000000
00000000
00013000
00000000
,
00100000
00000000
10000000
00000000
01000000
00000000
00010000
01000000
,
10000000
00100000
00010000
00001000
,
00000010
00000000
00000001
00001000
00000000
00000000
00000001
00000000
,
00000010
00000000
00001000
00010000
00000000
00000000
00012000
00000000
,
01003000
00000000
00010000
00000000
01000000
00000000
10000000
01000000
,
00010000
00100000
10000000
00100000
,
00110000
00000000
00000000
00011000
00000000
00000000
00000110
00000000
,
00000001
00000100
00000010
00001000
00000010
00000100
00000001
00000000
,
00000000
00000100
00001000
00010000
00001000
01000000
00010000
00100000
,
01000000
00010000
00001000
00010000
00001000
00000010
00000100
00000020
,
00000100
00000000
00000100
00000000
00001030
00000000
00001000
00000100
,
00000000
00001000
00000000
00000010
00000000
00000000
00000100
00000000
,
00001000
00000000
00010000
00100000
00000000
00100000
10000000
00020000
,
00000000
00000000
00000000
10030000
01000000
00000000
00010000
00001000
,
00010000
00001000
00000010
00000001
,
00000100
00000001
00001000
00000010
00000100
00001000
00010000
00002000
,
00000000
00000000
00000000
00000000
,
00000000
00000000
00000000
00000000
,
00000000
00000000
00000000
00000000
,
00003000
00000000
00000000
00000000
,
00000000
00000000
00000000
00000000
;
