
//----- song ID: iwyl -----//
#TITLE:I Want You To Know;
#ARTIST:Zedd feat. Selena Gomez;
#BANNER:I Want You To Know.png;
#BACKGROUND:I Want You To Know-bg.png;
#CDTITLE:./CDTitles/DDR A.png;
#MUSIC:I Want You To Know.ogg;
#SAMPLESTART:100.218;
#SAMPLELENGTH:15;
#DISPLAYBPM:130;
#BPMS:0=130,120=127.5,121=130,184=136.5,185=127,186=130,214=129.5,216=130;
#NOTES:
     dance-single:
     :
     Beginner:
     1:
     :
0000
0000
0000
0000
,
0000
0000
0000
0000
,
0000
0000
0000
0000
,
0000
0000
0000
0000
,
0000
0000
0000
0000
,
0010
0000
0000
0000
,
0010
0000
0000
0000
,
1000
0000
0000
0000
,
1000
0000
0000
0000
,
0000
0000
0000
0000
,
1000
0000
0000
0000
,
0001
0000
0000
0000
,
0001
0000
0000
0000
,
0000
1000
0000
1000
,
0000
1000
0000
1000
,
0000
0000
0000
0010
,
0000
0010
0000
0010
,
0010
0000
0000
0001
,
0000
0001
0000
0001
,
0000
0000
0000
0100
,
0000
0100
0000
0100
,
0100
0000
0000
0001
,
0000
0001
0000
0001
,
0000
0000
0000
1000
,
0000
1000
0000
1000
,
0000
0000
0000
0010
,
0000
0010
0000
0010
,
0000
0000
0000
0100
,
0000
0200
0000
0000
,
0300
0000
0000
0000
,
0001
0001
0001
0000
,
0001
0001
0001
0000
,
1000
1000
1000
0000
,
1000
1000
1000
0000
,
0001
0001
0001
0000
,
0001
0001
0001
0000
,
0010
0010
0010
0000
,
1001
0000
0000
0000
,
0000
0001
0000
0001
,
0000
1000
0000
1000
,
0000
0001
0000
0001
,
0000
0001
0000
0001
,
0000
1000
0000
1000
,
0000
0001
0000
0001
,
0000
0010
0000
0010
,
0000
0010
0010
0000
,
2000
0000
3000
0000
,
0002
0000
0003
0000
,
0002
0000
0003
0000
,
0200
0000
0300
0000
,
0200
0000
0300
0000
,
0020
0000
0030
0000
,
2000
0000
3000
0000
,
0002
0000
0003
0000
,
1000
1000
1000
0000
,
1000
1000
1000
0000
,
0001
0001
0001
0000
,
0001
0001
0001
0000
,
1000
1000
1000
0000
,
1000
1000
1000
0000
,
2000
0000
3000
0000
,
0002
0000
0000
0000
,
0003
0000
0000
0000
,
0000
0000
0000
0000
;
#NOTES:
     dance-single:
     :
     Easy:
     3:
     :
0000
0000
0000
0000
,
0000
0000
0000
0000
,
0000
0000
0000
0000
,
0000
0000
0000
0000
,
0000
0000
0000
0000
,
0010
0000
1000
1000
,
0001
0000
0001
0001
,
0010
0000
0020
0030
,
0002
0003
0020
0000
,
0030
0000
0001
0001
,
1000
0000
1000
1000
,
0010
0000
0020
0030
,
2000
3000
0020
0000
,
0030
1000
0001
1000
,
0000
0001
0010
0001
,
0000
1000
0000
0010
,
0000
0010
0000
0010
,
0010
0000
1000
0001
,
0000
1000
0010
1000
,
0000
0001
0000
0100
,
0000
0100
0000
0100
,
0100
0000
0001
0100
,
0001
0001
0002
0000
,
0003
0000
1000
0100
,
1000
1000
2000
0000
,
3000
0000
0001
0010
,
0001
0001
0002
0000
,
0003
0000
1000
0010
,
1000
1000
0010
0010
,
0020
0000
0000
0030
,
1000
1000
0100
0000
,
0010
0010
0001
0000
,
0010
0010
0100
0000
,
1000
1000
0001
0000
,
0001
0001
0100
0000
,
0010
0010
1000
0000
,
0010
0010
0100
0000
,
0002
0000
0000
0003
,
0100
0001
0100
0001
,
0200
0000
0000
0300
,
0010
1000
0010
1000
,
0020
0000
0000
0030
,
1000
0100
1000
0100
,
2000
0000
0000
3000
,
0001
0100
0001
0100
,
0002
0000
0000
0003
,
1000
1000
0010
0000
,
0001
0001
0010
0000
,
1000
1000
0100
0000
,
0001
0001
0100
0000
,
1000
1000
0010
0000
,
0001
0001
0010
0000
,
1000
1000
0010
0000
,
0010
0020
0000
0030
,
1000
1000
0100
0000
,
0010
0010
0100
0000
,
1000
1000
0010
0000
,
0100
0100
0010
0000
,
0010
0010
1000
0000
,
0100
0100
0010
0000
,
0002
0000
0000
0003
,
2000
0000
0000
0000
,
3000
0000
0000
0000
,
0000
0000
0000
0000
;
#NOTES:
     dance-single:
     :
     Medium:
     8:
     :
0000
0000
0000
0000
,
0000
0000
0000
0000
,
0000
0000
0000
0000
,
0000
0000
0000
0000
,
0000
0000
0000
0000
,
0010
0000
0010
0000
1000
0100
1000
0000
,
0001
0000
0001
0000
0010
0001
0010
0000
,
0100
0000
0100
0000
1000
0100
1000
0000
,
0100
0010
0100
0000
0010
0001
0010
0000
,
0010
0000
0010
0000
0001
0100
0001
0000
,
1000
0000
1000
0000
0010
1000
0010
0000
,
0100
0000
0100
0000
0001
0100
0001
0000
,
0100
0010
0100
0000
0010
1000
0010
0000
,
1000
1100
0001
0101
,
0010
0011
0100
0110
,
0000
1000
1100
0010
,
1100
0010
1100
0010
,
1010
0000
1000
1100
,
0010
1010
0100
0101
,
0000
0001
0011
0100
,
0011
0100
0011
0100
,
0101
0000
0101
0100
,
0010
0001
0100
0010
,
0001
0000
1010
0100
,
0010
1000
0100
0010
,
1000
0000
1010
0010
,
0100
1000
0010
0100
,
1000
0000
0101
0010
,
0100
0001
0010
0100
,
0002
0000
0000
0103
,
1001
0101
1001
1001
,
1010
1001
2020
3030
,
0110
1010
0110
0110
,
0101
0110
2020
3030
,
0101
1001
0101
1001
,
1100
1001
1100
1001
,
0101
1100
0110
1001
,
2000
0000
0000
3100
,
0100
0101
0001
0011
,
0010
1010
1000
2200
,
3300
1100
1000
1010
,
0010
0011
0001
0202
,
0303
0101
0001
0011
,
0010
1010
1000
2200
,
3300
0101
0001
0011
,
0010
1010
1000
1100
,
0110
0000
1000
0000
0010
0100
0001
0000
,
0010
1000
0010
0001
,
0110
0000
1000
0000
0100
0010
0001
0000
,
0100
1000
0100
0001
,
0100
0000
0001
0000
0010
0100
1000
0000
,
0010
0001
0010
1000
,
0110
0000
0001
0000
0100
0010
1000
0000
,
0100
0020
0000
0130
,
1001
1100
1001
1001
,
0011
1001
0022
0033
,
0110
0011
0110
0110
,
1100
0110
0022
0033
,
1100
1001
1100
1001
,
0101
1001
0101
1001
,
0200
0000
0000
0000
,
0302
0000
0000
0000
,
0003
0000
0000
0000
,
0000
0000
0000
0000
;
#NOTES:
     dance-single:
     :
     Hard:
     11:
     :
0000
0000
0000
0000
,
0000
0000
0000
0000
,
0000
0000
0000
0000
,
0000
0000
0000
0000
,
0000
0000
0000
0000
,
0010
0000
0100
0001
0010
0001
1000
0010
,
0100
0000
0010
1000
0100
1000
0001
0010
,
0100
0000
0010
0001
0010
0001
0100
0010
,
0000
1000
0100
0010
0000
0001
0100
0010
,
0100
0000
0010
1000
0100
1000
0001
0100
,
0010
0000
0100
0001
0010
0001
1000
0100
,
0010
0000
0100
1000
0100
1000
0010
0100
,
0000
0001
0010
0100
0000
1000
0010
0100
,
0001
0000
0011
0000
0010
0001
0100
0010
,
1000
0000
1010
0000
0010
1000
0100
0010
,
0100
0000
1100
0000
0100
1000
0010
0000
,
0100
1000
0010
0000
0100
1000
0010
0000
,
0110
0000
0101
0000
0100
0001
0010
0100
,
0010
0000
0011
0000
0001
0010
0100
1000
,
0100
0000
0011
0000
0010
0001
0100
0000
,
0010
0001
0100
0000
0010
0001
0100
0000
,
0110
0000
0000
0000
1000
0100
0001
0000
,
1000
0100
0001
0000
0001
0100
1000
0000
,
0001
0100
1000
0000
0100
0001
0010
0000
,
0100
1000
0100
0000
0010
0001
0010
0000
,
0100
0000
0110
0000
1000
0010
0001
0000
,
1000
0010
0001
0000
0001
0010
1000
0000
,
0001
0010
1000
0000
0010
0001
0100
0000
,
0010
1000
0100
0000
0100
0000
0100
0000
,
0200
0000
0000
0300
,
1100
0000
1001
0000
0001
0010
0001
0100
,
1000
0100
0010
1000
0100
0010
0100
0000
,
0011
0000
1001
0000
1000
0010
1000
0100
,
0001
0100
0010
0001
0100
0010
0100
0000
,
0001
0100
0010
0100
0001
1000
0100
1000
,
0010
0100
0001
0100
0010
1000
0100
0010
,
0001
1000
0010
0001
0010
0100
0001
0010
,
0200
0000
0000
0310
,
0010
0001
0010
0100
0010
0001
0010
0100
,
1000
0010
0100
0010
1000
0010
0200
0000
,
0310
0100
0001
0100
0010
0100
0001
0100
,
0010
1000
0100
1000
0010
1000
0200
0000
,
1300
0010
0100
0010
1000
0010
0100
0001
,
0010
0100
0010
0001
0010
0100
2000
0000
,
3010
0100
0001
0100
0010
0100
0001
1000
,
0100
0010
0100
1000
0200
0000
0310
0000
,
0011
0201
0010
0301
,
1001
1020
0100
1030
,
1100
0210
0001
0010
,
1300
0020
0100
1000
,
0130
0201
0010
0001
,
0320
1000
0001
1000
,
0230
0001
1000
0001
,
0302
0000
0003
0011
,
0101
0000
1010
0000
1000
0010
1000
0100
,
0001
0100
0010
0001
0100
0010
0100
0000
,
1010
0000
0101
0000
0001
0010
0001
0100
,
1000
0100
0010
1000
0100
0010
0100
0000
,
1000
0100
0010
0100
1000
0001
0100
0001
,
0010
0100
1000
0100
0010
0001
0100
0010
,
2000
0000
0000
0000
,
3001
0000
0020
0000
,
0030
0000
0000
0000
,
0000
0000
0000
0000
;
#NOTES:
     dance-double:
     :
     Easy:
     3:
     :
00000000
00000000
00000000
00000000
,
00000000
00000000
00000000
00000000
,
00000000
00000000
00000000
00000000
,
00000000
00000000
00000000
00000000
,
00000000
00000000
00000000
00000000
,
01000000
00000000
00010000
00010000
,
10000000
00000000
10000000
10000000
,
00100000
00000000
02000000
03000000
,
00020000
00030000
02000000
00000000
,
03000000
00000000
00001000
00001000
,
00010000
00000000
00001000
00001000
,
00000010
00000000
00000002
00000003
,
00000020
00000030
00000002
00000000
,
00000003
00001000
00000001
00001000
,
00000000
00000100
00010000
00000100
,
00000000
00001000
00000000
00000010
,
00000000
00000010
00000000
00000010
,
00000010
00000000
00010000
00001000
,
00000000
01000000
00001000
01000000
,
00000000
00010000
00000000
01000000
,
00000000
01000000
00000000
01000000
,
01000000
00000000
00010000
01000000
,
00001000
00001000
00002000
00000000
,
00003000
00000000
00010000
00001000
,
00100000
00100000
00200000
00000000
,
00300000
00000000
00001000
00010000
,
00000100
00000100
00000200
00000000
,
00000300
00000000
00001000
00000010
,
00001000
00001000
00000010
00000010
,
00000020
00000000
00000000
00000030
,
00000100
00000100
00001000
00000000
,
00010000
00010000
00100000
00000000
,
01000000
01000000
00010000
00000000
,
10000000
10000000
00010000
00000000
,
10000000
10000000
01000000
00000000
,
00010000
00010000
00001000
00000000
,
00000010
00000010
00000001
00000000
,
00002000
00000000
00000000
00003000
,
00000100
00001000
00000100
00001000
,
00000200
00000000
00000000
00000300
,
00010000
00001000
00010000
00001000
,
00020000
00000000
00000000
00030000
,
00000100
00010000
00000100
00010000
,
00000200
00000000
00000000
00000300
,
00010000
00000010
00010000
00000010
,
00020000
00000000
00000000
00030000
,
00001000
00001000
00100000
00000000
,
00010000
00010000
00000100
00000000
,
00001000
00001000
01000000
00000000
,
00010000
00010000
00000010
00000000
,
00001000
00001000
00100000
00000000
,
00010000
00010000
00001000
00000000
,
00010000
00010000
00000010
00001000
,
00000010
00000020
00000000
00000030
,
00000100
00000100
00001000
00000000
,
00010000
00010000
00100000
00000000
,
01000000
01000000
00010000
00000000
,
10000000
10000000
00010000
00000000
,
10000000
10000000
01000000
00000000
,
00010000
00010000
00001000
00000000
,
00020000
00000000
00000000
00030000
,
00002000
00000000
00000000
00000000
,
00003000
00000000
00000000
00000000
,
00000000
00000000
00000000
00000000
;
#NOTES:
     dance-double:
     :
     Medium:
     8:
     :
00000000
00000000
00000000
00000000
,
00000000
00000000
00000000
00000000
,
00000000
00000000
00000000
00000000
,
00000000
00000000
00000000
00000000
,
00000000
00000000
00000000
00000000
,
01000000
00000000
01000000
00000000
00010000
00100000
00010000
00000000
,
00100000
00000000
00100000
00000000
00001000
00010000
00001000
00000000
,
00010000
00000000
00010000
00000000
00000100
00001000
00000100
00000000
,
00000010
00000001
00000010
00000000
00000100
00001000
00000100
00000000
,
00000100
00000000
00000100
00000000
00001000
00000010
00001000
00000000
,
00000010
00000000
00000010
00000000
00010000
00001000
00010000
00000000
,
00001000
00000000
00001000
00000000
01000000
00010000
01000000
00000000
,
00100000
10000000
00100000
00000000
01000000
00010000
01000000
00000000
,
00100000
10100000
01000000
01010000
,
00001000
00011000
00100000
00110000
,
00000000
00001000
00011000
00000010
,
00011000
00000010
00011000
00000010
,
00001010
00000000
00000100
00001100
,
00010000
00011000
00000010
00001010
,
00000000
00010000
00011000
01000000
,
00011000
01000000
00011000
01000000
,
01010000
00000000
00100000
00010000
,
00001000
00100000
00010000
00001000
,
00010000
00000000
00000010
00001000
,
00010000
00000010
00001000
00010000
,
00001000
00000000
00000100
00001000
,
00010000
00000100
00001000
00010000
,
00001000
00000000
01000000
00010000
,
00001000
01000000
00010000
00001000
,
00020000
00000000
00000000
00031000
,
00010100
00011000
00010100
00010100
,
00000110
00001100
00000220
00000330
,
00000011
00000110
00000011
00000011
,
00000110
00001100
00002020
00003030
,
00011000
00101000
00011000
00101000
,
00011000
00010010
00011000
00010010
,
00011000
00010000
10010000
01100000
,
00020000
00000000
00000000
01030000
,
01000000
11000000
10000000
10100000
,
00100000
00110000
00010000
00022000
,
00033000
00001100
00000100
00000101
,
00000001
00000011
00000010
00002020
,
00003030
00011000
00010000
01010000
,
01000000
11000000
10000000
20200000
,
30300000
00110000
00010000
00011000
,
00001000
00001100
00000100
00000101
,
00000011
00000000
00000100
00000000
00001000
00000010
00000100
00000000
,
00000001
00000100
00001000
00010000
,
01100000
00000000
10000000
00000000
00010000
00100000
01000000
00000000
,
10000000
01000000
00010000
00001000
,
00000110
00000000
00000001
00000000
00001000
00000100
00000010
00000000
,
00000001
00000010
00001000
00010000
,
01100000
00000000
10000000
00000000
00010000
01000000
00100000
00000000
,
10000000
00020000
00000000
01030000
,
01001000
00011000
01001000
01001000
,
01100000
01010000
02200000
03300000
,
10100000
01100000
10100000
10100000
,
01100000
01010000
00220000
00330000
,
00011000
00010010
00011000
00010010
,
00011000
00101000
00011000
00101000
,
00002000
00000000
00000000
00000000
,
00023000
00000000
00000000
00000000
,
00030000
00000000
00000000
00000000
,
00000000
00000000
00000000
00000000
;
#NOTES:
     dance-double:
     :
     Hard:
     11:
     :
00000000
00000000
00000000
00000000
,
00000000
00000000
00000000
00000000
,
00000000
00000000
00000000
00000000
,
00000000
00000000
00000000
00000000
,
00000000
00000000
00000000
00000000
,
01000000
00000000
00010000
00100000
01000000
00010000
00001000
00010000
,
00001000
00000000
00000100
00000010
00001000
00000100
00000010
00000100
,
00001000
00000000
00000001
00000100
00001000
00000100
00000010
00000100
,
00000000
00000010
00000100
00001000
00000000
00010000
00001000
00000100
,
00000010
00000000
00001000
00000010
00000100
00001000
00010000
00001000
,
00010000
00000000
01000000
00100000
00010000
01000000
00100000
01000000
,
00010000
00000000
10000000
01000000
00010000
01000000
00100000
01000000
,
00000000
00100000
01000000
00010000
00000000
00001000
00010000
01000000
,
00100000
00000000
01100000
00000000
10000000
01000000
00100000
00010000
,
00100000
00000000
00101000
00000000
00001000
00010000
00001000
00000100
,
00000010
00000000
00000110
00000000
00000100
00000010
00001000
00000000
,
00010000
01000000
00100000
00000000
10000000
01000000
00100000
00000000
,
00101000
00000000
00011000
00000000
00000100
00010000
00000010
00001000
,
00000100
00000000
00010100
00000000
00001000
00010000
00001000
00100000
,
00010000
00000000
01010000
00000000
00100000
01000000
00010000
00000000
,
00001000
00000010
00000100
00000000
00000001
00000100
00000010
00000000
,
00001100
00000000
00000000
00000000
00000001
00000100
00001000
00000000
,
00010000
00100000
10000000
00000000
00100000
00010000
00001000
00000000
,
00000100
00000001
00000010
00000000
00000001
00000100
00000010
00000000
,
00001000
00000100
00000010
00000000
00000100
00001000
00000010
00000000
,
00001000
00000000
00000110
00000000
00000001
00000010
00001000
00000000
,
00010000
01000000
10000000
00000000
01000000
00010000
00001000
00000000
,
00000010
00000001
00000100
00000000
00000001
00000010
00000100
00000000
,
00001000
00000010
00000100
00000000
00000100
00000000
00000100
00000000
,
00000200
00000000
00000000
00000300
,
00000101
00000000
00001001
00000000
00000001
00000100
00001000
00000100
,
00000010
00001000
00000100
00000010
00000100
00010000
00001000
00000000
,
00011000
00000000
00101000
00000000
00001000
00010000
00100000
00010000
,
00001000
00000010
00001000
00010000
00100000
00010000
00001000
00000000
,
00010000
00001000
01000000
00010000
00100000
00001000
00010000
00001000
,
00000100
00001000
00010000
00000010
00001000
00000100
00010000
00001000
,
00000010
00000100
00001000
00000010
00000100
00001000
00010000
00100000
,
00020000
00000000
00000000
00031000
,
00000100
00000010
00001000
00000010
00000100
00000010
00001000
00000010
,
00000100
00000001
00000010
00000001
00000100
00000001
00000020
00000000
,
00000130
00010000
00001000
00010000
00000100
00010000
00001000
00010000
,
00000100
00001000
00000010
00001000
00000100
00010000
00002000
00000000
,
00103000
00010000
00001000
00010000
00100000
00010000
00001000
00010000
,
00100000
01000000
10000000
01000000
00100000
00010000
02000000
00000000
,
03001000
00010000
01000000
00010000
00001000
00010000
01000000
00010000
,
00001000
00000100
00001000
00010000
00002000
00000000
00013000
00000000
,
00010010
00002001
00000010
00003001
,
00000101
00000120
00001000
00000130
,
00000102
00000010
00001000
00000100
,
00001003
00002010
00000001
00000010
,
00003100
00012000
00100000
00010000
,
02003000
00010000
10000000
00010000
,
03200000
10000000
00010000
10000000
,
02300000
00000000
03000000
10010000
,
11000000
00000000
00110000
00000000
10000000
01000000
00010000
01000000
,
00100000
00010000
01000000
00100000
01000000
00001000
00010000
00000000
,
00101000
00000000
00010010
00000000
00010000
00001000
00000010
00001000
,
00010000
00100000
00010000
00001000
00000010
00001000
00010000
00000000
,
00001000
00010000
00000100
00001000
00000010
00010000
00001000
00010000
,
01000000
00010000
00001000
00100000
00010000
01000000
00001000
00010000
,
00200000
00000000
00000000
00000000
,
00320000
00000000
00032000
00000000
,
00003000
00000000
00000000
00000000
,
00000000
00000000
00000000
00000000
;
