
//----- song ID: hope -----//
#TITLE:Hopeful;
#ARTIST:柊木りお featured by SOTAG;
#ARTISTTRANSLIT:Rio Hiiragi featured by SOTAG;
#BANNER:Hopeful.png;
#BACKGROUND:Hopeful-bg.png;
#CDTITLE:./CDTitles/DDR A.png;
#MUSIC:Hopeful.ogg;
#SAMPLESTART:59.316;
#SAMPLELENGTH:15;
#BPMS:0=146;
#BGSTAGE:15;
#NOTES:
     dance-single:
     :
     Beginner:
     2:
     :
0000
0000
0000
0000
,
0000
0000
0000
0000
,
0000
0000
0000
0000
,
0000
0000
0000
0000
,
0000
0000
0000
0000
,
0010
0000
0000
0000
,
0000
0000
0000
0000
,
0010
0000
0000
0000
,
0000
0000
0000
0000
,
0000
0000
0000
0000
,
0001
0000
1000
0000
,
0001
0000
1000
0000
,
0010
0000
0000
0000
,
0010
0000
0000
0000
,
0001
0000
1000
0000
,
0001
0000
1000
0000
,
0010
0000
0000
0000
,
0010
0000
0000
0000
,
0000
0000
0000
0000
,
1000
1000
1000
0000
,
0001
0001
0001
0000
,
0010
0000
0000
0000
,
0100
0000
0000
0000
,
0001
0001
0001
0000
,
1000
1000
1000
0000
,
0010
0000
0000
0000
,
0100
0000
0000
0000
,
0010
0000
0000
0000
,
0001
0000
0000
0000
,
0100
0000
0000
0000
,
1000
0000
0000
0000
,
0001
0000
0000
0000
,
1000
0000
0000
0000
,
0001
0000
0001
0000
,
1000
0000
1000
0000
,
0020
0000
0000
0030
,
0000
0000
0000
0000
,
0001
0000
0100
0000
,
0001
0000
0001
0000
,
0010
0000
0010
0000
,
0001
0001
0001
0000
,
1000
0000
0100
0000
,
1000
0000
1000
0000
,
0010
0000
0010
0000
,
0200
0000
0300
0000
,
0001
0000
0100
0000
,
0001
0000
0001
0000
,
0010
0000
0010
0000
,
0001
0001
0001
0000
,
1000
0000
0100
0000
,
1000
0000
1000
0000
,
0010
0000
0010
0000
,
0200
0000
0300
0000
,
0020
0000
0030
0000
,
0001
0000
1000
0000
,
0001
0000
1000
0000
,
0010
0000
0000
0000
,
0010
0000
0000
0000
,
0001
0000
1000
0000
,
0001
0000
1000
0000
,
0010
0000
0000
0000
,
0100
0100
0100
0000
,
0000
0000
0000
0000
,
2002
0000
0000
3003
,
0000
0000
0000
0000
;
#NOTES:
     dance-single:
     :
     Easy:
     5:
     :
0000
0000
0000
0000
,
0000
0000
0000
0000
,
0000
0000
0000
0000
,
0000
0000
0000
0000
,
0000
0000
0000
0000
,
0010
0000
0000
0000
,
0000
0000
0000
0000
,
0100
0000
0000
0000
,
0010
0000
0000
0000
,
0000
0000
0000
0000
,
0001
0010
1000
0010
,
0001
0010
1000
0010
,
0002
1000
0000
1003
,
1000
0001
0001
0000
,
1000
0010
0001
0010
,
1000
0001
1000
0000
,
0010
1000
0100
1000
,
0001
1000
0001
0000
,
0000
0000
0000
0000
,
0010
0000
0010
0000
,
0010
0100
1000
0000
,
0001
0001
1000
1000
,
0001
0010
0100
1000
,
0010
0000
0010
0000
,
0010
0100
0001
0000
,
1000
1000
0001
0001
,
1000
0001
0100
0000
,
0001
0100
1000
0100
,
0001
0001
1000
1000
,
0001
0010
1000
0010
,
0001
1000
0100
0000
,
1000
1000
0100
0000
,
0001
0001
0100
0000
,
1000
0010
0001
0010
,
1000
0000
0001
0000
,
2002
0000
0000
3003
,
0000
0001
1000
0001
,
1000
1000
0001
0001
,
1000
0100
0010
0001
,
0010
0100
1000
0100
,
0001
0100
1000
1000
,
0001
0001
1000
1000
,
0001
0100
0010
1000
,
0010
0100
0001
1000
,
0002
0000
0000
1003
,
0001
0001
1000
1000
,
0001
0100
0010
1000
,
0010
0100
0001
0100
,
1000
0100
0001
0001
,
1000
1000
0001
0001
,
0100
0010
0100
0000
,
0010
0100
0001
1000
,
2000
0000
0000
3000
,
0002
0000
0000
0003
,
1000
0010
0001
0010
,
1000
0010
0001
0010
,
2000
0001
0000
3001
,
0001
1000
1000
0000
,
0001
0010
1000
0010
,
0001
1000
0001
0000
,
0010
0001
0100
0001
,
1000
0001
1000
0100
,
0020
0000
0000
0030
,
0220
0000
0000
0330
,
0000
0000
0000
0000
;
#NOTES:
     dance-single:
     :
     Medium:
     10:
     :
0000
0000
0000
0000
,
0000
0000
0000
0000
,
0000
0000
0000
0000
,
0000
0000
0000
0000
,
0000
0000
0000
0000
,
1100
0000
0000
0000
,
0000
0000
0000
0000
0000
0000
0000
0011
,
0011
0000
0000
0000
,
2002
0000
0000
3003
,
0000
0000
0000
0000
,
1000
0100
1000
0000
0001
0000
0100
0000
,
0010
0100
0001
0000
1000
0000
0100
0000
,
0020
1000
0100
1030
,
0001
1000
0001
0000
0110
0000
1001
0000
,
0001
0100
0001
0000
1000
0000
0100
0000
,
0010
0100
1000
0000
1001
0000
0110
0000
,
0020
1000
0100
1030
,
1000
0001
1000
0000
0110
0000
0110
0000
,
0000
0000
0000
0000
,
1000
0100
1000
0000
0010
0000
0101
0000
,
0001
1000
0001
0000
1000
0000
1100
0000
,
0001
0000
0010
0000
1000
0010
0001
0000
,
0100
1000
0100
0001
,
0001
0100
0001
0000
0010
0000
1100
0000
,
1000
0001
1000
0000
0001
0000
0101
0000
,
1000
0000
0010
0000
0001
0010
1000
0000
,
0100
0001
0100
1000
,
0001
0000
0010
0000
0100
0010
0001
0000
,
0100
0000
0000
0000
0010
0000
0000
0000
0100
0000
0000
1000
0000
0000
1000
0000
,
0001
0000
0100
0001
0000
1000
0000
0100
,
0000
1000
0001
0000
1000
0000
0110
0000
,
0001
0010
0001
0010
0001
0000
0000
0000
,
1000
0100
1000
0100
1000
0000
1001
0000
,
0001
0010
1000
0010
,
0001
0101
1000
1100
,
2002
0000
0000
3003
,
0000
1100
0011
1001
,
0001
0010
0001
0000
1000
0000
0100
0000
,
1000
0001
0010
0001
0010
0000
0011
0000
,
1000
0100
0001
0000
0100
0000
1000
0000
,
0100
0010
0001
0010
0100
0000
1000
0000
,
1000
0010
1000
0000
0001
0000
0100
0000
,
0001
1000
0010
1000
0010
0000
1010
0000
,
0001
0100
1000
0000
0100
0000
0110
0000
,
0001
0100
0000
0000
0001
0000
1000
0000
,
1000
0010
1000
0000
0001
0000
0100
0000
,
0001
1000
0010
1000
0010
0000
1010
0000
,
0001
0100
1000
0000
0100
0000
0001
0000
,
0100
0010
1000
0010
0100
0000
0001
0000
,
0001
0010
0001
0000
1000
0000
0100
0000
,
1000
0001
1000
0001
0000
0101
1100
0000
,
0010
0100
0010
0000
0100
0000
0110
0000
,
0001
0000
1000
0001
,
2002
0000
0000
3003
,
0001
0100
0001
0000
1000
0000
0100
0000
,
0010
0100
1000
0000
0001
0000
0100
0000
,
0020
0001
1000
0031
,
1000
0001
1000
0100
1000
0000
0110
0000
,
1000
0100
1000
0000
0001
0000
0100
0000
,
0010
0100
0001
0010
0001
0000
0110
0000
,
0020
0001
1000
0031
,
0001
1000
0001
1000
0100
0000
0110
0000
,
0000
0000
0000
0000
,
2002
0000
0000
3003
,
0000
0000
0000
0000
;
#NOTES:
     dance-single:
     :
     Hard:
     13:
     :
0000
0000
0000
0000
,
0000
0000
0000
0000
,
0000
0000
0000
0000
,
0000
0000
0000
0000
,
0000
0000
0000
0000
,
1010
0000
0000
0000
,
0000
0000
0000
0000
0000
0000
0000
0010
,
0001
0000
0000
0000
,
1000
0100
0010
0001
0010
0100
1000
0100
,
0010
0000
0000
1001
,
1000
0000
0100
1000
0000
0001
0000
0100
0010
0000
0100
0000
0001
0000
1000
0000
,
0001
0000
0100
0001
0000
1000
0000
0100
0010
0100
0010
0000
0001
0000
1000
0000
,
0020
1000
0001
0130
,
1000
0000
0100
0000
1000
0100
0000
0010
0000
0000
0000
1001
0000
0000
0000
0000
,
0001
0000
0100
0001
0000
1000
0000
0100
0010
0000
0100
0000
1000
0000
0001
0000
,
1000
0000
1100
0000
0100
0010
0000
0100
0000
0000
0010
0000
0001
0000
1000
0000
,
0020
0001
1000
0130
,
0001
0000
0100
0000
0001
0100
0000
0010
0000
0000
0000
1001
0000
0000
1000
0001
,
0000
0000
0000
0000
0000
0000
0000
0000
0000
0000
0000
0000
0000
0000
1000
0100
,
1000
0000
0001
0000
0010
0000
0001
0000
2000
0000
0000
0000
3100
0000
1000
0001
,
1000
0010
1000
0001
0200
0000
0301
0000
,
0001
0010
1000
0001
0100
1000
0010
0001
,
0010
0000
0000
1000
0000
0000
0100
0000
0001
0000
0000
0000
0110
0000
0001
0100
,
0001
0000
1000
0000
0010
0000
1000
0000
0002
0000
0000
0000
0103
0000
0001
1000
,
0001
0010
0001
1000
0200
0000
1300
0000
,
1000
0010
0001
1000
0100
0001
0010
1000
,
0110
0000
0000
0011
0000
0000
1100
0000
0110
0000
0000
0000
0011
0000
0000
0000
,
0020
0000
0000
0000
0001
0000
0000
0000
0100
0000
0000
1000
0000
0000
1030
0000
,
0000
0000
0010
0000
0100
0000
1000
0000
0001
0000
0000
0100
0000
0000
1000
0000
,
0100
0000
0001
1000
0000
1000
0000
0100
,
0000
0100
0010
0000
0001
0000
1100
0000
,
0001
0010
0100
1000
0100
0000
0001
0000
,
0100
0010
0001
0100
1000
0000
0100
0000
,
0001
0000
0000
1000
0000
0000
0100
0000
1000
0000
0000
0010
0000
0000
0001
0000
,
0011
0110
1010
1001
,
0210
0010
0010
0310
,
0000
0001
1000
0110
,
1000
0000
0100
0000
0010
0000
0100
0000
1000
0000
0001
0000
0010
0000
0001
0010
,
0001
1000
0100
0010
0100
1000
0001
0000
,
1000
0100
0001
0100
1000
0100
0001
0000
,
0100
0010
0001
0100
0010
0100
0001
0010
,
0001
0000
0100
0000
0010
0000
0100
0000
0001
0000
1000
0000
0010
0000
1000
0010
,
1000
0001
0100
0001
0010
0001
1000
0000
,
0001
0100
1000
0100
0001
0000
1000
0000
,
0001
0000
0010
0001
0000
0000
0000
0000
0200
0000
0000
0000
0310
0000
0000
0000
,
0001
0100
0010
0100
0001
1000
0010
1000
,
0100
0001
0100
1000
0010
1000
0001
0000
,
0001
0000
0100
0000
1000
0000
0100
0000
0001
0000
0000
0000
1000
0000
0010
0100
,
0010
0100
0001
0100
1000
0100
0001
0010
,
1000
0000
0010
0000
0100
0000
0010
0000
0001
0000
1000
0000
0100
0000
0010
0100
,
0010
0000
0001
0000
0010
0000
0001
0010
0000
0000
0101
0000
1100
0000
0000
0000
,
1000
0100
0001
0100
1000
0000
0110
0000
,
1020
0100
0001
0130
,
2002
0000
0000
3003
,
0001
0000
0100
0001
0000
1000
0000
0100
0010
0000
0100
0000
1000
0000
0001
0000
,
1000
0000
0100
1000
0000
0001
0000
0100
0010
0100
0010
0000
1000
0000
0001
0000
,
0020
0001
1000
0130
,
0001
0000
0100
0000
0001
0100
0000
0010
0000
0000
0000
1001
0000
0000
0000
0000
,
1000
0000
0100
1000
0000
0001
0000
0100
0010
0000
0100
0000
0001
0000
1000
0000
,
0001
0000
0101
0000
0100
0010
0000
0100
0000
0000
0010
0000
1000
0000
0001
0000
,
0020
1000
0001
0130
,
1000
0000
0100
0000
1000
0100
0000
0010
0000
0000
0000
1001
0000
0000
0001
1000
,
0000
0000
0000
0110
,
2002
0000
0000
3003
,
0000
0000
0000
0000
;
#NOTES:
     dance-single:
     :
     Challenge:
     15:
     :
0000
0000
0000
0000
,
0000
0000
0000
0000
,
0000
0000
0000
0000
,
0000
0000
0000
0000
,
0000
0000
0000
0000
,
0011
0000
0000
0000
,
0000
0000
0000
0000
0000
0000
0000
1100
,
1100
0000
0000
0000
,
0001
0010
0100
1000
0100
0010
0001
0010
,
0100
0000
0000
0110
,
1000
0000
1000
0000
0001
0010
0000
0010
0100
0010
0100
0000
1000
0000
0001
1000
,
0010
0000
0010
0000
0100
0001
0000
0001
1000
0001
1000
0000
0100
0000
0010
0000
,
0001
0000
0001
0000
1000
0100
0000
1000
0100
0000
0010
0001
0000
0010
0100
0010
,
0100
0000
0100
0000
1000
0001
0000
1000
0010
0100
0010
0100
0000
0001
0100
0010
,
1000
0000
1000
0000
0001
0100
0000
0100
0010
0100
0010
0000
0100
0000
0001
1000
,
0100
0000
0100
0000
1000
0100
0000
0100
0010
0100
0010
0000
1001
0000
0000
0000
,
1000
0000
1000
0000
0001
0100
0000
0001
0100
0000
0010
1000
0000
0010
0100
0010
,
0100
0000
0100
0000
0001
1000
0000
0001
0010
0100
0010
0100
0000
0010
0100
0010
,
0002
0000
0000
0000
0000
0000
0000
0000
0003
0000
0000
0000
1001
0000
0001
0100
,
0001
0000
1000
0000
0010
0000
1000
0002
0100
0000
0103
0000
0010
0000
1000
0100
,
1000
0000
0001
0000
0010
0000
0001
2000
0100
0000
3100
0000
0010
0000
0001
0010
,
0001
0000
1000
0010
0100
0000
0010
0000
1000
0000
0100
0000
0010
0000
0001
0000
,
1000
0000
0001
0100
0000
0010
0100
0000
0001
0000
0010
0000
0110
0000
1000
0010
,
1000
0000
0001
0000
0100
0000
0001
2000
0010
0000
3010
0000
0100
0000
0001
0010
,
0001
0000
1000
0000
0100
0000
1000
0002
0010
0000
0013
0000
0100
0000
1000
0100
,
1000
0000
0001
0100
0010
0000
0100
0000
0001
0000
0010
0000
0100
0000
1000
0000
,
0001
0000
1000
0010
0000
0100
0010
0000
1000
0000
0100
0000
0110
0000
0000
0000
,
0001
0000
0000
1000
0010
0000
0000
0010
0100
0000
0000
0100
0001
0000
0010
0000
,
0001
0000
1000
0000
0010
0000
0100
0000
0001
0000
1000
0100
0000
0010
0100
0000
,
1000
0001
0100
0100
0010
1000
0001
0001
,
1000
0000
0100
0000
0010
0000
0100
0000
0010
0000
0010
0000
0001
0000
1000
0010
,
1000
0000
0000
0010
0100
0000
0001
0000
0010
0000
0100
0000
0110
0000
0000
0000
,
0010
0000
0000
0001
0100
0000
0010
0000
1000
0000
0001
0000
1001
0000
0000
0000
,
1000
0000
0000
0010
0100
0000
0001
0000
1000
0000
0000
0001
0010
0000
0100
0000
,
1000
0010
0110
0000
1000
0001
0011
0000
,
1000
0010
1000
0010
0100
0001
0000
0001
1000
0000
0001
0010
0100
0010
0000
0010
,
0001
1000
0010
0110
,
2000
0000
0001
0000
3001
0000
1000
0020
0100
0000
0130
0000
0010
0000
0100
0001
,
0100
0000
0001
0000
0010
0000
0100
1000
0001
0000
1000
0000
0001
0000
0100
0000
,
0002
0000
1000
0000
1003
0000
0001
0020
0100
0000
0130
0000
0010
0000
0001
0000
,
0100
0000
1000
0000
0100
0000
0001
1000
0100
0000
1000
0000
0010
0000
0100
0000
,
0020
0000
1000
0000
1030
0000
0001
2000
0010
0000
3010
0000
1000
0000
0001
0000
,
0100
0000
0001
0000
0010
0000
0100
1000
0001
0000
1000
0100
0010
0000
0100
0000
,
1000
0010
0100
0000
0001
0000
0010
0100
0010
0000
0001
0000
1000
0000
0010
0100
,
0010
0000
0100
0010
0000
1000
0001
0000
1000
0100
0010
0001
1000
0000
0000
0000
,
0002
0000
1000
0000
1003
0000
0001
0200
0010
0000
0310
0000
0100
0000
0010
1000
,
0010
0000
1000
0000
0100
0000
0010
0001
1000
0000
0001
0000
1000
0000
0010
0000
,
2000
0000
0001
0000
3001
0000
1000
0200
0010
0000
0310
0000
0100
0000
0010
0001
,
0010
0000
0001
0000
1000
0000
0010
0100
0010
0000
1000
0000
0001
0000
0010
0000
,
0200
0000
1000
0000
1300
0000
0001
2000
0010
0000
3010
0000
0100
0000
0001
0000
,
1000
0000
0001
0000
1000
0000
0010
0100
0000
0000
0101
0000
1100
0000
1001
0000
,
1000
0000
0100
0000
0001
0000
0100
1000
0000
0000
0000
0000
0110
0000
0000
0000
,
1000
0100
1000
0100
0010
0001
1000
0000
0001
0100
0001
0100
0010
1000
0001
0000
,
2002
0000
0000
3003
,
0001
0000
0001
0000
1000
0010
0000
0010
0100
0010
0100
0000
0001
0000
1000
0001
,
0010
0000
0010
0000
0100
1000
0000
1000
0001
1000
0001
0000
0100
0000
0010
0000
,
1000
0000
1000
0000
0001
0100
0000
0001
0100
0000
0010
1000
0000
0010
0100
0010
,
0100
0000
0100
0000
0001
1000
0000
0001
0010
0100
0010
0100
0000
1000
0100
0010
,
0001
0000
0001
0000
1000
0100
0000
0100
0010
0100
1000
0000
0001
0000
0100
0010
,
1000
0000
1000
0000
0100
0010
0000
0010
0100
1000
0001
0000
0110
0000
0000
0000
,
0001
0000
0001
0000
1000
0100
0000
1000
0100
0000
0010
0001
0000
0010
0100
0010
,
0100
0000
0100
0000
1000
0001
0000
1000
0010
0100
0010
1000
0000
0001
0010
0100
,
2000
0000
3000
0110
,
2002
0000
0000
3003
,
0000
0000
0000
0000
;
#NOTES:
     dance-double:
     :
     Easy:
     5:
     :
00000000
00000000
00000000
00000000
,
00000000
00000000
00000000
00000000
,
00000000
00000000
00000000
00000000
,
00000000
00000000
00000000
00000000
,
00000000
00000000
00000000
00000000
,
10010000
00000000
00000000
00000000
,
00000000
00000000
00000000
00010000
,
00011000
00000000
00000000
00000000
,
00002002
00000000
00000000
00003003
,
00000000
00000000
00000000
00000000
,
00000001
00000001
00000100
00001000
,
00010000
00001000
00010000
00000000
,
00200000
01000000
00000000
01300000
,
20000000
00010000
30010000
00000000
,
10000000
10000000
01000000
00010000
,
00001000
00010000
00001000
00000000
,
00000200
00000010
00000000
00000310
,
00000002
00001000
00001000
00001003
,
00000000
00000000
00000000
00000000
,
00000001
00000001
00000100
00000010
,
00001000
00000001
00001000
00000000
,
00000100
00000100
00010000
00010000
,
00001000
00010000
00001000
00000000
,
00010000
00010000
00100000
10000000
,
00010000
01000000
00100000
00000000
,
10000000
10000000
01000000
01000000
,
00010000
00001000
00010000
00000000
,
00002000
00000010
00000000
00003010
,
00000002
00000100
00000100
00000103
,
00000020
00001000
00000000
00001030
,
00000002
00000010
00000013
00000000
,
00000001
00000100
00001000
00000000
,
00010000
00001000
00010000
00000000
,
00100000
00100000
10000000
10000000
,
10010000
00000000
01100000
00000000
,
20020000
00000000
00000000
30030000
,
00000000
00010000
00010000
00010000
,
10000000
01000000
00010000
00000000
,
00001000
00010000
00001000
00001000
,
00000010
00000001
00000010
00000000
,
00000100
00001000
00001001
00000000
,
00000001
00000001
00000100
00000000
,
00001000
00010000
00001000
00001000
,
00010000
00100000
00100000
10000000
,
10000000
00010000
10010000
00000000
,
10000000
01000000
00010000
00000000
,
00001000
00010000
00001000
00001000
,
00000010
00000001
00000010
00000000
,
00000100
00001000
00001001
00000000
,
00000001
00000001
00000100
00000000
,
00001000
00010000
00011000
00000000
,
00010000
00100000
00100000
10000000
,
20000000
00000000
00000000
30010000
,
00020000
00000000
00000000
10030000
,
10000000
10000000
01000000
00010000
,
00001000
00010000
00001000
00000000
,
00000020
00000100
00000000
00000130
,
00000002
00001000
00001003
00000000
,
00000001
00000001
00000100
00001000
,
00010000
00001000
00010000
00000000
,
02000000
00100000
00000000
03100000
,
20000000
00010000
00010000
30010000
,
00000000
00000000
00000000
00000000
,
20020000
00000000
00000000
30030000
,
00000000
00000000
00000000
00000000
;
#NOTES:
     dance-double:
     :
     Medium:
     10:
     :
00000000
00000000
00000000
00000000
,
00000000
00000000
00000000
00000000
,
00000000
00000000
00000000
00000000
,
00000000
00000000
00000000
00000000
,
00000000
00000000
00000000
00000000
,
20000000
01000000
01000000
31000000
,
10000000
01000000
00010000
00000000
00001000
00010000
00001000
00000000
,
00000020
00000001
00000001
00000031
,
00002002
00000000
00000000
00000000
,
00000000
00000000
00003003
00001001
,
00000001
00000100
00001000
00000000
00010000
00000000
00011000
00000000
,
00010000
00100000
10000000
00000000
00100000
00000000
01100000
00000000
,
20000000
30010000
00020000
01030000
,
02000000
03001000
00002000
00013000
,
00001000
00000010
00000001
00000000
00001000
00000000
00001010
00000000
,
00000001
00000100
00001000
00000000
00010000
00000000
00110000
00000000
,
01000000
00100000
01000000
00000000
00010000
10000000
00010000
00000000
,
00100000
00001000
00010000
00000000
00001000
00010000
00001000
00000010
,
00000002
00000000
00000003
00001001
,
00000001
00000100
00000001
00000000
00000100
00001000
00010000
00000000
,
00002000
00000000
00013000
00000000
00100000
01000000
00010000
00000000
,
10000000
00100000
10000000
00000000
00010000
01000000
00010000
00000000
,
10000000
01000000
00010000
00001000
00010000
00000000
00000000
00000000
,
00001000
00000010
00001000
00000000
00000010
00000001
00001000
00000000
,
00000002
00000000
00000103
00000000
00000010
00010000
00001000
00000000
,
00010000
00001000
00010000
00000000
00100000
01000000
00100000
00000000
,
10000000
00010000
01000000
00100000
10000000
00000000
00000000
00000000
,
10000000
10000000
01000000
00000000
01000000
01000000
00010000
00000000
,
00001000
00000000
00010000
00000000
00001000
00000000
00000000
00000000
00010000
00000000
00000000
00001000
00000000
00000000
00010000
00000000
,
00001000
00001000
00000010
00000000
00000010
00000010
00000001
00000000
,
00001000
00000010
00000100
00000001
00001000
00000000
00001001
00000000
,
00000001
00000000
00000000
00000100
00000000
00000000
00001000
00000000
00010000
00000000
00000000
00000000
00000000
00000000
00000000
00000000
,
00010000
00000000
00000000
00100000
00000000
00000000
10000000
00000000
00010000
00000000
00000000
00000000
00000000
00000000
00000000
00000000
,
10000000
00000000
00000000
01000000
00000000
00000000
00010000
00000000
00001000
00000000
00000000
00010000
00000000
00000000
00001000
00000000
,
00000020
00000031
00000200
00001300
,
00000010
00000001
00000100
00001000
00010000
00001000
00010000
00000000
,
00011000
00000000
00000000
01100000
,
00010000
10000000
00010000
00000000
01000000
00100000
01000000
00000000
,
00010000
10000000
01000000
00010000
00001000
00000000
00011000
00000000
,
00000010
00000001
00000010
00000000
00000100
00001000
00000100
00000000
,
00000010
00000001
00000100
00001000
00010000
00000000
00011000
00000000
,
00100000
01000000
00010000
00000000
10000000
00010000
01000000
00000000
,
00100000
10000000
00010000
01000000
00001000
00000000
00011000
00000000
,
00000010
00000010
00000001
00000001
,
00001000
00000001
00001001
00000000
00000000
00000000
00000110
00000000
,
00001000
00000001
00001000
00000000
00000010
00000100
00000010
00000000
,
00001000
00000001
00000010
00001000
00010000
00000000
00011000
00000000
,
01000000
10000000
01000000
00000000
00100000
00010000
00100000
00000000
,
01000000
10000000
00100000
00010000
00001000
00000000
00011000
00000000
,
00000100
00000010
00001000
00000000
00000001
00001000
00000010
00000000
,
00000100
00000001
00001000
00000010
00010000
00000000
00011000
00000000
,
01000000
01000000
10000000
10000000
,
02000000
00010000
03010000
00001000
,
00000020
00000001
00000031
00001001
,
00000001
00000100
00001000
00000000
00010000
00000000
00011000
00000000
,
00010000
00100000
10000000
00000000
00100000
00000000
01100000
00000000
,
20000000
30010000
00020000
01030000
,
02000000
03001000
00002000
00013000
,
00001000
00000010
00000001
00000000
00001000
00000000
00001010
00000000
,
00000001
00000100
00001000
00000000
00010000
00000000
00110000
00000000
,
01000000
00100000
01000000
00000000
00010000
10000000
00010000
00000000
,
00100000
00001000
00010000
00000000
00001000
00010000
00001000
00000010
,
00000002
00000000
00000003
00001001
,
00002002
00000000
00000000
00003003
,
00000000
00000000
00000000
00000000
;
#NOTES:
     dance-double:
     :
     Hard:
     13:
     :
00000000
00000000
00000000
00000000
,
00000000
00000000
00000000
00000000
,
00000000
00000000
00000000
00000000
,
00000000
00000000
00000000
00000000
,
00000000
00000000
00000000
00000000
,
20000000
00010000
30020000
00100000
,
00130000
00001000
00010000
00001000
00000010
00000001
00000010
00000000
,
00000200
00010000
00020300
00001000
,
00230000
00010000
01000000
10300000
,
00010000
00100000
01000000
10000000
00100000
01000000
01010000
00000000
,
10000000
00000000
01000000
00010000
00000000
00001000
00000000
00000000
00100000
00000000
00001000
00000000
00010000
00000000
00000100
00000000
,
00000010
00000000
00000001
00000100
00000000
00000010
00000000
00000000
00001000
00000000
00000100
00000000
00000010
00000000
00000001
00000000
,
00000010
00000000
00001000
00000010
00000000
00001000
00000010
00000000
00001000
00000000
00010000
00001000
00000000
00010000
00001000
00000000
,
00010000
00000000
00100000
00000000
10000000
00100000
00000000
01100000
00000000
00000000
00000000
10010000
00000000
00000000
00000000
00000000
,
10000000
00000000
01000000
00000000
00010000
00000000
00001000
00000000
00100000
00010000
00001000
00000000
00000100
00000000
00000010
00000000
,
00000001
00000000
00000100
00000000
00000010
00000001
00000000
00000011
00000000
00000000
00000000
00000000
00001100
00000000
00000000
00000000
,
00001000
00000000
00010000
00001000
00000000
00010000
00001000
00000000
00100000
00000000
00010000
00100000
00000000
00010000
00100000
00000000
,
01000000
00000000
10000000
00000000
00010000
01000000
00000000
00100000
00000000
00000000
00000000
01100000
00000000
00000000
10010000
00000000
,
00000000
00000000
00000000
00000000
00000000
00000000
00000000
00010000
,
10000000
01000000
00100000
00010000
00001000
00000000
00000110
00000001
,
00000010
00000000
00000100
00000000
00001000
00000000
00000001
00000000
00000100
00000000
00000000
00000000
00001010
00000000
00000001
00001000
,
00000001
00000000
00000100
00000000
00000000
00000000
00001000
00010000
00001000
00000000
00010000
00000000
00100000
00000000
10000000
00000000
,
00010000
01000000
00100000
10000000
01000000
00000000
00110000
10000000
,
01000000
00010000
00001000
00010000
00100000
00000000
00010000
00001000
,
00000010
00000001
00000010
00001000
00010000
00001000
00000100
00000000
,
00000001
00000010
00001000
00010000
00001000
00000100
00001000
00010000
,
00200000
00000000
00000000
10300000
00000000
00000000
00010000
00000000
10010000
00000000
00000000
00000000
00000000
00000000
00000000
00000000
,
10000000
00000000
00100000
10000000
00000000
00000000
00100000
00000000
01000000
00000000
00010000
01000000
00000000
00000000
00010000
00000000
,
00100000
00000000
00001000
00000000
00010000
00000000
00000100
00000000
00000110
00000000
00000000
00000011
00000000
00000000
00000101
00000000
,
00000001
00000000
00000100
00000000
00001000
00000000
00010000
00000000
00001000
00000000
00010000
00100000
00010000
00000000
00100000
00000000
,
01000000
10000000
00010000
00100000
10000000
01000000
01010000
00000000
,
10000000
00000000
01000000
00000000
00100000
00000000
00010000
00000000
01000000
00100000
01000000
00000000
01100000
00000000
00000000
00000000
,
10000000
00000000
01000000
00000000
00010000
00000000
00001000
00000000
00000010
00000001
00000010
00000000
00000011
00000000
00000000
00000000
,
00000001
00000010
00001000
00010000
00000010
00001000
00010000
01000000
,
00100000
10000000
00000000
00000000
00010000
00000000
01000000
00000000
00001000
00010000
00000000
00000000
01000000
00000000
10000000
00000000
,
01000000
01000000
00010000
00010000
00001000
00001000
00000010
00000010
,
00000002
00001000
00001003
00001001
,
00000001
00000000
00000100
00000000
00001000
00000000
00000100
00000000
00000001
00000000
00000010
00000100
00000000
00001000
00000100
00000000
,
00010000
00000000
00001000
00000000
00010000
00000000
00100000
00000000
10000000
00010000
01000000
00000000
00100000
00000000
10000000
00000000
,
01000000
00000000
00010000
00000000
00001000
00000000
00010000
00000000
01000000
00000000
00010000
00001000
00000000
00000010
00001000
00000000
,
00000001
00000100
00000010
00001000
00000001
00000100
00001000
00000000
,
00000001
00000000
00000100
00000000
00000010
00000000
00001000
00000000
00000001
00000000
00000010
00001000
00000000
00010000
00001000
00000000
,
00000100
00000000
00001000
00000000
00010000
00000000
00100000
00000000
01000000
00100000
10000000
00000000
00010000
00000000
01000000
00000000
,
00100000
10000000
01000000
00010000
00001000
00000010
00000001
00000100
,
00001000
00000000
00010000
00001000
00000000
00000000
00000000
00000000
00010000
00000000
00100000
00000000
01100000
00000000
00000000
00000000
,
10000000
00000000
01000000
00000000
00010000
00000000
01000000
00000000
10000000
00000000
00100000
01000000
00000000
00010000
01000000
00000000
,
00001000
00000000
00010000
00000000
00001000
00000000
00000010
00000000
00000001
00001000
00000100
00000000
00000010
00000000
00000001
00000000
,
00000100
00000000
00001000
00000000
00010000
00000000
00001000
00000000
00000100
00000000
00001000
00010000
00000000
00100000
00010000
00000000
,
10000000
01000000
00100000
00010000
10000000
01000000
00010000
00000000
,
10000000
00000000
01000000
00000000
00100000
00000000
00010000
00000000
10000000
00000000
00100000
00010000
00000000
00001000
00010000
00000000
,
01000000
00000000
00010000
00000000
00001000
00000000
00000010
00000001
00000000
00000000
00000010
00000000
00000110
00000000
00000000
00000000
,
00000010
00000001
00000100
00001000
00010000
00100000
10000000
01000000
,
00020000
00000000
00001000
00000000
00001000
00000000
00031000
00000010
,
00000002
00001000
00001003
00001001
,
00000001
00000000
00000100
00001000
00000000
00010000
00000000
00000000
00000010
00000000
00010000
00000000
00001000
00000000
01000000
00000000
,
00100000
00000000
10000000
01000000
00000000
00100000
00000000
00000000
00010000
00000000
01000000
00000000
00100000
00000000
10000000
00000000
,
00100000
00000000
00010000
00100000
00000000
00010000
00100000
00000000
00010000
00000000
00001000
00010000
00000000
00001000
00010000
00000000
,
00001000
00000000
00000010
00000000
00000001
00000010
00000000
00000110
00000000
00000000
00000000
00001001
00000000
00000000
00000000
00000000
,
00000001
00000000
00000100
00000000
00001000
00000000
00010000
00000000
00000010
00001000
00010000
00000000
01000000
00000000
00100000
00000000
,
10000000
00000000
01000000
00000000
00100000
10000000
00000000
10100000
00000000
00000000
00000000
00000000
01010000
00000000
00000000
00000000
,
00010000
00000000
00001000
00010000
00000000
00001000
00010000
00000000
00000010
00000000
00001000
00000010
00000000
00001000
00000010
00000000
,
00000100
00000000
00000001
00000000
00001000
00000100
00000000
00000010
00000000
00000000
00000000
00000110
00000000
00000000
00001001
00000000
,
00000000
00000000
00000000
00000110
,
00002002
00000000
00000000
00003003
,
00000000
00000000
00000000
00000000
;
#NOTES:
     dance-double:
     :
     Challenge:
     15:
     :
00000000
00000000
00000000
00000000
,
00000000
00000000
00000000
00000000
,
00000000
00000000
00000000
00000000
,
00000000
00000000
00000000
00000000
,
00000000
00000000
00000000
00000000
,
00000002
00001000
00002003
00000010
,
00003010
00010000
00001000
00010000
00100000
10000000
01000000
10000000
,
20000000
00000000
32000000
00000000
03020000
00000000
00031000
00000010
,
00000001
00000010
00000100
00001000
00010000
00100000
01000000
10000000
,
00010000
00000000
00000000
01100000
,
10000000
00000000
10000000
00000000
00010000
00100000
00000000
00100000
00001000
00010000
00001000
00000000
00010000
00000000
00000100
00000000
,
00001000
00000000
00001000
00000000
00000001
00000100
00000000
00000100
00000010
00001000
00000010
00000000
00010000
00000000
00001000
00000000
,
01000000
00000000
01000000
00000000
00010000
10000000
00000000
00100000
10000000
00000000
00100000
01000000
00000000
00010000
01000000
00010000
,
10000000
00000000
10000000
00000000
01000000
00010000
00000000
00001000
00010000
00001000
00010000
00001000
00000000
00010000
00000100
00001000
,
00000001
00000000
00000001
00000000
00000010
00000100
00000000
00001000
00000100
00001000
00000100
00000000
00010000
00000000
00001000
00000000
,
00100000
00000000
00100000
00000000
00010000
01000000
00000000
00100000
10000000
00100000
10000000
00000000
10010000
00000000
00000000
00000000
,
10000000
00000000
10000000
00000000
00010000
01000000
00000000
00010000
01000000
00000000
00001000
00010000
00000000
00000010
00001000
00000010
,
00000100
00000000
00000100
00000000
00000001
00000010
00000000
00000100
00001000
00000100
00001000
00000100
00000000
00010000
00001000
01000000
,
00020000
00000000
00000000
00000000
00000000
00000000
00000000
00000000
00030000
00000000
00000000
00000000
10010000
00000000
10000000
00100000
,
10000000
00000000
01000000
00000000
00010000
00000000
00001000
00000020
00000100
00000000
00000130
00000000
00000010
00000000
00000001
00000010
,
00000001
00000000
00000100
00000000
00001000
00000000
00010000
02000000
00100000
00000000
03100000
00000000
01000000
00000000
10000000
00010000
,
10000000
00100000
01000000
00001000
00010000
00001000
00000010
00000001
,
00001000
00000000
00000100
00010000
00000000
00001000
01000000
00000000
00010000
00000000
10000000
00000000
10010000
00000000
00010000
00100000
,
00010000
00000000
00100000
00000000
00001000
00000000
00010000
00000020
00001000
00000000
00001030
00000000
00000001
00000000
00000010
00000100
,
00000010
00000000
00000100
00000000
00010000
00000000
00001000
00200000
00010000
00000000
00310000
00000000
10000000
00000000
01000000
00100000
,
01000000
00010000
00001000
00100000
00010000
00001000
00000100
00000010
,
00000001
00000000
00001000
00000010
00000000
00000100
00000001
00000000
00001000
00000000
00000010
00000000
00001010
00000000
00000000
00000000
,
00001000
00000000
00000000
00000100
00010000
00000000
00000000
00010000
00001000
00000000
00000000
00001000
00100000
00000000
00010000
00000000
,
10000000
00000000
00100000
00000000
01000000
00000000
00010000
00000000
10000000
00000000
01000000
00010000
00000000
00001000
00010000
00000000
,
00000010
00001000
00000100
00000100
00000010
00000001
00001000
00001000
,
00000001
00000010
00001000
00010000
00001000
00001000
00010000
01000000
,
10000000
00000000
00000000
00010000
00100000
00000000
00001000
00000000
00010000
00000000
00000010
00000000
00001010
00000000
00000000
00000000
,
00000001
00000000
00000000
00001000
00000100
00000000
00010000
00000000
00001000
00000000
01000000
00000000
01010000
00000000
00000000
00000000
,
10000000
00000000
00000000
00100000
00010000
00000000
00001000
00000000
00010000
00000000
00000000
00001000
00000100
00000000
00000001
00000000
,
00001000
00000100
00001100
00000000
00000100
00010000
00011000
00000000
,
00001000
00100000
00001000
00100000
00010000
00100000
00000000
00100000
01000000
00000000
10000000
00000000
00010000
01000000
00010000
00000000
,
10000000
01000000
00010000
00001000
,
00020000
00000000
00000010
00000000
00030010
00000000
00001000
00000002
00000100
00000000
00000103
00000000
00000001
00000000
00001000
00000100
,
00001000
00000000
00000001
00000000
00000010
00000000
00000100
00001000
00000100
00000000
00010000
00000000
00001000
00000000
00100000
00000000
,
00002000
00000000
01000000
00000000
01003000
00000000
00010000
20000000
00100000
00000000
30100000
00000000
10000000
00000000
01000000
00000000
,
00100000
00000000
00010000
00000000
00001000
00000000
00000100
00000010
00000100
00000000
00001000
00000000
00000001
00000000
00000010
00000000
,
00000200
00000000
00001000
00000000
00001300
00000000
00000100
00020000
00001000
00000000
00031000
00000000
01000000
00000000
00010000
00000000
,
10000000
00000000
00100000
00000000
10000000
00000000
00010000
01000000
00100000
00000000
10000000
00000000
01000000
00000000
00010000
00000000
,
00001000
00010000
00001000
00000000
00010000
00000000
00000100
00001000
00000100
00000000
00001000
00000000
00000001
00000000
00000100
00000010
,
00000100
00000000
00000001
00000010
00000000
00000100
00001000
00000000
00000100
00000000
00010000
00001000
00010000
00000000
00000000
00000000
,
00002000
00000000
00100000
00000000
00103000
00000000
00010000
20000000
01000000
00000000
31000000
00000000
10000000
00000000
00010000
01000000
,
00010000
00000000
10000000
00000000
00100000
00000000
01000000
00010000
01000000
00000000
00001000
00000000
00010000
00000000
00000010
00000000
,
00020000
00000000
00000100
00000000
00030100
00000000
00001000
00000002
00000010
00000000
00000013
00000000
00000001
00000000
00000100
00000000
,
00000010
00000000
00001000
00000000
00010000
00000000
01000000
00100000
01000000
00000000
00010000
00000000
10000000
00000000
00100000
00000000
,
02000000
00000000
00010000
00000000
03010000
00000000
01000000
00002000
00010000
00000000
00013000
00000000
00000100
00000000
00001000
00000000
,
00000001
00000000
00000010
00000000
00000001
00000000
00001000
00000001
00000000
00000000
00000100
00000000
00000010
00000000
00000110
00000000
,
00000001
00000000
00000100
00000000
00001000
00000000
00010000
01000000
00000000
00000000
00000000
00000000
01100000
00000000
00000000
00000000
,
10000000
01000000
10000000
01000000
00100000
00000000
00010000
00000000
01000000
00001000
01000000
00001000
00010000
00000000
00000010
00000000
,
00000220
00000000
00000000
00000330
,
00000001
00000000
00000001
00000000
00001000
00000100
00000000
00000100
00010000
00001000
00010000
00000000
00001000
00000000
00100000
00000000
,
00010000
00000000
00010000
00000000
10000000
00100000
00000000
00100000
01000000
00010000
01000000
00000000
00001000
00000000
00010000
00000000
,
00000010
00000000
00000010
00000000
00001000
00000001
00000000
00000100
00000001
00000000
00000100
00000010
00000000
00001000
00000010
00001000
,
00000001
00000000
00000001
00000000
00000010
00001000
00000000
00010000
00001000
00010000
00001000
00010000
00000000
00001000
00100000
00010000
,
10000000
00000000
10000000
00000000
01000000
00100000
00000000
00010000
00100000
00010000
00100000
00000000
00001000
00000000
00010000
00000000
,
00000100
00000000
00000100
00000000
00001000
00000010
00000000
00000100
00000001
00000100
00000001
00000000
00001001
00000000
00000000
00000000
,
00000001
00000000
00000001
00000000
00000100
00001000
00000000
00010000
00001000
00000000
00010000
01000000
00000000
10000000
00010000
01000000
,
00100000
00000000
00100000
00000000
10000000
01000000
00000000
00010000
00001000
00010000
00000010
00001000
00000000
00000001
00000010
00000100
,
00002000
00000000
00003000
00011000
,
02200000
00000000
00000000
03300000
,
00000000
00000000
00000000
00000000
;
