
//----- song ID: hims -----//
#TITLE:向日葵サンセット;
#ARTIST:ARM・まろん (IOSYS) × ランコ・パプリカ (豚乙女);
#TITLETRANSLIT:Himawari sunset;
#ARTISTTRANSLIT:ARM・Maron (IOSYS) × ranko・paprika (Butaotome);
#BANNER:Himawari sunset.png;
#BACKGROUND:Himawari sunset-bg.png;
#CDTITLE:./CDTitles/REFLEC BEAT Yuukyuu no Reflesia.png;
#MUSIC:Himawari sunset.ogg;
#SAMPLESTART:65.097;
#SAMPLELENGTH:15;
#BPMS:0=135;
#NOTES:
     dance-single:
     :
     Beginner:
     3:
     :
0000
0000
0000
0000
,
0000
0000
0000
0000
,
0000
0000
0000
0000
,
0000
0000
0000
0000
,
0000
0000
0000
0000
,
0001
0000
0001
0000
,
0010
0000
0010
0000
,
1000
0000
0000
0000
,
1001
0000
0000
0000
,
2000
3000
0000
0000
,
1000
1000
0010
0000
,
0002
0003
0000
0000
,
0001
0001
0010
0000
,
0001
0001
0001
0000
,
0100
0100
0100
0000
,
1000
1000
1000
1000
,
0010
0000
0000
0000
,
0002
0003
0000
0000
,
0001
0001
0010
0000
,
2000
3000
0000
0000
,
1000
1000
0010
0000
,
1000
0000
1000
0000
,
0001
0000
0001
0000
,
1001
0000
0000
0000
,
0000
0000
0000
0000
,
0001
0010
0001
0010
,
0100
0100
0100
0000
,
1001
0000
0000
0000
,
1001
0000
0000
0000
,
0002
0003
0001
0000
,
2000
3000
1000
0000
,
1001
0000
0000
0000
,
1001
0000
0000
0000
,
1000
0010
1000
0000
,
0001
0010
0001
0000
,
0200
0000
0000
0000
,
0300
0000
0000
0000
,
0001
0000
0001
0010
,
0020
0030
0000
0000
,
1000
0000
1000
0010
,
0020
0030
0000
0000
,
1001
0000
1001
0000
,
1001
0000
1001
0000
,
0002
0003
0001
0000
,
2000
3000
1000
0000
,
1000
0000
1000
0010
,
0020
0030
0000
0000
,
0001
0000
0001
0010
,
0020
0030
0000
0000
,
1001
0000
1001
0000
,
1001
0000
1001
0000
,
2002
0000
0000
3003
,
0000
0000
0000
0000
,
1000
0000
1000
0000
,
0002
0000
0003
0000
,
0010
0000
0010
0000
,
0200
0000
0300
0000
,
1000
0000
0001
0000
,
0010
0000
1001
0000
,
0000
0000
0000
0000
;
#NOTES:
     dance-single:
     :
     Easy:
     5:
     :
0000
0000
0000
0000
,
0000
0000
0000
0000
,
0000
0000
0000
0000
,
0000
0000
0000
0000
,
0000
0000
0000
0000
,
0002
0000
2003
0000
,
3020
0000
0230
0000
,
0310
0000
0000
0000
,
1001
0000
0000
0000
,
0001
0100
0010
1000
,
0001
0010
0100
0000
,
1000
0100
0010
0001
,
1000
0010
0100
0001
,
0000
1000
1000
0010
,
0000
0001
0001
0100
,
0000
0010
1000
0001
,
0100
0010
1001
0000
,
1000
0100
0010
0001
,
1000
0010
0100
0000
,
0001
0100
0010
1000
,
0001
0010
0100
1000
,
0002
0000
2003
0000
,
3020
0000
0130
0100
,
1001
0000
0000
0000
,
0000
0000
0000
0000
,
0002
2003
3020
0230
,
0302
1003
1001
0000
,
0110
0000
0000
0000
,
1001
0000
0000
0000
,
1000
0010
0001
0010
,
1000
0100
0001
0000
,
0110
0000
0000
0000
,
1001
0000
0000
0000
,
0001
0010
0100
1000
,
0010
0010
0100
0100
,
2002
0000
0000
0000
,
3003
0000
0000
0000
,
0001
1000
0100
0010
,
0002
0000
0003
0000
,
1000
0001
0100
0010
,
2000
0000
3000
0000
,
0002
0000
0023
0000
,
0230
0000
1300
0000
,
0010
1000
0100
0010
,
0001
1000
1001
0000
,
1000
0001
0100
0010
,
2000
0000
3000
0000
,
0001
1000
0100
0010
,
0002
0000
0003
0000
,
2000
0000
3020
0000
,
0230
0000
0302
0000
,
0023
0000
0230
0000
,
1300
0000
0000
0000
,
1001
0000
0110
0000
,
1001
0000
0000
0000
,
0011
0000
0110
0000
,
1100
0000
0000
0000
,
2000
0000
3200
0000
,
0310
0000
1001
0000
,
0000
0000
0000
0000
;
#NOTES:
     dance-single:
     :
     Medium:
     10:
     :
0000
0000
0000
0000
,
0000
0000
0000
0000
,
0000
0000
0000
0000
,
0000
0000
0000
0000
,
0000
0000
0000
0000
,
0002
0000
0023
0000
,
0230
0000
2300
0000
,
3002
0000
0000
0003
,
1000
0001
1000
0001
1001
0000
0000
0000
,
1000
0010
0100
0002
0000
0000
0003
0000
,
1000
0100
0010
0001
0000
0010
0100
1000
,
0001
0100
0010
2000
0000
0000
3000
0000
,
0010
1000
0010
0100
0000
0001
0100
0010
,
0000
1000
0100
0010
0001
0010
0100
1000
,
0000
0001
0100
0010
1000
0010
0100
0001
,
0000
1000
0100
0001
0100
1000
0001
1000
,
0010
0100
0010
1001
0000
0000
0000
0000
,
0001
0010
0100
2000
0000
0000
3000
0000
,
0001
0100
0010
1000
0000
0010
0100
0001
,
1000
0100
0010
0002
0000
0000
0003
0000
,
0010
0001
0010
0100
0000
1000
0100
0010
,
0000
0001
0010
0100
1000
0000
0001
0100
,
0010
0000
1000
0001
0100
0000
0110
0000
,
1001
0000
0000
0000
,
0000
0000
0000
0000
,
1000
0100
1000
0100
0000
0000
0001
0010
0001
0010
0000
0000
,
1000
0001
1000
0000
0001
1000
0001
0000
0000
0000
0000
0000
,
1001
0000
0000
0000
0000
0010
0100
0000
,
1001
0000
0000
0000
0000
0100
0010
0000
,
0001
0100
0010
0000
1000
0001
0100
0000
,
0010
1000
0001
0010
0100
0000
0000
0000
,
0110
0000
0000
0000
0000
0001
1000
0000
,
0110
0000
0000
0000
0000
0000
0000
1001
0000
0000
0000
0000
1000
0000
0100
0000
,
0020
0000
0000
0000
0031
1000
0001
0100
,
0020
2030
3002
0023
,
0230
0000
0300
0000
,
1000
0001
1000
0000
0001
1000
0001
0000
0000
0000
0000
0000
,
0001
0010
0100
1000
0001
0100
0010
1000
,
0002
0000
0000
0000
0003
1000
0100
0010
,
0002
0000
0000
1003
0001
0000
0110
0000
,
1001
0000
0000
0000
0000
0000
0000
1001
,
1001
0000
0000
0101
0101
0000
0000
0110
,
0110
0000
0000
1001
1001
0000
0000
0001
,
1000
0100
0010
0001
1000
0010
0100
0001
,
0000
1000
0001
1000
0001
1000
0001
0000
0000
0000
0000
0000
,
1000
0010
0100
0001
1000
0100
0010
0001
,
2000
0000
0000
0000
3000
0001
0100
0010
,
2000
0000
0000
3001
1000
0000
0110
0000
,
1001
0000
0000
0000
0000
0000
0000
1001
,
1001
0000
0000
1100
1100
0000
0000
0110
,
0110
0000
0000
1000
0001
0010
0100
0000
,
2000
0000
0000
3001
0200
0000
0000
0000
,
0300
0000
0000
0000
,
0001
0000
0100
0010
0000
0000
1000
0000
0001
0100
0000
0000
,
0010
0100
0010
1001
0000
0000
,
0020
0000
0230
0000
,
2300
0000
3001
0000
,
1000
0100
0010
0001
0000
0000
1000
0010
0100
0001
0000
0000
,
0110
0000
1001
0000
,
0000
0000
0000
0000
;
#NOTES:
     dance-single:
     :
     Hard:
     13:
     :
0000
0000
0000
0000
,
0000
0000
0000
0000
,
0000
0000
0000
0000
,
0000
0000
0000
0000
,
0000
0000
0000
0000
,
0001
0010
0100
1000
0001
0100
0010
1000
,
0001
0010
1000
0010
0001
0100
1000
0100
,
0020
0000
0000
0000
,
1030
0001
0000
0100
0000
0010
0000
1001
0000
0000
0000
0000
0000
0000
0000
0000
,
1000
0000
0100
0000
0010
0001
0020
0000
0000
0000
0001
0000
0130
0000
0000
0000
,
0010
0000
0001
0000
1000
0010
1000
0000
0010
0000
0100
0000
0001
1000
0001
0000
,
0010
0000
0100
0000
1000
0001
2000
0000
0000
0000
0010
0000
3001
0000
0000
0000
,
1000
0000
0010
0000
0100
0000
0001
0000
0010
0000
0100
0000
1000
0001
0100
0000
,
0000
0000
0010
0000
1000
0000
0001
0100
0000
0010
0000
1000
0100
0000
0010
0000
,
0000
0000
0001
0000
0010
0000
0100
1000
0000
0001
0000
0100
0010
0000
1000
0000
,
0000
0000
0010
0000
0100
0000
1000
0100
0000
0001
0000
1000
0100
0000
0010
0000
,
0001
0000
0100
0000
0010
0000
1000
0001
0000
0000
0000
0000
0000
0000
0000
0000
,
0001
0000
0100
0000
0010
1000
0020
0000
0000
0000
1000
0000
0130
0000
0000
0000
,
0010
0000
1000
0000
0001
0010
0001
0000
0010
0000
0100
0000
1000
0001
1000
0000
,
0010
0000
0100
0000
0001
1000
0002
0000
0000
0000
0010
0000
1003
0000
0000
0000
,
0001
0000
0010
0000
0100
0000
1000
0000
0010
0000
0100
0000
0001
1000
0100
0000
,
0000
0000
0010
0000
0100
1000
0000
0002
0000
0000
0000
0000
1003
0000
0010
0200
,
0000
0000
0301
0010
1001
0000
0110
0000
,
1001
0000
0000
0000
,
0000
0000
0000
0000
,
1000
0100
0001
1000
0010
0001
1000
0010
0001
1000
0100
0001
,
1000
0001
1000
0000
0010
0100
1001
0000
0000
0000
0000
0000
,
0110
0000
0000
0000
0000
1001
0110
0000
,
1001
0000
0000
0000
0000
0110
1001
0000
,
0001
0010
0100
1000
0001
0100
0010
1000
,
0100
0010
0001
0010
0100
0000
0000
0000
,
1001
0000
0000
0000
0000
0110
1001
0000
,
0110
0000
0000
0000
0000
0000
0000
2002
0000
0000
0000
0000
3003
0000
0000
0000
,
0001
0000
1000
0000
0100
0000
0010
0000
0001
0000
1000
0010
0100
0000
0001
0000
,
0020
0130
2000
3001
0200
0310
2000
3001
,
0020
0000
0000
0000
,
0031
1000
0001
0000
0010
0100
0010
0000
0000
0000
0000
0000
,
0001
0000
0010
0000
0100
1000
0100
0000
0010
0000
0001
0000
1000
0000
0010
0000
,
0100
0000
0001
0000
1000
0010
1000
0000
0001
0000
0100
0000
0010
0000
1000
0000
,
0100
0000
0010
0000
0001
0010
0001
0000
0100
0000
0001
0000
1000
0010
1000
0000
,
0001
0000
0010
0000
0100
1000
0100
0000
0010
0000
0001
0000
1000
0000
0001
0000
,
0011
0000
0000
0110
0000
0000
1000
0000
1010
0000
0000
0110
0000
0000
0001
0000
,
0101
0000
0000
0110
0000
0000
1001
0000
0110
0000
0000
0000
1001
0000
0000
0000
,
0001
0010
0100
1000
0001
0100
0010
1000
,
0000
0001
0100
0010
1000
0001
0110
0000
0000
1001
0000
0000
,
1000
0000
0100
0000
0001
0100
0001
0000
0100
0000
1000
0000
0010
0000
0100
0000
,
1000
0000
0100
0000
0001
1000
0001
0000
0010
0000
0100
0000
1000
0000
0001
0000
,
0100
0000
0010
0000
1000
0010
1000
0000
0100
0000
0010
0000
0001
0010
0001
0000
,
1000
0000
0010
0000
0100
0001
0100
0000
0010
0000
1000
0000
0001
0000
1000
0000
,
1010
0000
0000
0110
0000
0000
0001
0000
0011
0000
0000
0110
0000
0000
1000
0000
,
1100
0000
0000
0110
0000
0000
1001
0000
0011
0000
0000
0110
0000
0000
1100
0000
,
0002
0000
0000
0000
0000
0000
0103
0010
2000
0000
0000
0000
0000
0000
0000
0000
,
3001
0000
0000
0000
,
0001
0100
0010
1000
0000
0000
0001
0010
0100
1000
0000
0000
,
0100
0000
0010
0000
0001
1000
0001
0000
0000
0000
0000
0000
,
0002
0000
0023
0000
,
0230
0000
1300
0000
,
1000
0100
0001
1000
0000
0000
0001
0100
1000
0001
0000
0000
,
0110
0000
1001
0000
,
0000
0000
0000
0000
;
#NOTES:
     dance-double:
     :
     Easy:
     5:
     :
00000000
00000000
00000000
00000000
,
00000000
00000000
00000000
00000000
,
00000000
00000000
00000000
00000000
,
00000000
00000000
00000000
00000000
,
00000000
00000000
00000000
00000000
,
00000002
00000000
00002003
00000000
,
00003020
00000000
00000230
00000000
,
00000310
00000000
00000000
00000000
,
00001001
00000000
00000000
00000000
,
00000001
00000100
00001000
00010000
,
00001000
00010000
00100000
00000000
,
10000000
01000000
00010000
00001000
,
00010000
00001000
00000010
00000001
,
00000000
00001000
00000001
00000100
,
00000000
00000010
00001000
00000001
,
00000000
00000010
00001000
00010000
,
01000000
10000000
10010000
00000000
,
10000000
01000000
00010000
00001000
,
00010000
00001000
00000010
00000000
,
00000001
00000100
00001000
00010000
,
00001000
00010000
00100000
10000000
,
00020000
00000000
20030000
00000000
,
30200000
00000000
01300000
01000000
,
10010000
00000000
00000000
00000000
,
00000000
00000000
00000000
00000000
,
00020000
20030000
32000000
03020000
,
00032000
00013000
00011000
00000000
,
00011000
00000000
00000000
00000000
,
00011000
00000000
00000000
00000000
,
00001000
00000010
00000001
00000100
,
00000001
00000010
00001000
00000000
,
00011000
00000000
00000000
00000000
,
00011000
00000000
00000000
00000000
,
00010000
00100000
10000000
00010000
,
00100000
00100000
01000000
01000000
,
20020000
00000000
00000000
00000000
,
30030000
00000000
00000000
00000000
,
00010000
10000000
01000000
00010000
,
00002000
00000000
00003000
00000000
,
00010000
00001000
00000010
00000001
,
00002000
00000000
00003000
00000000
,
00000002
00000000
00000203
00000000
,
00002300
00000000
00013000
00000000
,
00100000
10000000
01000000
00010000
,
00001000
00000010
00001001
00000000
,
00001000
00000001
00000100
00001000
,
00020000
00000000
00030000
00000000
,
00001000
00010000
00100000
10000000
,
00020000
00000000
00030000
00000000
,
20000000
00000000
32000000
00000000
,
03020000
00000000
00032000
00000000
,
00003020
00000000
00000032
00000000
,
00001003
00000000
00000000
00000000
,
00000101
00000000
00001100
00000000
,
00011000
00000000
00000000
00000000
,
00011000
00000000
00110000
00000000
,
10100000
00000000
00000000
00000000
,
20000000
00000000
32000000
00000000
,
03010000
00000000
00011000
00000000
,
00000000
00000000
00000000
00000000
;
#NOTES:
     dance-double:
     :
     Medium:
     11:
     :
00000000
00000000
00000000
00000000
,
00000000
00000000
00000000
00000000
,
00000000
00000000
00000000
00000000
,
00000000
00000000
00000000
00000000
,
00000000
00000000
00000000
00000000
,
00000002
00000000
00000023
00000000
,
00002030
00000000
00023000
00000000
,
00230000
00000000
00000000
00300000
,
10000000
00010000
10000000
00010000
10010000
00000000
00000000
00000000
,
10000000
00100000
01000000
00020000
00000000
00000000
00030000
00000000
,
10000000
01000000
00010000
00001000
00000000
00000010
00001000
00000010
,
00000001
00000100
00001000
00020000
00000000
00000000
00030000
00000000
,
00100000
10000000
00100000
00010000
00000000
00100000
01000000
00010000
,
00000000
10000000
01000000
00010000
00001000
00000010
00000001
00001000
,
00000000
00000001
00000100
00001000
00010000
00100000
10000000
00010000
,
00000000
10000000
01000000
00010000
00001000
00010000
00100000
00010000
,
00001000
00000010
00000001
00001001
00000000
00000000
00000000
00000000
,
00000001
00000010
00000100
00002000
00000000
00000000
00003000
00000000
,
00000001
00000100
00001000
00010000
00000000
00100000
00010000
00100000
,
10000000
01000000
00010000
00002000
00000000
00000000
00003000
00000000
,
00000010
00000001
00000010
00001000
00000000
00000010
00000100
00001000
,
00000000
00000001
00000100
00001000
00010000
00000000
00001000
00010000
,
00001000
00000000
00010000
00100000
10000000
00000000
01100000
00000000
,
10010000
00000000
00000000
00000000
,
00000000
00000000
00000000
00000000
,
01000000
10000000
01000000
10000000
00000000
00000000
00010000
00100000
00010000
00100000
00000000
00000000
,
00001000
00010000
00001000
00000000
00010000
00001000
00010000
00000000
00000000
00000000
00000000
00000000
,
00001001
00000000
00000000
00000000
00000000
00000110
00000110
00000000
,
00001001
00000000
00000000
00000000
00000000
00000110
00000110
00000000
,
00000001
00000100
00001000
00000000
00000100
00001000
00010000
00000000
,
00100000
10000000
00010000
01000000
00100000
00000000
00000000
00000000
,
01100000
00000000
00000000
00000000
00000000
10010000
10010000
00000000
,
01100000
00000000
00000000
00000000
00000000
00000000
00000000
10010000
00000000
00000000
00000000
00000000
10000000
00000000
01000000
00000000
,
00020000
00000000
00000000
00000000
00031000
00010000
00001000
00000010
,
00000002
00000023
00002030
00023000
,
00002000
00000000
00033000
00000000
,
00010000
00001000
00010000
00000000
00001000
00010000
00001000
00000000
00000000
00000000
00000000
00000000
,
00010000
00100000
10000000
00010000
00100000
01000000
10000000
01000000
,
00020000
00000000
00000000
00000000
00030000
00001000
00000010
00000001
,
00000200
00000000
00000000
00001300
00010000
00000000
00001000
00000000
,
00011000
00000000
00000000
00000000
00000000
00000000
00000000
00011000
,
00011000
00000000
00000000
01010000
01010000
00000000
00000000
11000000
,
11000000
00000000
00000000
10010000
10010000
00000000
00000000
00010000
,
10000000
00100000
00010000
00001000
00010000
00010000
01000000
00010000
,
00000000
00001000
00010000
00001000
00010000
00001000
00010000
00000000
00000000
00000000
00000000
00000000
,
00001000
00000010
00000001
00001000
00000010
00000100
00000001
00000100
,
00002000
00000000
00000000
00000000
00003000
00010000
00100000
10000000
,
02000000
00000000
00000000
03010000
00001000
00000000
00010000
00000000
,
00011000
00000000
00000000
00000000
00000000
00000000
00000000
00011000
,
00011000
00000000
00000000
00001100
00001100
00000000
00000000
00000101
,
00000101
00000000
00000000
00001000
00000001
00000010
00000100
00000000
,
00002000
00000000
00000000
00003001
00000200
00000000
00000000
00000000
,
00000300
00000000
00000000
00000000
,
00000001
00000000
00000010
00000100
00000000
00000000
00000010
00000000
00000100
00001000
00000000
00000000
,
00000001
00000100
00001000
00010000
00000000
00000000
,
00200000
00000000
02300000
00000000
,
03020000
00000000
10030000
00000000
,
10000000
01000000
00100000
00010000
00000000
00000000
10000000
00100000
01000000
00010000
00000000
00000000
,
01100000
00000000
10010000
00000000
,
00000000
00000000
00000000
00000000
;
#NOTES:
     dance-double:
     :
     Hard:
     13:
     :
00000000
00000000
00000000
00000000
,
00000000
00000000
00000000
00000000
,
00000000
00000000
00000000
00000000
,
00000000
00000000
00000000
00000000
,
00000000
00000000
00000000
00000000
,
00000001
00000010
00001000
00000000
00000010
00001000
00010000
00000000
,
00001000
00010000
00100000
00000000
00010000
00100000
10000000
00000000
,
00020000
00000000
00000000
00000000
,
10030000
01000000
00000000
00100000
00000000
00010000
00000000
10010000
00000000
00000000
00000000
00000000
00000000
00000000
00000000
00000000
,
10000000
00000000
01000000
00000000
00010000
00001000
00010000
00000000
00100000
00000000
00010000
00000000
00001000
00000000
00000100
00000000
,
00000010
00000000
00001000
00000000
00000001
00000010
00000001
00000000
00000010
00000000
00001000
00000000
00010000
00001000
00010000
00000000
,
00100000
00000000
10000000
00000000
00010000
01000000
00010000
00000000
00100000
00000000
10000000
00000000
00100000
00000000
00010000
00000000
,
01000000
00000000
10000000
00000000
01000000
00000000
00010000
00000000
00100000
00000000
00001000
00000000
00010000
00001000
00000010
00000000
,
00000000
00000000
00001000
00000000
00010000
00000000
00001000
00000100
00000000
00000001
00000000
00001000
00000100
00000000
00000010
00000000
,
00000000
00000000
00000001
00000000
00000010
00000000
00001000
00010000
00000000
01000000
00000000
10000000
00010000
00000000
01000000
00000000
,
00000000
00000000
00100000
00000000
10000000
00000000
01000000
00010000
00000000
00001000
00000000
00000100
00000001
00000000
00001000
00000000
,
00000100
00000000
00000001
00000000
00000100
00000000
00000010
00000001
00000000
00000000
00000000
00000000
00000000
00000000
00000000
00000000
,
00000001
00000000
00000010
00000000
00001000
00010000
00001000
00000000
00000100
00000000
00001000
00000000
00010000
00000000
00100000
00000000
,
01000000
00000000
00010000
00000000
10000000
01000000
10000000
00000000
01000000
00000000
00010000
00000000
00001000
00010000
00001000
00000000
,
00000100
00000000
00000001
00000000
00001000
00000010
00001000
00000000
00000100
00000000
00000001
00000000
00000100
00000000
00001000
00000000
,
00000010
00000000
00000001
00000000
00000010
00000000
00001000
00000000
00000100
00000000
00010000
00000000
00001000
00010000
00100000
00000000
,
00000000
00000000
00010000
00000000
00100000
01000000
00000000
00020000
00000000
00000000
00000000
00000000
10030000
00000000
01000000
00200000
,
00000000
00000000
00310000
00100000
10010000
00000000
01100000
00000000
,
10010000
00000000
00000000
00000000
,
00000000
00000000
00000000
00000000
,
10000000
01000000
00010000
00001000
00010000
00100000
00010000
00001000
00000100
00000001
00000010
00001000
,
00010000
00001000
00000100
00000000
00000001
00000100
00001000
00000000
00000000
00000000
00000000
00000000
,
00011000
00000000
00000000
00000000
00000000
10010000
10010000
00000000
,
00011000
00000000
00000000
00000000
00000000
00001001
00001001
00000000
,
00000001
00000010
00001000
00010000
00000010
00001000
00010000
01000000
,
00100000
10000000
00010000
00100000
00001000
00000000
00000000
00000000
,
00011000
00000000
00000000
00000000
00000000
00001001
00001001
00000000
,
00011000
00000000
00000000
00000000
00000000
00000000
00000000
20020000
00000000
00000000
00000000
00000000
30030000
00000000
00000000
00000000
,
00010000
10000000
01000000
00010000
00001000
01000000
00001000
00010000
,
00200000
00310000
00002000
00013000
02000000
03010000
00002000
00003010
,
00000002
00000000
00000000
00000000
,
00001003
00000001
00001000
00000000
00000010
00000100
00000010
00000000
00000000
00000000
00000000
00000000
,
00001000
00000000
00000001
00000000
00000100
00001000
00000100
00000000
00000001
00000000
00000010
00000000
00001000
00000000
00010000
00000000
,
00100000
00000000
10000000
00000000
00010000
01000000
00010000
00000000
10000000
00000000
01000000
00000000
00010000
00000000
01000000
00000000
,
10000000
00000000
00100000
00000000
00010000
00001000
00010000
00000000
01000000
00000000
00010000
00000000
00001000
00000000
00010000
00000000
,
00100000
00000000
00010000
00000000
00001000
00000100
00001000
00000000
00010000
00000000
00001000
00000000
00000010
00000000
00000001
00000000
,
00000011
00000000
00000000
00001010
00000000
00000000
00010000
00000000
00011000
00000000
00000000
00110000
00000000
00000000
01000000
00000000
,
11000000
00000000
00000000
10100000
00000000
00000000
00110000
00000000
01010000
00000000
00000000
00000000
00011000
00000000
00000000
00000000
,
00001000
00000010
00000001
00000100
00001000
00010000
00100000
01000000
,
00000000
10000000
01000000
00010000
00100000
01000000
01100000
00000000
00000000
10010000
00000000
00000000
,
00010000
00000000
10000000
00000000
00100000
00010000
00100000
00000000
10000000
00000000
01000000
00000000
00010000
00000000
00001000
00000000
,
00000100
00000000
00000001
00000000
00001000
00000010
00001000
00000000
00000001
00000000
00000010
00000000
00001000
00000000
00000010
00000000
,
00000001
00000000
00000100
00000000
00001000
00010000
00001000
00000000
00000010
00000000
00001000
00000000
00010000
00000000
00001000
00000000
,
00000100
00000000
00001000
00000000
00010000
00100000
00010000
00000000
00001000
00000000
00010000
00000000
01000000
00000000
10000000
00000000
,
11000000
00000000
00000000
01010000
00000000
00000000
00001000
00000000
00011000
00000000
00000000
00001100
00000000
00000000
00000010
00000000
,
00000011
00000000
00000000
00000101
00000000
00000000
00001100
00000000
00000010
00000000
00000000
00001000
00000000
00000000
00010000
00000000
,
00200000
00000000
00000000
00000000
00000000
00000000
00310000
10000000
00020000
00000000
00000000
00000000
00000000
00000000
00000000
00000000
,
00030000
00000000
00000000
00000000
,
10000000
01000000
00010000
00001000
00000000
00000000
00100000
00010000
00001000
00000100
00000000
00000000
,
00000010
00000000
00000001
00000000
00001000
00000100
00001000
00000000
00000000
00000000
00000000
00000000
,
00000002
00000000
00000203
00000000
,
00002300
00000000
00013000
00000000
,
00001000
00010000
00100000
10000000
00000000
00000000
00010000
00100000
10000000
00100000
00000000
00000000
,
01100000
00000000
10010000
00000000
,
00000000
00000000
00000000
00000000
;
