
//----- song ID: mont -----//
#TITLE:Hillbilly Shoes;
#ARTIST:Montgomery Gentry;
#BANNER:Hillbilly Shoes.png;
#BACKGROUND:Hillbilly Shoes-bg.png;
#CDTITLE:./CDTitles/DDR A.png;
#MUSIC:Hillbilly Shoes.ogg;
#SAMPLESTART:32.985;
#SAMPLELENGTH:15;
#DISPLAYBPM:116;
#BPMS:0=117,4=116,53=115,57=116,73=117,77=116,92=115,97=116,99=121,100=113,101=118,105=116,118=114,120=119,121=115,127=117,129=116,140=117,144=116,151=114,153=116,165=118,169=115,181=116,189=118,193=116,196=112,197=116;
#NOTES:
     dance-single:
     :
     Beginner:
     3:
     :
0000
0000
0000
0000
,
0000
0000
0000
0000
,
0000
0000
0000
0000
,
0000
0000
0000
0000
,
0000
0000
0000
0000
,
0001
0001
0000
0000
,
0000
1000
1000
0000
,
0000
0001
0001
0000
,
0000
1000
1000
0000
,
0000
0010
0010
0000
,
0000
0100
0100
0000
,
0000
0010
0010
0000
,
0000
0100
0100
0000
,
0000
0010
0010
0010
,
0000
0000
0000
0100
,
0100
0100
0000
0000
,
0000
0001
0000
1000
,
0000
0001
0000
1000
,
0000
0010
0000
0100
,
0000
0001
0000
1000
,
0000
0001
0000
0100
,
0000
1000
0000
0100
,
0000
0001
0000
0100
,
0000
1000
0000
0000
,
0000
0001
0000
0001
,
0000
1000
0000
1000
,
0000
0001
0001
0000
,
0000
0010
0010
0000
,
0000
0100
0100
0000
,
0000
1000
1000
0000
,
0000
0100
0000
0000
,
0000
0010
0000
0000
,
0000
0001
0000
0000
,
0000
0010
0000
1000
,
0000
0001
0000
0000
,
0000
0100
0000
0000
,
0000
1000
0000
0000
,
0000
0100
0100
0100
,
0000
0001
0000
0001
,
0000
1000
0000
1000
,
0000
0001
0000
0000
,
0000
1000
0000
0000
,
0000
0010
0010
0010
,
0000
0000
0000
1000
,
1000
1000
0000
0000
,
0000
0001
0001
0001
,
0000
1000
1000
1000
,
0000
0001
0000
0001
,
0000
1000
0000
1000
,
0000
0001
0000
0001
,
0000
1000
0000
1000
,
1000
0000
0000
0000
,
0000
0000
0000
0000
;
#NOTES:
     dance-single:
     :
     Easy:
     5:
     :
0000
0000
0000
0000
,
0000
0000
0000
0000
,
0000
0000
0000
0000
,
0000
0000
0000
0000
,
0000
0000
0000
0000
,
0001
0000
0010
0100
,
0000
1000
0000
0001
,
0000
1000
0000
0100
,
0000
1000
0010
0000
,
0000
1000
0000
0010
,
0100
0001
0000
1000
,
0000
0001
0000
0100
,
0000
0001
0000
0000
,
0000
1001
0110
1001
,
0000
0000
0000
0110
,
1001
0110
0000
0000
,
0000
0001
0100
1000
,
0100
0001
0001
0100
,
1000
0100
0000
0010
,
0000
0100
0000
0010
,
0000
0001
0001
0100
,
0100
0010
0010
1000
,
1000
0000
0020
0000
,
0100
0100
0000
0000
,
0030
0001
0000
1000
,
0000
0010
0000
0100
,
0000
0010
0010
0010
,
0010
0100
0100
0100
,
0100
0001
0001
1000
,
1000
0110
0000
0000
,
0000
0001
0000
1000
,
0000
0010
0100
0010
,
0000
1000
0001
1000
,
0000
0100
0010
0001
,
0000
0001
0000
1000
,
0000
0010
0100
0010
,
0000
1000
0000
0001
,
0000
0100
0100
0100
,
0000
0001
0001
1000
,
0000
1000
0001
0010
,
0000
0100
0000
0100
,
0000
0100
0000
0110
,
0000
1001
0110
1001
,
0000
0000
0000
0110
,
1001
0110
0000
0000
,
0000
1000
0100
0001
,
0100
1000
1000
0100
,
0001
0100
0000
0001
,
0000
1000
0000
0100
,
1000
1000
0000
1000
,
0000
0001
0000
0100
,
0001
0000
0000
0000
,
0000
0000
0000
0000
;
#NOTES:
     dance-single:
     :
     Medium:
     8:
     :
0000
0000
0000
0000
,
0000
0000
0000
0000
,
0000
0000
0000
0000
,
0000
0000
0000
0000
,
0000
0000
0000
0000
,
0001
0100
0100
0100
,
0100
0010
1000
0000
0100
0000
0100
0000
,
0100
0010
0001
1000
,
0010
0100
0000
0000
0001
0000
0010
0000
,
0100
1000
0100
0100
,
0100
0010
0001
0000
0100
0000
0100
0000
,
0100
0010
1000
0001
,
0010
0100
0000
0000
1000
0000
1000
0000
,
0001
0110
1100
0011
,
0010
0100
1000
0011
,
0101
1100
0010
0100
,
0001
0100
1000
0000
0100
0000
0001
0001
,
0100
0000
1000
0000
0100
0000
0001
0100
,
0001
0000
0001
0000
0100
0000
0010
1000
,
0001
0000
1000
0000
0100
0000
0010
0001
,
1000
0001
0100
0010
,
1000
0000
0100
0000
0010
0000
0001
0100
,
0010
0000
1000
0000
0011
0000
0010
0001
,
0100
0020
0000
0000
,
0130
0000
0001
0010
0100
0000
1000
0010
,
0100
0000
0001
0010
0100
0000
0010
0010
,
0010
0101
1010
0010
,
1000
1100
0011
0001
,
0001
0000
1000
0000
0100
0000
0010
0001
,
0100
0020
0000
0000
,
0130
0000
1000
0000
0000
0000
0010
1000
,
0001
0000
1000
0100
1000
0000
0010
0100
,
0010
0000
1000
0000
0100
0000
0010
0001
,
1000
0000
0010
0000
0010
0000
0010
1000
,
0001
0001
0010
0100
,
1000
0010
0100
0001
,
1000
0010
0100
0001
,
1000
0000
0001
1000
0010
0000
0100
0000
,
0110
0000
1001
0000
1000
0000
0010
0100
,
0001
1000
0001
0010
,
0001
0011
1000
0110
,
0001
1100
0001
0010
,
0001
0100
0011
0000
1100
0000
0011
0000
,
0010
0000
0100
0000
1000
0100
0110
0000
,
0011
1100
0010
0100
,
1000
0100
0001
0000
0100
0000
1000
1000
,
0100
0000
0001
0000
0100
0000
1000
0100
,
1000
0000
0001
0010
0100
0000
1000
0010
,
0100
0000
0001
0010
0100
0000
1000
0001
,
1000
0000
1000
0010
0100
0000
0001
0010
,
0100
0000
1000
0010
0100
0000
0001
1000
,
0002
0000
0003
0000
,
0000
0000
0000
0000
;
#NOTES:
     dance-single:
     :
     Hard:
     13:
     :
0000
0000
0000
0000
,
0000
0000
0000
0000
,
0000
0000
0000
0000
,
0000
0000
0000
0000
,
0000
0000
0000
0000
,
0001
0000
0100
0000
0002
0000
0000
0000
1003
0000
0010
1000
0010
0000
1000
0000
,
0001
0000
1000
0000
0001
0000
0100
0000
0001
0100
0001
0000
1000
0000
0001
0000
,
1000
0100
1000
0000
0001
0000
0000
0000
0010
0000
0000
0000
0100
0000
1000
0000
,
0001
0000
0100
0001
1000
0000
0010
0000
1000
0100
1000
0000
0001
0000
1000
0010
,
1000
0000
2000
0000
0001
0000
0001
3001
,
0000
0000
0000
0000
1000
0000
0100
0000
1000
0100
1000
0000
0001
0000
1000
0000
,
0001
0100
0001
0000
1000
0000
0000
0000
0010
0000
0000
0000
0100
0000
0001
0000
,
1000
0000
0100
1000
0001
0000
0010
0000
0001
0100
0001
0000
1000
0000
0001
0000
,
0100
0000
1100
0000
1001
0000
1000
0100
,
0000
0001
0100
0001
0100
0000
1000
0000
0100
0000
0000
0000
1010
0000
0000
0000
,
1010
0000
0000
0000
0001
0000
0010
0000
0000
1000
0010
1000
0010
0000
0001
0000
,
0010
0000
0000
0000
0001
0000
0010
0000
0100
0000
1000
0000
0001
0000
0100
0010
,
0000
1000
0100
0000
1000
0000
0010
0000
0100
0000
0001
0000
1000
0000
0010
0100
,
0000
0001
0100
0001
1000
0000
0000
0000
1000
0100
1000
0000
0001
0000
1000
0100
,
1000
0000
0000
0000
0001
0100
0001
0000
1000
0000
0001
0100
0010
0100
0001
0010
,
0001
0000
0100
0000
0001
0000
0010
0100
1000
0000
0000
0100
1000
0000
0010
0100
,
0001
0000
0000
1000
0010
0100
0010
0100
0010
1000
0001
0100
0010
0000
0100
0000
,
1001
0000
0001
0010
0100
1000
0010
0100
,
0001
0000
0000
0000
1000
0001
1000
0001
0010
0001
1000
0100
0010
0000
0100
0000
,
1000
0000
0000
0001
1000
0000
0010
0000
1000
0001
0000
0100
0010
0000
1000
0000
,
0110
0000
0000
0100
0010
0000
0001
0000
1000
0000
0001
0010
0100
1000
0001
0000
,
1001
0000
0000
0000
0001
0000
0100
0000
0010
1000
0010
0000
1010
0000
0110
0000
,
1010
0000
0000
0000
1000
0000
0100
0000
0010
0001
0010
0000
0001
0010
0001
0000
,
0011
0000
0000
0000
0001
0000
0100
0000
0010
0000
1000
0001
0000
0000
0100
0000
,
0010
0000
0000
1000
0001
0000
0010
0000
0001
1000
0010
0100
0001
1000
0100
0000
,
1000
0000
0000
0000
0002
0000
0000
0000
0000
0000
1003
0100
0010
0001
1000
0100
,
1000
0000
0000
0000
0001
0000
0100
0010
0100
0010
0100
0000
0001
0010
0001
0010
,
0001
1000
0000
0000
1000
0100
1000
0000
0001
0010
0001
0000
1000
0000
0001
0000
,
1000
0100
1000
0000
1100
0000
0101
0000
1000
0000
0100
1000
0100
0000
1100
0000
,
0011
0000
0002
0000
0000
0000
0000
0003
,
0000
0000
0001
0010
0100
1000
0000
0100
,
0001
0000
0100
0000
1000
0000
0001
0010
,
0001
0000
0000
0100
0001
0000
0000
0100
0001
0000
0100
0010
1000
0100
0010
0000
,
0001
0100
0001
0000
2000
0000
0000
0000
0010
0000
0000
0000
3001
0000
0000
0000
,
0020
0001
0100
1030
,
0100
0010
0000
0011
0000
0000
0000
0000
0001
0010
0000
1100
0000
0000
0000
0000
,
0100
0010
0000
0000
0001
0000
0100
0000
0001
0000
1000
0000
0010
0000
0100
0001
,
0000
0000
1100
0000
1001
0000
1000
0100
,
0000
1000
0100
1000
0001
0000
0100
0000
0010
0000
0000
0000
1010
0000
0000
0000
,
1010
0000
0000
0000
0001
0000
0100
0000
0000
0001
0100
0001
1000
0000
0100
0000
,
0110
0000
0000
0000
1000
0000
0010
0000
0100
0000
0001
0000
1000
0000
0100
0010
,
0000
0001
0100
0000
0001
0000
0010
0000
0100
0000
1000
0000
0001
0000
0010
0000
,
0001
0000
0000
1000
0001
0000
0010
0000
0001
1000
0000
0100
0010
0000
0001
0000
,
0110
0000
0000
0100
0010
0000
1000
0000
0001
0000
1000
0010
0100
0001
1000
0000
,
1001
0000
0000
0100
1000
0000
0010
0000
1000
0001
0000
0100
0010
0000
1000
0000
,
0101
0000
0000
0100
0010
0000
0001
0000
1000
0000
0001
0010
0100
1000
0001
0000
,
2002
0000
0000
3003
0000
0000
0000
0000
,
0000
0000
0000
0000
;
#NOTES:
     dance-double:
     :
     Easy:
     5:
     :
00000000
00000000
00000000
00000000
,
00000000
00000000
00000000
00000000
,
00000000
00000000
00000000
00000000
,
00000000
00000000
00000000
00000000
,
00000000
00000000
00000000
00000000
,
00000200
00000000
00000001
00000010
,
00000000
00001300
00000000
00010000
,
00000000
00100000
00000000
10000000
,
01000000
00010000
00000000
00001000
,
00000000
00000020
00000000
00000001
,
00000100
00001030
00000000
00010000
,
00000000
01000000
00000000
10000000
,
00100000
00010000
00000000
00001000
,
00000000
00000100
00001000
00010000
,
00000000
00000000
00000000
01000000
,
00010000
00001000
00000000
00000000
,
00000010
00000001
00000100
00001000
,
00000100
00000010
00000100
00001000
,
00010000
01000000
00000000
00100000
,
00000000
00001000
00000000
00010000
,
00000000
00001000
00001000
00000100
,
00000100
00000010
00000010
00000100
,
00001000
00010000
00010000
01000000
,
01000000
00010000
00000000
00000000
,
00001000
00010000
00000000
10000000
,
00000000
00100000
01000000
00011000
,
00000000
00000010
00000010
00000001
,
00000001
00000100
00000100
00001000
,
00001000
00100000
00100000
00010000
,
00010000
01100000
00000000
00000000
,
00000000
00010000
00000000
00001000
,
00000000
00000010
00000100
00000010
,
00000000
00001000
00010000
00001000
,
00000000
01000000
01100000
00100000
,
01100000
00010000
00000000
00001000
,
00000000
00000001
00000000
00000000
,
00000000
00000100
00000000
00010000
,
00000000
00001000
00010000
00001000
,
00000000
00000010
00000001
00001000
,
00000000
00000100
00010000
00001000
,
00000000
01000000
00000000
01000000
,
00000000
01000000
00010000
00100000
,
00000000
01000000
00010000
00001000
,
00000000
00000000
00000000
00000100
,
00001000
00010000
00000000
00000000
,
00100000
10000000
01000000
00010000
,
01000000
00100000
01000000
00010000
,
00001000
00001000
00000000
00000001
,
00000000
00000100
00000100
00001000
,
00000000
00010000
00000000
10000000
,
00000000
00100000
01000000
00001000
,
00011000
00000000
00000000
00000000
,
00000000
00000000
00000000
00000000
;
#NOTES:
     dance-double:
     :
     Medium:
     8:
     :
00000000
00000000
00000000
00000000
,
00000000
00000000
00000000
00000000
,
00000000
00000000
00000000
00000000
,
00000000
00000000
00000000
00000000
,
00000000
00000000
00000000
00000000
,
00000010
00000100
00001000
00000000
00000000
00000000
00000000
00000001
,
00000000
00000100
00000010
00000000
00000100
00001000
00000000
00000000
,
00010000
00100000
01000000
00010000
,
10000000
01000000
00000000
00000000
00010000
00000000
00001000
00000000
,
00000000
00000000
00000100
00000000
00000010
00000000
00001000
00000001
,
00000000
00000010
00001000
00010000
,
00000000
01000000
00100000
00010000
,
10000000
00100000
00000000
00000000
00010000
00000000
00001000
00000000
,
00000100
00000101
00000110
00001100
,
00010000
00001000
00010000
01100000
,
11000000
01100000
00010000
00001000
,
00000100
00000000
00000001
00000000
00000100
00000000
00001000
00001000
,
00000100
00000000
00000001
00000000
00000100
00000000
00001000
00010000
,
00100000
00000000
01000000
00000000
01000000
00000000
00100000
01000000
,
00001000
00000000
00010000
00000000
00001000
00000000
00100000
00010000
,
00100000
00010000
10000000
00100000
,
10000000
00000000
01000000
00000000
00010000
00000000
00001000
00000100
,
00000010
00000000
00001000
00000000
00000011
00000000
00000010
00000001
,
00000100
00000000
00000000
00000000
00000000
00000000
00000000
00000000
00000000
00000000
00000000
00000000
00000000
00000000
00000000
00000000
00000000
00000000
00000000
00000000
00000000
00000000
00000000
00000000
00000000
00000000
00000000
00000000
00000000
00000000
00000000
00000000
00000000
00000000
00000000
00000000
00000000
00000000
00000000
00000000
00000000
00000000
00000000
00000000
00000000
00000000
00000000
00000000
00000020
00000000
00000000
00000000
00000000
00000000
00000000
00000000
00000000
00000000
00000000
00000000
00000000
00000000
00000000
00000000
00000000
00000000
00000000
00000000
00000000
00000000
00000000
00000000
00000000
00000000
00000000
00000000
00000000
00000000
00000000
00000000
00000000
00000000
00000000
00000000
00000000
00000000
00000000
00000000
00000000
00000000
00000000
00000000
00000000
00000000
00000000
00000030
00000000
00000000
00000000
00000000
00000000
00000000
00000000
00000000
00000000
00000000
00000000
00000000
00000000
00000000
00000000
00000000
00000000
00000000
00000000
00000000
00000000
00000000
00000000
00000000
00000000
00000000
00000000
00000000
00000000
00000000
00000000
00000000
00000000
00000000
00000000
00000000
00000000
00000000
00000000
00000000
00000000
00000000
00000000
00000000
00000000
00000000
00000000
00000000
00000000
00000000
00000000
00000000
00000000
00000000
00000000
00000000
00000000
00000000
00000000
00000000
00000000
00000000
00000000
00000000
00000000
00000000
00000000
00000000
00000000
00000000
00000000
00000000
00000000
00000000
00000000
00000000
00000000
00000000
00000000
00000000
00000000
00000000
00000000
00000000
00000000
00000000
00000000
00000000
00000000
00000000
00000000
00000000
00000000
00000000
00000000
00000000
,
00000000
00000000
00010000
00001000
00010000
00000000
00100000
01000000
,
00010000
00000000
00010000
10000000
00100000
10000000
01000000
00010000
,
00001000
00000000
00001100
00000000
00000100
00000000
00000100
00001000
,
00000001
00000000
00000001
00000000
00000010
00000000
00000100
00010000
,
00001000
00000000
00100000
00000000
00010000
00000000
01000000
00001000
,
00010000
00011000
00000000
00010000
,
01000000
00000000
10000000
00000000
00000000
00000000
00100000
10000000
,
00010000
00000000
10000000
01000000
10000000
00000000
00100000
00010000
,
00001000
00000000
00001000
00000000
00000100
00000000
00000010
00001000
,
00000001
00000000
00000010
00000000
00000010
00000000
00000010
00001000
,
00010000
00010000
00100000
01000000
,
10000000
01000000
00100000
00010000
,
00001000
00000020
00000000
00000001
,
00000130
00000000
00001000
00000001
00000010
00000000
00000100
00000000
,
00001100
00010000
00001000
00100000
,
00001000
00010000
00001000
00000000
00000100
00000000
00000010
00000000
,
00000010
00001000
00000001
00000000
00000010
00000001
00000100
00000000
,
00001000
00010000
00100000
00000000
00100000
00000000
00100000
01000000
,
00100000
10000000
11000000
00000000
01100000
00000000
01010000
00000000
,
00001000
00010000
00001000
00000110
,
00000101
00000110
00001000
00010000
,
01000000
00000000
10000000
00000000
01000000
00000000
00010000
00010000
,
01000000
00000000
10000000
00000000
01000000
00000000
00010000
00001000
,
00010000
00000000
00001000
00010000
00001000
00000000
00000010
00000100
,
00001000
00000000
00001000
00000001
00000010
00000001
00000100
00001000
,
00010000
00000000
00010000
00001000
00010000
00000000
00100000
01000000
,
00010000
00000000
00010000
10000000
00100000
10000000
01000000
00010000
,
00001000
00000000
00000000
00000000
,
00000000
00000000
00000000
00000000
;
#NOTES:
     dance-double:
     :
     Hard:
     13:
     :
00000000
00000000
00000000
00000000
,
00000000
00000000
00000000
00000000
,
00000000
00000000
00000000
00000000
,
00000000
00000000
00000000
00000000
,
00000000
00000000
00000000
00000000
,
00000001
00000000
00000100
00000000
00000002
00000000
00000000
00000000
00001003
00000000
00000010
00001000
00000010
00000000
00010000
00000000
,
00001000
00000000
00010000
00000000
00100000
00000000
01000000
00000000
00010000
01000000
00010000
00000000
01000000
00000000
00100000
00000000
,
10000000
01000000
10000000
00000000
01000000
00000000
00000000
00000000
00010000
00000000
00000000
00000000
00001000
00000000
00000000
00000000
,
00001000
00000000
00010000
00001000
00010000
00000000
00001000
00000000
00010000
00001000
00010000
00000000
00100000
00000000
10000000
00000000
,
01000000
00000000
00000000
00000000
20000000
00000000
00000000
00000000
30010000
00000000
00100000
00010000
00100000
00000000
00001000
00000000
,
00010000
00000000
00001000
00000000
00000010
00000000
00000100
00000000
00001000
00000100
00001000
00000000
00000100
00000000
00000010
00000000
,
00000001
00000100
00000001
00000000
00000100
00000000
00000000
00000000
00001000
00000000
00000000
00000000
00010000
00000000
00100000
00000000
,
10000000
00000000
01000000
10000000
00010000
00000000
00100000
00000000
00010000
01000000
00010000
00000000
10000000
00000000
00010000
00100000
,
01000000
00000000
01100000
00000000
00011000
00000000
00010000
00000100
,
00000000
00001000
00000100
00001000
00000001
00000000
00000100
00000000
00000010
00000000
00000000
00000000
00000011
00000000
00000000
00000000
,
00001010
00000000
00000000
00000000
00011000
00000000
00010000
00000000
00000000
00100000
01000000
00100000
01000000
00000000
00100000
00000000
,
01100000
00000000
00000000
00000000
10000000
00000000
00100000
00000000
01000000
00000000
00010000
00000000
10000000
00000000
01000000
00100000
,
00000000
00010000
01000000
00000000
00001000
00000000
00010000
00000000
00000100
00000000
00001000
00000000
00000010
00000000
00000100
00000000
,
00000001
00000000
00000000
00000001
00001000
00000000
00000000
00000000
00001000
00000100
00001000
00000000
00000010
00000000
00001000
00000100
,
00001000
00000000
00000000
00000000
00000100
00010000
00000100
00000000
00010000
00000000
00001000
01000000
00100000
01000000
00100000
00000000
,
01100000
00000000
00000000
00000000
00010000
00000000
00100000
01000000
10000000
00000000
00000000
01000000
10000000
00000000
00100000
01000000
,
00010000
00000000
00000000
00010000
00100000
01000000
00100000
01000000
00100000
00010000
10000000
01000000
00100000
00000000
01000000
00000000
,
10000000
00000000
01000000
00010000
00001000
00000100
00000001
00000100
,
00000001
00001001
00000000
00000000
,
00000000
00000000
00000000
00000000
00000001
00000000
00000010
00000000
00001000
00010000
00000000
00010000
00001000
00000000
00010000
00000000
,
00011000
00000000
00000000
00010000
00100000
00000000
10000000
00000000
00010000
00000000
10000000
00100000
01000000
00010000
10000000
00000000
,
10010000
00000000
00000000
00000000
00010000
00000000
01000000
00000000
00100000
10000000
00100000
00000000
10100000
00000000
01100000
00000000
,
01010000
00000000
00000000
00000000
00001000
00000000
01000000
00000000
00001000
00010000
00001000
00000000
00010000
00000010
00010000
00000000
,
00001010
00000000
00000000
00000000
00000001
00000000
00000100
00000000
00000010
00000000
00001000
00000001
00000000
00000000
00000100
00000000
,
00000010
00000110
00000000
00000000
,
00000000
00000000
00000000
00000000
00000020
00000000
00000000
00000000
00000030
00000000
00010000
00001000
00010000
00001000
00010000
00000000
,
00100000
00000000
00000000
00000000
10000000
00000000
01000000
00100000
01000000
00100000
01000000
00000000
00010000
00100000
00010000
00100000
,
00010000
10000000
00000000
00000000
00100000
01000000
00100000
00000000
00010000
00001000
00010000
00000000
00001000
00000000
00000100
00000000
,
00000001
00000100
00000001
00000000
00001001
00000000
00001001
00000000
00000001
00000000
00000100
00000000
00001100
00000000
00001100
00000000
,
00001000
00010000
00002000
00000000
00000000
00000000
00000000
00000000
,
00000000
00000000
00013000
00100000
01000000
10000000
00000000
01000000
,
00010000
00000000
01000000
00000000
00001000
00000000
00010000
00001000
,
00000010
00000000
00000000
00000100
00000001
00000000
00000000
00000100
00000001
00000000
00000100
00000010
00001000
00000100
00000010
00000000
,
00000001
00000100
00000001
00000000
00002000
00000000
00000000
00000000
00010000
00000000
00000000
00000000
00023000
00000000
00000000
00000000
,
00230000
00010000
01000000
10300000
,
01000000
00100000
00000000
00110000
00000000
00000000
00000000
00000000
00001000
00010000
00000000
00011000
00000000
00000000
00000000
00000000
,
00000100
00000010
00000000
00000000
00000001
00000000
00000100
00000000
00000001
00000000
00001000
00000000
00000010
00000000
00000100
00000001
,
00000000
00000000
00000110
00000000
00011000
00000000
00001000
01000000
,
00000000
00010000
01000000
00010000
10000000
00000000
01000000
00000000
00100000
00000000
00000000
00000000
10100000
00000000
00000000
00000000
,
00110000
00000000
00000000
00000000
00011000
00000000
00001000
00000000
00000000
00000010
00000100
00000010
00000100
00000000
00000010
00000000
,
00000110
00000000
00000000
00000000
00000001
00000000
00000010
00000000
00000100
00000000
00001000
00000000
00000001
00000000
00000100
00000010
,
00000000
00001000
00000100
00000000
00010000
00000000
00001000
00000000
01000000
00000000
00010000
00000000
00100000
00000000
01000000
00000000
,
10000000
00000000
00000000
00100000
10000000
00000000
00100000
00000000
00010000
00001000
00000000
00001000
00010000
00000000
00001000
00000000
,
00011000
00000000
00000000
00001000
00000010
00000000
00000001
00000000
00001000
00000000
00000001
00000010
00000100
00001000
00000001
00000000
,
00001001
00000000
00000000
00000000
00000001
00000000
00000010
00000000
00001000
00010000
00000000
00010000
00001000
00000000
00010000
00000000
,
00011000
00000000
00000000
00010000
00100000
00000000
10000000
00000000
00010000
00000000
10000000
00100000
01000000
00010000
10000000
00000000
,
20020000
30030000
00000000
00000000
,
00000000
00000000
00000000
00000000
;
