
//----- song ID: hisc -----//
#TITLE:High School Love;
#ARTIST:DJ YOSHITAKA feat.DWP;
#BANNER:High School Love.png;
#BACKGROUND:High School Love-bg.png;
#CDTITLE:./CDTITLES/pnm 14 FEVER!.png;
#MUSIC:High School Love.ogg;
#SAMPLESTART:45.836;
#SAMPLELENGTH:15;
#BPMS:0=180;
#NOTES:
     dance-single:
     :
     Beginner:
     3:
     :
0000
0000
0000
0000
,
0000
0000
0000
0000
,
0000
0000
0000
0000
,
0000
0000
0000
0000
,
0000
0000
0000
0000
,
0001
0000
0000
0000
,
1000
0000
0000
0000
,
0001
0000
0000
0000
,
1000
0000
0000
0000
,
0020
0000
0000
0000
,
0030
0000
0000
0000
,
0020
0000
0000
0000
,
0030
0000
0000
0000
,
0200
0000
0000
0000
,
0300
0000
0000
0000
,
0200
0000
0000
0000
,
0300
0000
0000
0000
,
0001
0000
0001
0000
,
0010
0000
0010
0000
,
0001
0000
0000
0000
,
0001
0000
0000
0000
,
1000
0000
1000
0000
,
0010
0000
0010
0000
,
1000
0000
0000
0000
,
1000
0000
0000
0000
,
0001
0000
0001
0000
,
0010
0000
0010
0000
,
1000
0000
1000
0000
,
0010
0000
0010
0000
,
0002
0000
0000
0000
,
0000
0000
0003
0000
,
1000
0000
0001
0000
,
1000
0000
0001
0000
,
1000
0000
0001
0000
,
1000
1000
0000
0000
,
0000
0001
0001
0000
,
1000
0000
0010
0000
,
0001
0000
0001
0000
,
1000
0000
0000
0000
,
0001
0000
0001
0000
,
0100
0000
0100
0000
,
1000
0000
1000
0000
,
0001
0000
0000
0000
,
0000
1000
1000
0000
,
0001
0000
0010
0000
,
1000
0000
1000
0000
,
0001
0000
0000
0000
,
2002
0000
0000
0000
,
3003
0000
0000
0000
,
2002
0000
0000
0000
,
3003
0000
0000
0000
,
2002
0000
0000
0000
,
3003
0000
0000
0000
,
0001
0000
1000
0000
,
0001
0001
0001
0000
,
0000
1000
1000
1000
,
0000
0010
0010
0010
,
0000
0001
0001
0001
,
0000
0100
0100
0100
,
0000
1000
1000
1000
,
1000
1000
1000
1000
,
1000
0000
0010
0000
,
0001
0000
0010
0000
,
1000
0000
0001
0000
,
1000
1000
0000
0000
,
0000
0020
0030
0000
,
0002
0000
0003
0000
,
2000
0000
3000
0000
,
0020
0000
0030
0000
,
0100
0000
0000
0000
,
0010
0000
0000
0000
,
0100
0000
0010
0000
,
0100
0100
0100
0100
,
0000
0001
0001
0000
,
1000
0000
0010
0000
,
0001
0000
1000
0000
,
0001
0000
0000
0000
,
2002
0000
0000
0000
,
3003
0000
0000
0000
,
2002
0000
0000
0000
,
3003
0000
0000
0000
,
2002
0000
0000
0000
,
3003
0000
0000
0000
,
0010
0000
0100
0000
,
0010
0010
0010
0010
,
0000
0000
0000
0000
;
#NOTES:
     dance-single:
     :
     Easy:
     6:
     :
0000
0000
0000
0000
,
0000
0000
0000
0000
,
0000
0000
0000
0000
,
0000
0000
0000
0000
,
0000
0000
0000
0000
,
1000
0010
0010
0000
,
0001
0010
0010
0000
,
1000
0100
0100
0000
,
0001
0100
0100
0000
,
2002
0000
0000
3003
,
0010
0010
0010
0000
,
2002
0000
0000
3003
,
0100
0100
0100
0000
,
2002
0000
0000
3003
,
0010
0010
0010
0000
,
1000
0000
0001
0000
,
1000
0001
1000
0000
,
0010
0010
0010
0000
,
1000
0001
0100
0000
,
0002
0000
0000
0003
,
2000
0000
0000
3000
,
0010
0100
0010
0000
,
0001
0001
0001
0000
,
0010
0100
0010
0000
,
1000
1000
1000
0000
,
0002
0000
1003
0000
,
2000
0000
3001
0000
,
0002
0000
1003
0000
,
2000
0000
3001
0000
,
2002
0000
0000
0000
,
0000
0000
0000
3003
,
1000
1000
0010
0010
,
0001
0001
0010
0010
,
1000
0001
1000
0001
,
0010
0010
0000
0000
,
0000
0001
0010
0010
,
0000
1000
0010
0010
,
1000
0000
0001
0000
,
1001
0000
0010
0000
,
1000
0100
0100
0000
,
0001
0100
0100
0000
,
1000
1000
0001
0001
,
2000
0000
3001
0001
,
0000
0001
0010
0001
,
0000
1000
0010
1000
,
0001
0000
1000
0000
,
1001
0000
0010
0000
,
0001
0000
1000
0000
,
2002
0000
0000
3003
,
1000
0000
0001
0000
,
2002
0000
0000
3003
,
0001
0000
1000
0000
,
2002
0000
0000
3003
,
0010
0000
0100
0000
,
0010
0100
0010
0000
,
0000
1000
1000
0010
,
0000
0001
0001
0010
,
0000
0100
0100
1000
,
0000
0100
0100
0001
,
0000
1000
1000
0010
,
0100
0010
0100
0010
,
1000
0010
1000
0000
,
0001
0010
0001
0000
,
1000
0001
1000
0001
,
0010
0010
0000
0000
,
0000
0002
0000
0003
,
2000
0000
0000
3000
,
0200
0000
0000
0300
,
0020
0000
0000
0030
,
0002
0000
0000
0003
,
2000
0000
0000
3000
,
0002
0003
2000
3000
,
0001
1000
0010
0010
,
0000
1000
0010
1000
,
0000
0001
0010
0001
,
1000
0000
0001
0000
,
1001
0000
0010
0000
,
1000
0000
0001
0000
,
2002
0000
0000
3003
,
0001
0000
1000
0000
,
2002
0000
0000
3003
,
1000
0000
0001
0000
,
2002
0000
0000
3003
,
0010
0000
0100
0000
,
0010
0100
0010
0100
,
0000
0000
0000
0000
;
#NOTES:
     dance-single:
     :
     Medium:
     10:
     :
0000
0000
0000
0000
,
0000
0000
0000
0000
,
0000
0000
0000
0000
,
0000
0000
0000
0000
,
0000
0000
0000
0000
,
0001
0000
0010
0000
1000
0010
0000
0010
,
0000
1000
0100
0000
0010
0000
0001
0100
,
0001
0000
1000
0100
0000
0100
0000
0010
,
0000
0001
0000
1000
0001
0000
1000
0000
,
0110
0000
0000
1001
0000
0110
0000
1001
,
0000
0010
1000
0100
,
0011
0000
0000
1100
0000
0011
0000
1100
,
0000
1000
0001
0100
,
1010
0000
0000
0101
0000
1010
0000
0101
,
0000
1000
0100
0010
,
1002
0103
2001
3100
,
1002
0000
0103
0000
0010
0100
0010
0000
,
0010
0000
1000
0000
0001
0100
0001
0000
,
0010
0000
0001
0000
1000
0100
1000
0000
,
0002
0010
1000
0013
,
2000
0010
0001
3010
,
0100
0000
0010
0000
1000
0100
1000
0000
,
0100
0000
0010
0000
0001
0100
0001
0000
,
1000
0000
0010
0000
0100
0010
0100
0000
,
0001
0000
0010
0000
0100
0010
0100
0010
,
0000
0000
0100
0000
0010
0001
0000
1100
,
0000
0000
0001
0000
1000
0010
0000
0101
,
0000
0000
0010
0000
0100
0010
0000
1001
,
0000
0000
0100
0000
0010
0001
1000
0001
,
0000
0100
0001
0100
,
1000
0100
0001
0100
,
0001
0010
0001
0000
1000
0010
1000
0000
,
0001
0100
0001
0000
1000
0100
1000
0000
,
0001
1000
0001
1000
0001
1000
0001
0000
,
0010
0010
0010
0000
0000
0000
0000
0000
,
0000
0000
1001
0000
0010
0000
1000
0001
,
0000
0010
0000
0001
1000
0000
0001
0000
,
0100
0010
0100
0000
0001
1000
0001
0000
,
0200
0000
0310
0010
,
1000
0000
0100
0000
0010
0001
1000
0001
,
0000
0100
0010
1000
,
0001
0000
0010
0000
1000
0100
0010
0000
,
0002
0000
0103
0100
,
0000
0000
1001
0000
0010
0000
0001
1000
,
0000
0010
0000
1000
0001
0000
1000
0000
,
0100
0010
0100
0000
1000
0001
1000
0000
,
0200
0000
0310
0010
,
1100
0000
0000
0101
0000
1100
0000
0102
,
0000
1003
0010
0001
,
0101
0000
0000
1100
0000
0101
0000
2100
,
0000
3001
0010
1000
,
1001
0000
0000
0110
0000
1001
0000
0110
,
0000
0001
0100
1000
,
1002
0103
2001
3100
,
1002
0000
0103
0000
0010
0100
0000
0010
,
0000
0000
1000
0000
0001
1000
0001
0100
,
0000
0000
0010
0000
1000
0001
1000
0100
,
0000
0000
0010
0000
0100
0010
0100
0010
,
0000
0000
0001
0000
0100
0001
0100
0010
,
0000
2000
0010
3001
,
0002
0010
1000
0103
,
0010
1000
0100
0000
0010
0001
0100
0000
,
1000
0010
0001
0100
,
0001
0100
0001
0000
1000
0100
1000
0000
,
0010
0010
0010
0000
0000
0000
0000
0000
,
0000
0000
0010
0000
1000
0000
0010
0100
,
0000
0010
0000
0000
1000
0000
1000
0000
,
0001
0010
0000
0200
0000
0000
0300
1000
,
0001
0000
0000
0000
,
2020
0000
0000
3030
,
0220
0000
0000
0330
,
0202
0303
2002
3003
,
0110
0000
1001
0000
0010
0100
0010
0100
,
0000
0000
1001
0000
0100
0000
0001
1000
,
0000
0100
0000
1000
0001
0000
1000
0000
,
0010
0100
0010
0000
1000
0001
1000
0000
,
0020
0000
0130
0100
,
1010
0000
0000
0011
0000
1010
0000
0012
,
0000
1003
0100
0001
,
0011
0000
0000
1010
0000
0011
0000
2010
,
0000
3001
0100
1000
,
1001
0000
0000
0110
0000
1001
0000
0110
,
0000
0001
0010
1000
,
1002
0013
2001
3010
,
1002
0000
0013
0000
0100
0010
0100
0000
,
0000
0000
0000
0000
;
#NOTES:
     dance-single:
     :
     Hard:
     13:
     :
0000
0000
0000
0000
,
0000
0000
0000
0000
,
0000
0000
0000
0000
,
0000
0000
0000
0000
,
0000
0000
0000
0000
,
1010
0000
0101
0000
1000
0100
0010
0001
,
0000
0001
0100
0010
1000
0000
0001
1000
,
0100
0000
1000
0001
0010
0002
0000
1000
,
0000
0103
0000
0010
0100
0000
0010
0000
,
1001
1000
0000
1100
0000
0101
0000
1200
,
0000
0000
0310
0000
0001
0100
0010
0000
,
1001
0001
0000
1010
0000
0011
0000
2010
,
0000
0000
3001
0000
1000
0100
0010
0000
,
0110
0100
0000
0011
0000
1100
0000
0012
,
0000
0000
1003
0000
0010
1000
0100
0000
,
0001
0100
0010
0100
1000
0100
0010
0100
,
0001
0000
0100
0000
0010
0000
0100
0000
0001
1000
0001
1000
0001
0000
0000
0000
,
0010
0001
0010
0001
1000
0001
1000
0001
,
1000
0010
1000
0010
0100
0001
0100
0001
,
2000
0000
0010
0000
0100
0100
3100
0000
,
0002
0000
0010
0000
0100
0100
0103
0000
,
1000
0100
1000
0100
0001
0100
0001
0100
,
1000
0001
1000
0001
0100
0001
0100
0000
,
0001
0010
0001
0010
1000
0010
1000
0010
,
0001
1000
0001
1000
0010
1000
0010
1010
,
0000
0100
0010
0000
1000
0100
0010
0011
,
0000
0100
0010
0000
0001
0010
0100
1100
,
0000
0010
0100
0000
1000
0010
0100
0101
,
0000
0001
1000
0000
0010
1000
0001
1000
,
0000
0100
1000
0000
1000
0100
0001
0000
,
0001
0100
1000
0000
1000
0100
0001
0000
,
0100
0010
0001
0010
0100
1000
0001
1000
,
0010
0100
0001
0100
0010
1000
0001
1000
,
0001
0001
0100
0010
1000
1000
0100
0010
,
0100
0100
0100
1000
0100
0001
1000
0001
,
0000
0000
1001
0000
0010
0001
1000
1010
,
0000
0101
0000
2000
0010
0000
3001
0000
,
1000
0000
0100
0000
0010
0000
0001
0000
0000
0000
0001
0000
1000
0000
0001
0100
,
0001
0000
0000
1000
0001
0100
0010
1000
,
0002
0000
0013
0001
1000
0010
0100
0210
,
0000
0001
1000
0301
,
1000
0001
0100
0001
1000
0010
0100
0001
,
2000
0000
0000
3010
0010
0100
0100
0010
,
0000
0000
1001
0000
0010
1000
0001
0011
,
0000
1100
0000
0002
0010
0000
1003
0000
,
0001
0000
0100
0000
0010
0000
1000
0000
0000
0000
1000
0000
0001
0000
1000
0100
,
1000
0000
0000
0001
1000
0100
0010
0001
,
0011
0000
0100
1100
0000
0101
0000
2100
,
0000
0000
3001
0000
0010
0001
0100
0000
,
1010
0000
0100
0101
0000
1100
0000
0102
,
0000
0000
1003
0000
0010
1000
0100
0000
,
1001
0000
0010
0110
0000
1001
0000
0110
,
0000
0000
0001
0000
1000
0100
0010
0000
,
0001
0010
0100
0010
1000
0010
0100
0010
,
0001
0000
0010
0000
0100
0000
0010
0000
0001
1000
0001
1000
0000
0000
1010
0000
,
1000
0001
0100
0010
1000
0100
0010
0110
,
0000
0001
1000
0100
0010
0001
1000
1001
,
0000
0010
1000
0001
0010
0001
0100
0101
,
0000
0001
1000
0100
1000
0010
1000
1010
,
0000
0000
0000
0000
0001
0000
0000
0010
0001
0000
0000
1000
0001
0000
1000
0000
,
0001
0100
0010
1000
0100
0010
0001
0100
,
0010
0000
0010
0100
0000
0001
1000
0010
,
0000
0000
0001
0000
0000
0010
0000
0000
1000
0000
0000
0100
0000
0000
0001
0000
,
1000
1000
0100
0010
0001
0001
0100
0010
,
0100
0100
0100
0001
0100
1000
0001
1000
,
0000
0000
0010
0000
0001
1000
0010
1000
,
0000
0001
0000
0001
0100
0000
0100
0000
,
0010
0000
0100
0000
0000
0000
0020
0000
0000
0000
0000
0000
0030
0000
1000
0001
,
1000
0000
0000
0000
,
0220
0000
0000
0330
,
2002
0000
0000
3003
,
0220
0330
2002
3003
,
0110
0000
0000
0000
1001
0000
0000
0000
0010
0100
0010
0100
0010
0100
0010
0100
,
0000
0000
1001
0000
0100
0001
1000
1100
,
0000
0011
0000
2000
0100
0000
3001
0000
,
1000
0000
0010
0000
0100
0000
0001
0000
0000
0000
0001
0000
1000
0000
0001
0010
,
0001
0000
0000
1000
0001
0010
0100
1000
,
1100
0000
0010
0011
0000
1010
0000
0012
,
0000
0000
1003
0000
0100
1000
0010
0000
,
0101
0000
0010
1010
0000
0011
0000
2010
,
0000
0000
3001
0000
0100
0001
0010
0000
,
1001
0000
0100
0110
0000
1001
0000
0110
,
0000
0000
1000
0000
0001
0010
0100
0000
,
1000
0100
0010
0100
0001
0100
0010
0100
,
1000
0000
0100
0000
0010
0000
0100
0000
1000
0001
1000
0001
1000
0000
0000
0000
,
0000
0000
0000
0000
;
#NOTES:
     dance-double:
     :
     Easy:
     6:
     :
00000000
00000000
00000000
00000000
,
00000000
00000000
00000000
00000000
,
00000000
00000000
00000000
00000000
,
00000000
00000000
00000000
00000000
,
00000000
00000000
00000000
00000000
,
00000001
00000001
00000010
00000000
,
00001000
00001000
00000010
00000000
,
00000001
00000001
00000100
00000000
,
00001000
00001000
00010000
00000000
,
00022000
00000000
00000000
00033000
,
00000010
00000010
00000010
00000000
,
00022000
00000000
00000000
00033000
,
00100000
00100000
00100000
00000000
,
00022000
00000000
00000000
00033000
,
00000010
00000010
00000010
00000000
,
00001000
00000000
00000001
00000000
,
00001000
00000001
00001000
00000000
,
00000010
00000010
00000010
00000000
,
00000001
00000100
00001000
00000000
,
00020000
00000000
00000000
00030000
,
00002000
00000000
00000000
00003000
,
00100000
00010000
00100000
00000000
,
00010000
00000000
10000000
00000000
,
00100000
10000000
00100000
00000000
,
10000000
00000000
00010000
00000000
,
10000000
00000000
01000000
00000000
,
00010000
00000000
00001000
00000000
,
00000010
00000000
00000001
00000000
,
00000100
00000000
00001000
00000000
,
00002002
00000000
00000000
00000000
,
00000000
00000000
00000000
00003003
,
00000001
00000001
00000100
00000100
,
00001000
00001000
00010000
00010000
,
00100000
00100000
10000000
10000000
,
00010000
00010000
00000000
00000000
,
00000000
10000000
00100000
10000000
,
00000000
00010000
00100000
00100000
,
00001000
00000000
00010000
00000000
,
00022000
00000000
00033000
00000000
,
00000010
00000010
00001000
00000000
,
00000010
00000010
00000001
00000000
,
00001000
00001000
00000001
00000001
,
00002000
00000000
00003001
00000001
,
00000000
00001000
00000010
00001000
,
00000000
00000001
00000010
00000010
,
00000100
00000000
00010000
00000000
,
00022000
00000000
00033000
00000000
,
00100000
00000000
00010000
00000000
,
02000000
00000000
00000000
03000000
,
00100000
00000000
10000000
00000000
,
02000000
00000000
00000000
03000000
,
00010000
00000000
00001000
00000000
,
00020000
00000000
00000000
00030000
,
00000010
00000000
00001000
00000000
,
00000001
00001000
00000001
00000000
,
00000000
00000001
00000001
00000010
,
00000000
00001000
00001000
00000010
,
00000000
00000100
00000100
00001000
,
00000000
00010000
00010000
00001000
,
00000000
00010000
00100000
00100000
,
10000000
10000000
01000000
01000000
,
00100000
00010000
00100000
00000000
,
00001000
00010000
00001000
00000000
,
00000010
00000010
00001000
00001000
,
00000001
00000001
00000000
00000000
,
00000000
00002000
00000000
00003000
,
00000002
00000000
00000000
00000003
,
00000200
00000000
00000000
00000300
,
00002000
00000000
00000000
00003000
,
00020000
00000000
00000000
00030000
,
00200000
00000000
00000000
00300000
,
20000000
30000000
02000000
03000000
,
00100000
01000000
00100000
01000000
,
00000000
00010000
00100000
00010000
,
00000000
10000000
00100000
00100000
,
01000000
00000000
00001000
00000000
,
00022000
00000000
00033000
00000000
,
00000010
00000000
00001000
00000000
,
00000200
00000000
00000000
00000300
,
00000010
00000000
00000001
00000000
,
00000200
00000000
00000000
00000300
,
00001000
00000000
00010000
00000000
,
00002000
00000000
00000000
00003000
,
00100000
00000000
00010000
00000000
,
10000000
00010000
10000000
00010000
,
00000000
00000000
00000000
00000000
;
#NOTES:
     dance-double:
     :
     Medium:
     10:
     :
00000000
00000000
00000000
00000000
,
00000000
00000000
00000000
00000000
,
00000000
00000000
00000000
00000000
,
00000000
00000000
00000000
00000000
,
00000000
00000000
00000000
00000000
,
00100000
00000000
10000000
00000000
01000000
00100000
00000000
00100000
,
00000000
00001000
00010000
00000000
00000100
00000000
00000010
00000001
,
00000100
00000000
00000010
00000100
00000000
00000100
00000000
00000001
,
00000000
00000100
00000000
00001000
00010000
00000000
00001000
00000000
,
00210000
00000000
00000000
00001000
00000000
00010000
00000000
00301000
,
00000000
00010000
00000010
00001000
,
00001020
00000000
00000000
00010000
00000000
00001000
00000000
00010030
,
00000000
00001000
01000000
00010000
,
02010000
00000000
00000000
00001000
00000000
00010000
00000000
03001000
,
00000000
00010000
00001000
00010000
,
00010200
00001300
00020100
00031000
,
00010200
00000000
00001300
00000000
00000010
00001000
00000100
00000000
,
00000010
00000000
00000001
00000000
00000100
00000010
00001000
00000000
,
00000001
00000000
00000100
00000000
00001000
00010000
00001000
00000000
,
00020000
00000010
00001000
00030010
,
00002000
00100000
00010000
00103000
,
00010000
00000000
00001000
00000000
00100000
00010000
01000000
00000000
,
00100000
00000000
10000000
00000000
00010000
10000000
01000000
00000000
,
00010000
00000000
00001000
00000000
00000010
00000001
00000100
00000000
,
00000010
00000000
00000100
00000000
00000001
00001000
00000001
00000100
,
00000000
00000000
00000010
00000000
00001000
00000010
00000000
00011000
,
00000000
00000000
00100000
00000000
00010000
00100000
00000000
11000000
,
00000000
00000000
00010000
00000000
01000000
00100000
00000000
10010000
,
00000000
00000000
01000000
00000000
00100000
10000000
00010000
10000000
,
00000000
01000000
00010000
00001000
,
00000100
00000001
00000010
00001000
,
00010000
00001000
00010000
00000000
00000010
00001000
00000010
00000000
,
00010000
00001000
00010000
00000000
00000100
00001000
00000100
00000000
,
00010000
00001000
00010000
00001000
00010000
00001000
00010000
00000000
,
00100000
00100000
00100000
00000000
00000000
00000000
00000000
00000000
,
00000000
00000000
10010000
00000000
00100000
00000000
00010000
00100000
,
00000000
01000000
00000000
10000000
00010000
00000000
01000000
00000000
,
00001000
00010000
00000010
00000000
00001000
00000001
00000010
00000000
,
00000200
00000000
00000310
00000010
,
00000001
00000000
00000100
00000000
00001000
00010000
00001000
00010000
,
00000000
00100000
10000000
01000000
,
00100000
00000000
00100000
00000000
00010000
01000000
00001000
00000000
,
00020000
00000000
00031000
00001000
,
00000000
00000000
00001010
00000000
00000001
00000000
00000010
00000001
,
00000000
00001000
00000000
00000001
00000100
00000000
00000010
00000000
,
00010000
00001000
00100000
00000000
00010000
10000000
00100000
00000000
,
02000000
00000000
03100000
00100000
,
01010000
00000000
00000000
11000000
00000000
01010000
00000000
11000000
,
00000000
01000000
00010000
00001000
,
00001100
00000000
00000000
00000101
00000000
00001100
00000000
00000101
,
00000000
00000100
00001000
00010000
,
00110000
00000000
00000000
10100000
00000000
00110000
00000000
10100000
,
00000000
00100000
00010000
00001000
,
00201000
00310000
00102000
00013000
,
00201000
00000000
00310000
00000000
00100000
00001000
00000000
00010000
,
00000000
00000000
00000100
00000000
00001000
00000100
00000010
00000100
,
00000000
00000000
00000001
00000000
00000100
00000010
00001000
00000010
,
00000000
00000000
00010000
00000000
00001000
00010000
00001000
00010000
,
00000000
00000000
00100000
00000000
10000000
00010000
10000000
01000000
,
00000000
00010000
00100000
10000000
,
01000000
00010000
00001000
00000010
,
00000001
00001000
00000100
00000000
00001000
00000001
00000100
00000000
,
00000002
00000010
00001000
00000103
,
00000010
00001000
00000100
00000000
00010000
00001000
01000000
00000000
,
00010000
00010000
00010000
00000000
00000000
00000000
00000000
00000000
,
00000000
00000000
00100000
00000000
01000000
00000000
10000000
00100000
,
00000000
10000000
00000000
00000000
00010000
00000000
00010000
00000000
,
10000000
01000000
00000000
00020000
00000000
00000000
00030000
00001000
,
00010000
00000000
00000000
00000000
,
00002020
00000000
00000000
00003030
,
00002002
00000000
00000000
00003003
,
00000022
00000033
00000202
00000303
,
00000110
00000000
00001010
00000000
00010000
00001000
00010000
00001000
,
00000000
00000000
00110000
00000000
10000000
00000000
00100000
10000000
,
00000000
00010000
00000000
10000000
01000000
00000000
00100000
00000000
,
00001000
00010000
00000010
00000000
00001000
00000001
00000010
00000000
,
00000200
00000000
00000310
00000010
,
00001100
00000000
00000000
00000101
00000000
00001100
00000000
00000101
,
00000000
00000100
00001000
00010000
,
01010000
00000000
00000000
11000000
00000000
01010000
00000000
11000000
,
00000000
01000000
00010000
00001000
,
00001010
00000000
00000000
00000011
00000000
00001010
00000000
00000011
,
00000000
00000010
00001000
00010000
,
00010020
00001030
00020010
00031000
,
00010020
00000000
00001030
00000000
00000010
00010000
00001000
00000000
,
00000000
00000000
00000000
00000000
;
#NOTES:
     dance-double:
     :
     Hard:
     13:
     :
00000000
00000000
00000000
00000000
,
00000000
00000000
00000000
00000000
,
00000000
00000000
00000000
00000000
,
00000000
00000000
00000000
00000000
,
00000000
00000000
00000000
00000000
,
00001001
00000000
00000110
00000000
00000001
00000100
00000010
00001000
,
00000000
00010000
01000000
00100000
10000000
00000000
00010000
10000000
,
01000000
00000000
00100000
00010000
10000000
00200000
00000000
10000000
,
00000000
01300000
00000000
00001000
00010000
00000000
00001000
00000000
,
00001010
00001000
00000000
00011000
00000000
00001010
00000000
00011000
,
00000000
00000000
00000010
00000000
00000100
00001000
00010000
00000000
,
00110000
00010000
00000000
00011000
00000000
00110000
00000000
00011000
,
00000000
00000000
00100000
00000000
01000000
00010000
00001000
00000000
,
00001100
00001000
00000000
00011000
00000000
00001100
00000000
00011000
,
00000000
00000000
00000100
00000000
00000010
00001000
00010000
00000000
,
00001000
00100000
00010000
01000000
00001000
00100000
00010000
01000000
,
00001000
00000000
00100000
00000000
00010000
00000000
01000000
00000000
00010000
10000000
00010000
10000000
00010000
00000000
00000000
00000000
,
01000000
10000000
01000000
10000000
00010000
00100000
00010000
00100000
,
00001000
00010000
00001000
00010000
00000010
00001000
00000010
00001000
,
00000002
00000000
00000010
00000000
00000100
00000100
00000103
00000000
,
00002000
00000000
00000010
00000000
00000100
00000100
00003100
00000000
,
00000001
00000100
00000001
00000100
00001000
00000100
00001000
00000100
,
00001000
00010000
00001000
00010000
00100000
01000000
00100000
00000000
,
10000000
00010000
10000000
00010000
00100000
01000000
00100000
01000000
,
00010000
00001000
00010000
00001000
00000010
00000100
00000010
00000110
,
00000000
00000100
00001000
00000000
00000001
00000100
00000010
00001010
,
00000000
00010000
00001000
00000000
00100000
00010000
10000000
10010000
,
00000000
00100000
10000000
00000000
01000000
00100000
00010000
00110000
,
00000000
10000000
01000000
00000000
00010000
00001000
00010000
00001000
,
00000000
00000010
00000001
00000000
00000001
00000100
00001000
00000000
,
00001000
00010000
00100000
00000000
00100000
10000000
01000000
00000000
,
10000000
01000000
00100000
01000000
10000000
01000000
00100000
01000000
,
00100000
00001000
00010000
00001000
00100000
00001000
00010000
00001000
,
00010000
00001000
00000100
00000001
00000010
00000100
00001000
00000010
,
00000100
00000100
00000100
00000010
00001000
00010000
00001000
00010000
,
00000000
00000000
00011000
00000000
01000000
00010000
10000000
10100000
,
00000000
01010000
00000000
20000000
00010000
00000000
31000000
00000000
,
10000000
00000000
01000000
00000000
00100000
00000000
00010000
00000000
00000000
00000000
00001000
00000000
00000100
00000000
00000010
00000100
,
00000010
00000000
00000000
00000001
00001000
00000010
00001000
00000001
,
00000100
00000000
00000001
00001000
00000100
00010000
00001000
00020000
,
00000000
00001000
00100000
00001000
,
00130000
00000000
10000000
01000000
00100000
00010000
01000000
00100000
,
20000000
00000000
00000000
31000000
01000000
00010000
00010000
00001000
,
00000000
00000000
00011000
00000000
00000100
00001000
00000001
00000011
,
00000000
00001100
00000000
00000002
00001000
00000000
00000103
00000000
,
00000001
00000000
00000100
00000000
00000010
00000000
00001000
00000000
00000000
00000000
00010000
00000000
01000000
00000000
00100000
01000000
,
00100000
00000000
00000000
00100000
10000000
01000000
00100000
00010000
,
00110000
00000000
00001000
00011000
00000000
00110000
00000000
00011000
,
00000000
00000000
00000010
00000000
00000001
00000100
00000010
00000000
,
00001010
00000000
00010000
00011000
00000000
00001010
00000000
00011000
,
00000000
00000000
00100000
00000000
10000000
00100000
01000000
00000000
,
01010000
00000000
00001000
00011000
00000000
01010000
00000000
00011000
,
00000000
00000010
00000100
00000010
,
00010000
00000010
00001000
00000100
00010000
00000010
00001000
00000100
,
00010000
00000000
00000010
00000000
00001000
00000000
00000100
00000000
00001000
00000001
00001000
00000001
00000000
00000000
00000011
00000000
,
00000001
00000010
00000100
00001000
00000001
00000100
00000010
00000110
,
00000000
00000010
00010000
00001000
01000000
00010000
10000000
10010000
,
00000000
00100000
10000000
01000000
00100000
00010000
01000000
01010000
,
00000000
00001000
00010000
00000100
00001000
00000001
00000010
00000011
,
00000000
00000000
00000000
00000000
00000100
00000000
00000000
00001000
00000100
00000000
00000000
00000010
00000100
00000000
00000010
00000000
,
00000001
00000100
00000010
00000100
00001000
00010000
00100000
01000000
,
00100000
00000000
00100000
10000000
00000000
01000000
00100000
00010000
,
00000000
00000000
10000000
00000000
00000000
01000000
00000000
00000000
00010000
00000000
00000000
00001000
00000000
00000000
00000010
00000000
,
00000001
00000100
00000010
00001000
00000010
00000100
00000001
00000010
,
00000100
00000100
00000100
00001000
00000010
00000001
00001000
00000001
,
00000000
00000000
00000100
00000000
00000010
00001000
00010000
01000000
,
00000000
00100000
00000000
10000000
00010000
00000000
01000000
00000000
,
00100000
00000000
10000000
00000000
00000000
00000000
02000000
00000000
00000000
00000000
00000000
00000000
03000000
00000000
00100000
01000000
,
00100000
00000000
00000000
00000000
,
00220000
00000000
00000000
00330000
,
00022000
00000000
00000000
00033000
,
00002200
00003300
00000220
00000330
,
00000011
00000000
00000000
00000000
00001001
00000000
00000000
00000000
00000010
00000100
00000010
00000100
00000010
00000100
00000010
00000100
,
00000000
00000000
00011000
00000000
01000000
00010000
10000000
10100000
,
00000000
01010000
00000000
20000000
00010000
00000000
31000000
00000000
,
10000000
00000000
01000000
00000000
00100000
00000000
00010000
00000000
00000000
00000000
00001000
00000000
00000100
00000000
00000010
00000100
,
00000010
00000000
00000000
00000010
00000001
00000100
00000010
00001000
,
00001010
00000000
00010000
00011000
00000000
00001010
00000000
00011000
,
00000000
00000000
00100000
00000000
10000000
01000000
00100000
00000000
,
00110000
00000000
00001000
00011000
00000000
00110000
00000000
00011000
,
00000000
00000000
00000010
00000000
00000001
00000010
00000100
00000000
,
00001100
00000000
00010000
00011000
00000000
00001100
00000000
00011000
,
00000000
00100000
01000000
00100000
,
00001000
00100000
00010000
01000000
00001000
00100000
00010000
01000000
,
00001000
00000000
00100000
00000000
00010000
00000000
01000000
00000000
00010000
10000000
00010000
10000000
00010000
00000000
00000000
00000000
,
00000000
00000000
00000000
00000000
;
