
//----- song ID: help -----//
#TITLE:Help me, ERINNNNNN!!;
#ARTIST:ビートまりお(COOL&CREATE);
#ARTISTTRANSLIT:beatMARIO (COOL&CREATE);
#BANNER:Help me, ERINNNNNN!!.png;
#BACKGROUND:Help me, ERINNNNNN!!-bg.png;
#CDTITLE:./CDTitles/SOUND VOLTEX BOOTH.png;
#MUSIC:Help me, ERINNNNNN!!.ogg;
#SAMPLESTART:11.839;
#SAMPLELENGTH:15;
#BPMS:0=183;
#NOTES:
     dance-single:
     :
     Beginner:
     4:
     :
0000
0000
0000
0000
,
0000
0000
0000
0000
,
0000
0000
0000
0000
,
0000
0000
0000
0000
,
0000
0000
0000
0000
,
0000
0000
0000
0000
,
0000
0000
0000
0000
,
0000
0000
0000
0000
,
0000
0000
0000
0000
,
1000
0000
1000
0000
,
0001
0000
0000
0000
,
1000
0000
1000
0000
,
0001
0000
1000
0000
,
0001
0000
0001
0000
,
1000
0000
1000
0000
,
0001
0000
0001
0000
,
1000
0000
0000
0000
,
0001
0000
0001
0000
,
1000
0000
1000
0000
,
0001
0000
0001
0000
,
1000
0000
1000
0000
,
1000
0000
1000
0000
,
0001
0000
0001
0000
,
1000
0000
1000
0000
,
0010
0000
0000
0000
,
0001
0000
1000
0000
,
0010
0000
0000
0000
,
1000
0000
0001
0000
,
0010
0000
0000
0000
,
0001
0000
1000
0000
,
0100
0000
1000
0000
,
1000
0000
0001
0000
,
0100
0000
0000
0000
,
0001
0000
1000
0000
,
0010
0000
1000
0000
,
1000
0000
0000
0000
,
0010
0000
0000
0000
,
1000
0000
1000
0000
,
0100
0000
1000
0000
,
1000
0000
0001
0000
,
0100
0000
0000
0000
,
0001
0001
0001
0001
,
0001
0000
0000
0000
,
1000
0000
1000
0000
,
0001
0000
1000
0000
,
0010
0010
0010
0010
,
0010
0000
0000
0000
,
1000
0000
0010
0000
,
1000
0000
0001
0000
,
1000
0000
1000
0000
,
0001
0000
0000
0000
,
1000
0000
1000
0000
,
0100
0000
0100
0000
,
0001
0000
0001
0000
,
1000
0000
0000
0000
,
0001
0000
0001
0000
,
1000
0000
1000
0000
,
0100
0000
0000
0000
,
0010
0000
0010
0000
,
0001
0000
1000
0000
,
0010
0010
0010
0000
,
1000
0000
0001
0000
,
0100
0000
0000
0000
,
0002
0000
0003
0000
,
0020
0000
0030
0000
,
2000
0000
3000
0000
,
0200
0000
0300
0000
,
0002
0000
0003
0000
,
0020
0000
0030
0000
,
0200
0000
0300
0000
,
1000
0000
0000
0000
,
2002
0000
0000
0000
,
0000
0000
0000
0000
,
0000
0000
0000
0000
0000
0000
0000
0000
0000
0000
0000
0000
0000
0000
0000
0000
0000
0000
0000
0000
0000
0000
0000
0000
0000
0000
0000
0000
0000
0000
0000
0000
0000
0000
0000
0000
0000
0000
0000
0000
0000
0000
0000
0000
0000
0000
0000
0000
0000
0000
0000
0000
0000
0000
0000
0000
0000
0000
0000
0000
0000
0000
0000
0000
0000
0000
0000
0000
0000
0000
0000
0000
0000
0000
0000
0000
0000
0000
0000
0000
0000
0000
0000
0000
0000
0000
0000
0000
0000
0000
0000
0000
0000
0000
0000
0000
0000
0000
0000
0000
0000
0000
0000
0000
0000
0000
0000
0000
0000
0000
0000
0000
0000
0000
0000
0000
0000
0000
0000
0000
0000
0000
0000
0000
0000
0000
0000
0000
0000
0000
0000
0000
0000
0000
0000
0000
0000
0000
0000
0000
0000
0000
0000
0000
0000
0000
0000
0000
0000
0000
0000
0000
0000
0000
0000
0000
0000
0000
0000
0000
0000
0000
0000
0000
0000
0000
0000
0000
0000
0000
0000
0000
0000
0000
0000
0000
0000
0000
0000
0000
0000
0000
0000
0000
0000
0000
0000
0000
0000
0000
0000
3003
,
0000
0000
0000
0000
;
#NOTES:
     dance-single:
     :
     Easy:
     5:
     :
0000
0000
0000
0000
,
0000
0000
0000
0000
,
0000
0000
0000
0000
,
0000
0000
0000
0000
,
0000
0000
0000
0000
,
0000
0000
0000
0000
,
0000
0000
0000
0000
,
0000
0000
0000
0000
,
0000
0000
0000
0000
,
1000
0000
1000
0000
,
0001
0000
0001
0000
,
1000
0100
1000
0001
,
0100
0001
1000
0000
,
0001
0010
0001
0000
,
1000
0010
1000
0000
,
0001
0010
0001
1000
,
0010
1000
0001
0000
,
0001
0100
0001
0000
,
1000
0100
1000
0000
,
0001
0100
0001
1000
,
0100
1000
0001
1000
,
1000
0010
1000
0000
,
0001
0010
0001
0000
,
1000
0010
1000
0001
,
0010
0000
0000
0010
,
0001
0000
1000
0000
,
0010
0100
0001
0000
,
1000
0000
0001
0000
,
0010
0100
1000
0000
,
0001
0000
1000
0000
,
0100
0010
0001
0000
,
1000
0000
0001
0000
,
0100
0010
1000
0000
,
0001
0001
1000
1000
,
0010
0100
0001
0000
,
1000
1000
0001
0001
,
0010
0100
1000
0000
,
0001
0000
1000
0000
,
0100
0010
0001
0000
,
1000
0000
0001
0000
,
0100
0010
1000
0000
,
0001
1000
0001
1000
,
0001
0000
0001
0000
,
0001
0100
0010
1000
,
0001
0000
1000
0000
,
0010
0100
0010
0100
,
0010
0000
1000
0000
,
1000
0100
0010
0001
,
1000
0000
1001
0000
,
1000
0100
1000
0000
,
0001
0100
0001
0000
,
1000
0100
1000
0001
,
0100
0001
1000
0000
,
0001
0100
0001
0000
,
1000
0100
1000
0000
,
0001
0100
0001
1000
,
0100
1000
0001
0000
,
1000
0000
0001
0000
,
0010
0100
0010
0000
,
0001
0000
1000
0000
,
0010
0100
0010
0100
,
0001
0000
1000
0000
,
0010
0100
0010
0000
,
1000
0100
0001
0100
,
1000
0100
0001
0100
,
2000
0000
0000
3000
,
0200
0000
0000
0300
,
0002
0000
0000
0003
,
0020
0000
0000
0030
,
0220
0000
0000
0330
,
1000
0001
1000
0000
,
2002
0000
0000
0000
,
0000
0000
0000
0000
,
0000
0000
0000
0000
0000
0000
0000
0000
0000
0000
0000
0000
0000
0000
0000
0000
0000
0000
0000
0000
0000
0000
0000
0000
0000
0000
0000
0000
0000
0000
0000
0000
0000
0000
0000
0000
0000
0000
0000
0000
0000
0000
0000
0000
0000
0000
0000
0000
0000
0000
0000
0000
0000
0000
0000
0000
0000
0000
0000
0000
0000
0000
0000
0000
0000
0000
0000
0000
0000
0000
0000
0000
0000
0000
0000
0000
0000
0000
0000
0000
0000
0000
0000
0000
0000
0000
0000
0000
0000
0000
0000
0000
0000
0000
0000
0000
0000
0000
0000
0000
0000
0000
0000
0000
0000
0000
0000
0000
0000
0000
0000
0000
0000
0000
0000
0000
0000
0000
0000
0000
0000
0000
0000
0000
0000
0000
0000
0000
0000
0000
0000
0000
0000
0000
0000
0000
0000
0000
0000
0000
0000
0000
0000
0000
0000
0000
0000
0000
0000
0000
0000
0000
0000
0000
0000
0000
0000
0000
0000
0000
0000
0000
0000
0000
0000
0000
0000
0000
0000
0000
0000
0000
0000
0000
0000
0000
0000
0000
0000
0000
0000
0000
0000
0000
0000
0000
0000
0000
0000
0000
0000
3003
,
0000
0000
0000
0000
;
#NOTES:
     dance-single:
     :
     Medium:
     9:
     :
0000
0000
0000
0000
,
0000
0000
0000
0000
,
0000
0000
0000
0000
,
0000
0000
0000
0000
,
0000
0000
0000
0000
,
0000
0000
0000
0000
,
0000
0000
0000
0000
,
1010
0100
0101
0010
,
1000
1000
0010
1000
,
1000
0000
0001
0000
,
1000
0000
0100
0000
0010
0000
0001
1000
,
0010
0000
0100
0010
1000
0000
0100
0000
,
1000
0101
0001
1100
,
0001
0001
1000
1000
,
0001
0000
0100
1000
0100
0000
0001
0000
,
0010
0000
0100
0010
0001
0000
0100
0000
,
0001
0110
1000
0110
,
0001
0001
1000
1000
,
0001
0000
0100
0000
0010
0000
1000
0001
,
0010
0000
0100
0010
0001
0000
0100
0000
,
0001
1100
1000
0101
,
1000
1000
0001
0001
,
1000
0000
0100
0001
0100
0000
1000
0000
,
0010
0000
0100
0010
1000
0000
0100
0000
,
1000
0110
0001
0110
,
1000
0001
0001
0100
,
0010
0000
1000
0010
0000
1000
0000
1000
,
0001
0000
1000
0000
0001
0000
0100
0010
,
1000
0001
0100
0010
,
1000
0110
0001
1001
,
1000
0010
1000
0000
0001
0000
0100
0000
,
0010
0000
1000
0000
0001
0010
0100
0000
,
1000
0001
1000
1000
,
0001
1000
1000
0100
,
0010
0000
0001
0010
0000
0001
0000
0001
,
1000
0000
0001
0000
1000
0000
0100
0010
,
0001
1000
0100
0010
,
0001
0100
1000
1001
,
0001
0010
0001
0000
1000
0000
0100
0000
,
0010
0001
0100
1000
,
0010
0001
0100
1100
,
1000
0101
0001
1100
,
1000
0010
1000
0100
,
1000
0000
0000
0001
0100
0000
0001
0000
,
0100
0000
0000
0010
0100
0000
0010
0000
,
1000
0101
0001
1100
,
0001
0000
0000
0100
0001
0000
0110
0000
,
1000
0001
1000
0001
,
1000
0001
0100
0000
1001
0000
0000
0000
,
1000
1000
0001
0001
,
1000
0000
0100
0000
0010
0000
0001
1000
,
0010
0000
0100
0010
1000
0000
0100
0000
,
1000
0101
0001
1100
,
1000
1000
0001
0001
,
1000
0000
0100
0001
0100
0000
1000
0000
,
0010
0000
0100
0010
1000
0000
0100
0000
,
1000
0110
0001
0110
,
1000
1000
0001
0001
,
1000
0000
0100
0000
0010
0000
0001
1000
,
0010
0000
0100
0010
1000
0000
0100
0000
,
1000
0101
0001
1100
,
0001
0001
1000
1000
,
0001
0000
0100
1000
0100
0000
0001
0000
,
0020
0000
0001
0100
,
1000
0100
0001
0130
,
0010
0001
0100
1000
,
0010
0001
0100
1000
,
0010
0000
0001
0000
0100
1000
0010
0000
,
0001
0000
0100
0000
1000
0010
0001
0000
,
2002
0000
0000
3003
,
0001
0010
0001
0010
0001
0000
0000
0000
,
2002
0000
0000
0000
,
0000
0000
0000
0000
,
0000
0000
0000
3003
,
0000
0000
0000
0000
;
#NOTES:
     dance-single:
     :
     Hard:
     12:
     :
0000
0000
0000
0000
,
0000
0000
0000
0000
,
0000
0000
0000
0000
,
0000
0000
0000
0000
,
0000
0000
0000
0000
,
0000
0000
0000
0000
,
0000
0000
0000
0000
,
1100
0110
0011
0110
,
1000
0000
0000
0001
0000
0000
1000
0000
0100
0000
0000
0000
1000
0000
0000
0000
,
0011
0000
1100
0000
,
0001
1000
0100
1000
0010
0001
1000
0001
,
0010
0000
0100
0010
0001
1000
0100
1000
,
0001
1100
1000
0101
,
1000
0100
1000
0000
0001
0000
0001
0000
,
1000
0001
0100
0001
0100
0000
0001
1000
,
0010
0000
0100
0010
1000
0001
0100
0001
,
1000
0010
0100
0001
0100
0000
0101
0000
,
1010
0010
0101
0100
,
1000
0001
0100
0001
0100
0000
0001
1000
,
0010
0000
0100
0010
1000
0001
0100
0001
,
1000
0101
0001
1100
,
0001
0100
0001
0000
1000
0000
1000
0000
,
0001
1000
0100
1000
0100
0000
1000
0001
,
0010
0000
0100
0010
0001
1000
0100
1000
,
0001
0100
0010
1000
0100
1000
0100
0000
,
1000
0101
0001
0110
,
0010
0100
1000
0010
0000
1000
0010
1000
,
0001
0000
1000
0000
0001
0010
0100
0010
,
0001
1000
0100
1010
,
0100
0110
0010
1001
,
1000
0010
1000
0010
1000
0001
0100
0000
,
0001
0000
1000
0000
0001
0010
0100
0010
,
0001
0000
1000
0000
0001
1000
0000
0100
,
1000
1100
1000
0110
,
0010
0100
0001
0010
0000
0001
0010
0001
,
1000
0000
0001
0000
1000
0100
0001
0100
,
1000
0001
0100
0001
,
0100
0110
0010
1001
,
0001
0010
0001
0010
0001
1000
0100
0000
,
1000
0000
0001
0000
1000
0010
0000
0010
,
0001
0010
1000
0000
,
1000
0101
0001
1100
,
1000
0100
0010
0001
1000
0000
0110
0000
,
1000
0000
0001
0010
0100
0000
1000
0100
,
1000
0100
0010
0001
1000
0000
1100
0000
,
0001
1100
1000
0101
,
0001
0100
0010
1000
0001
0000
0110
0000
,
1001
0110
1001
0001
,
1000
0000
0000
0100
0000
0000
1000
0000
0001
0000
0000
0000
0100
0000
0000
0000
,
0011
0010
1100
0100
,
0001
1000
0100
1000
0100
0000
1000
0001
,
0010
0000
0100
0010
0001
1000
0100
1000
,
0001
1100
1000
0101
,
1000
0100
1000
0000
0001
0000
0001
0000
,
1000
0001
0100
0001
0100
0000
0001
1000
,
0010
0000
0100
0010
1000
0001
0100
0001
,
1000
0100
0010
0001
0010
0000
0110
0000
,
1000
0010
1000
0000
0001
0100
0001
0000
,
1000
0001
0100
0001
0100
0000
0001
1000
,
0010
0000
0100
0010
1000
0001
0100
0001
,
1000
0101
0001
1100
,
0001
0100
0001
0000
1000
0000
1000
0000
,
0001
1000
0100
1000
0010
1000
0100
1000
,
0010
0000
0010
0000
0010
0000
0010
0001
,
0100
0000
0100
0000
0100
0000
0100
1000
,
0010
0000
0100
0000
0100
0010
0100
0000
,
1000
0000
1000
0000
1000
0001
1000
0000
,
0010
0000
0010
0000
0010
0100
0010
0000
,
0001
0010
0001
0000
0100
1000
0100
0000
,
2002
0000
0000
3003
,
0001
0010
0100
0010
0001
0000
0000
0000
,
2020
0000
0000
0000
,
0000
0000
0000
0000
,
0000
0000
0000
3030
,
0000
0000
0000
0000
;
#NOTES:
     dance-double:
     :
     Easy:
     6:
     :
00000000
00000000
00000000
00000000
,
00000000
00000000
00000000
00000000
,
00000000
00000000
00000000
00000000
,
00000000
00000000
00000000
00000000
,
00000000
00000000
00000000
00000000
,
00000000
00000000
00000000
00000000
,
00000000
00000000
00000000
00000000
,
00000000
00000000
00000000
00000000
,
00000000
00000000
00000000
00000000
,
10000000
00000000
01000000
00000000
,
00010000
00000000
00001000
00000000
,
00001000
00000100
00000001
00000000
,
00000001
00000010
00001000
00010000
,
00010000
00100000
01000000
00000000
,
00001000
00010000
00001000
00000000
,
00010000
00001000
00010000
00000000
,
00010000
00001000
00000100
00000001
,
00000001
00000001
00000100
00000100
,
00001000
00000000
00010000
00000000
,
00010000
01000000
10000000
00000000
,
10000000
00100000
00010000
00001000
,
00001000
00000010
00000100
00000000
,
00010000
00001000
00010000
00000000
,
01000000
00100000
00010000
10000000
,
01000000
00010000
00001000
00011000
,
00010000
00010000
00001000
00001000
,
00000100
00000001
00000001
00000000
,
00000001
00000000
00000100
00000000
,
00001000
00010000
00100000
00000000
,
10000000
00000000
10000000
00000000
,
01000000
00100000
00010000
00000000
,
10000000
00000000
01000000
00000000
,
00010000
00001000
00000100
00000000
,
00000001
00000100
00001000
00000000
,
00000100
00000001
00000001
00000000
,
00000001
00000000
00000100
00000000
,
00001000
00010000
00100000
00000000
,
10000000
00000000
10000000
00000000
,
01000000
00100000
00010000
00000000
,
10000000
10000000
01000000
01000000
,
00010000
00001000
00000100
00000000
,
00000001
00000100
00001000
00000100
,
00000001
00000100
00001000
00000000
,
00010000
01000000
00100000
00010000
,
10000000
00000000
10000000
00000000
,
10000000
01000000
00010000
01000000
,
10000000
01000000
00010000
00000000
,
00001000
00000100
00000010
00001000
,
00000001
00000100
00001000
00000000
,
00010000
00010000
00001000
00000000
,
00001000
00001000
00010000
00000000
,
00010000
01000000
10000000
00000000
,
10000000
00100000
00010000
00001000
,
00001000
00000010
00000100
00000000
,
00010000
00001000
00010000
00000000
,
00001000
00010000
00001000
00000000
,
00001000
00010000
01000000
10000000
,
10000000
10000000
01000000
01000000
,
00010000
00000000
00001000
00000000
,
00001000
00000100
00000001
00000000
,
00000001
00000010
00001000
00010000
,
00010000
00100000
01000000
00000000
,
00001000
00010000
00001000
00000000
,
00000100
00000001
00000100
00001000
,
00010000
00100000
10000000
01000000
,
20000000
00000000
00000000
30000000
,
02000000
00000000
00000000
03000000
,
00020000
00000000
00000000
00030000
,
00002000
00000000
00000000
00003000
,
00000020
00000000
00000000
00000030
,
00000001
00000100
00001000
00000000
,
00022000
00000000
00000000
00000000
,
00000000
00000000
00000000
00000000
,
00000000
00000000
00000000
00000000
00000000
00000000
00000000
00000000
00000000
00000000
00000000
00000000
00000000
00000000
00000000
00000000
00000000
00000000
00000000
00000000
00000000
00000000
00000000
00000000
00000000
00000000
00000000
00000000
00000000
00000000
00000000
00000000
00000000
00000000
00000000
00000000
00000000
00000000
00000000
00000000
00000000
00000000
00000000
00000000
00000000
00000000
00000000
00000000
00000000
00000000
00000000
00000000
00000000
00000000
00000000
00000000
00000000
00000000
00000000
00000000
00000000
00000000
00000000
00000000
00000000
00000000
00000000
00000000
00000000
00000000
00000000
00000000
00000000
00000000
00000000
00000000
00000000
00000000
00000000
00000000
00000000
00000000
00000000
00000000
00000000
00000000
00000000
00000000
00000000
00000000
00000000
00000000
00000000
00000000
00000000
00000000
00000000
00000000
00000000
00000000
00000000
00000000
00000000
00000000
00000000
00000000
00000000
00000000
00000000
00000000
00000000
00000000
00000000
00000000
00000000
00000000
00000000
00000000
00000000
00000000
00000000
00000000
00000000
00000000
00000000
00000000
00000000
00000000
00000000
00000000
00000000
00000000
00000000
00000000
00000000
00000000
00000000
00000000
00000000
00000000
00000000
00000000
00000000
00000000
00000000
00000000
00000000
00000000
00000000
00000000
00000000
00000000
00000000
00000000
00000000
00000000
00000000
00000000
00000000
00000000
00000000
00000000
00000000
00000000
00000000
00000000
00000000
00000000
00000000
00000000
00000000
00000000
00000000
00000000
00000000
00000000
00000000
00000000
00000000
00000000
00000000
00000000
00000000
00000000
00000000
00000000
00000000
00000000
00000000
00000000
00000000
00033000
,
00000000
00000000
00000000
00000000
;
#NOTES:
     dance-double:
     :
     Medium:
     9:
     :
00000000
00000000
00000000
00000000
,
00000000
00000000
00000000
00000000
,
00000000
00000000
00000000
00000000
,
00000000
00000000
00000000
00000000
,
00000000
00000000
00000000
00000000
,
00000000
00000000
00000000
00000000
,
00000000
00000000
00000000
00000000
,
10100000
01000000
00010000
00001000
,
00000010
00000001
00000010
00000000
,
00000001
00000000
00001000
00000000
,
00000001
00000000
00000100
00000000
00001000
00000000
00010000
00001000
,
00100000
00000000
01000000
00100000
10000000
00000000
01000000
00000000
,
10000000
01010000
00010000
00011000
,
00000100
00000001
00000100
00001000
,
00000100
00000000
00000001
00000010
00000001
00000000
00000001
00000000
,
00000100
00000000
00001000
00010000
00100000
00000000
01000000
00000000
,
10000000
01100000
00010000
00011000
,
00010000
00100000
10000000
00000000
,
10000000
00000000
01000000
00000000
00010000
00000000
00001000
00010000
,
00000010
00000000
00000100
00000010
00000100
00000000
00000010
00000000
,
00000001
00001100
00001000
00011000
,
01000000
10000000
01000000
00010000
,
01000000
00000000
10000000
00100000
10000000
00000000
10000000
00000000
,
01000000
00000000
00010000
00001000
00000010
00000000
00000100
00000000
,
00000001
00000110
00001000
00011000
,
00010000
00010000
01000000
01000000
,
00100000
00000000
00010000
10000000
00000000
01000000
00000000
00010000
,
00001000
00000000
00000010
00000000
00000001
00000000
00000100
00000010
,
00001000
00000001
00000100
00001000
,
00010000
01100000
01000000
11000000
,
10000000
00100000
10000000
00000000
00010000
00000000
01000000
00000000
,
00001000
00000000
00010000
00000000
00001000
00000010
00000100
00000000
,
00001000
00000001
00000100
00001000
,
00010000
00010000
01000000
01000000
,
00100000
00000000
00010000
00100000
00000000
00010000
00000000
01000000
,
00001000
00010000
00001000
00000100
,
00000001
00000001
00000100
00001000
,
00010000
01000000
10000000
01000000
,
00100000
01000000
00010000
00000000
00001000
00000000
00010000
00000000
,
00001000
00000100
00001000
00010000
,
01000000
00010000
00001000
00010000
,
00001000
00001100
00001000
00000110
,
00000001
00000010
00000001
00000100
,
00001000
00000000
00000000
00010000
01000000
00000000
10000000
00000000
,
01000000
00000000
00000000
10000000
01000000
00000000
00100000
00000000
,
00001000
00011000
00001000
00000110
,
00000001
00000000
00000000
00000100
00001000
00000000
00001001
00000000
,
00000001
00000100
00001000
00010000
,
00001000
00010000
00011000
00000000
,
00001000
00001000
00010000
00010000
,
01000000
00000000
01000000
00000000
00010000
00000000
00001000
00010000
,
00000010
00000000
00000100
00000010
00000100
00000000
00000010
00000000
,
00000100
00001100
00001000
00011000
,
01000000
10000000
01000000
00010000
,
01000000
00000000
10000000
00100000
10000000
00000000
10000000
00000000
,
01000000
00000000
00010000
00001000
00000010
00000000
00000100
00000000
,
00000001
00000110
00001000
00011000
,
00001000
00000010
00000001
00000000
,
00000001
00000000
00000100
00000000
00001000
00000000
00010000
00001000
,
00100000
00000000
01000000
00100000
01000000
00000000
00100000
00000000
,
10000000
01010000
00010000
00011000
,
00000100
00000001
00000100
00001000
,
00000100
00000000
00000001
00000010
00000001
00000000
00000001
00000000
,
00000001
00000100
00001000
00010000
,
01000000
10000000
00100000
00010000
,
00001000
00010000
00001000
00000100
,
00000001
00000010
00001000
00010000
,
00100000
00000000
10000000
00000000
01000000
00010000
00001000
00000000
,
00010000
00000000
00001000
00000000
00010000
00001000
00010000
00000000
,
00022000
00000000
00000000
00033000
,
00001000
00000010
00001000
00000010
00001000
00000000
00000000
00000000
,
00002002
00000000
00000000
00000000
,
00000000
00000000
00000000
00000000
,
00000000
00000000
00000000
00003003
,
00000000
00000000
00000000
00000000
;
#NOTES:
     dance-double:
     :
     Hard:
     12:
     :
00000000
00000000
00000000
00000000
,
00000000
00000000
00000000
00000000
,
00000000
00000000
00000000
00000000
,
00000000
00000000
00000000
00000000
,
00000000
00000000
00000000
00000000
,
00000000
00000000
00000000
00000000
,
00000000
00000000
00000000
00000000
,
11000000
01100000
00110000
00011000
,
00001000
00000000
00000000
00010000
00000000
00000000
00001000
00000000
00000100
00000000
00000000
00000000
00000001
00000000
00000000
00000000
,
00000011
00000000
00001100
00000000
,
00000001
00001000
00000100
00001000
00000010
00000000
00010000
00000000
,
00001000
00000000
00010000
00100000
00010000
00001000
00010000
01000000
,
10000000
01010000
10000000
01010000
,
00001000
00010000
00001000
00000000
00000100
00000000
00000001
00000000
,
00001000
00000001
00000100
00000001
00000100
00000000
00001000
00010000
,
00100000
00000000
01000000
00100000
10000000
00010000
01000000
00010000
,
10000000
00100000
01000000
00001000
00010000
00000000
00011000
00000000
,
00001000
00000010
00001000
00010000
,
00001000
00010000
00000100
00010000
00001000
00000000
00001000
00000000
,
00010000
00000000
00001000
00000010
00001000
00010000
00001000
00000100
,
00000001
00001100
00000001
00001100
,
00010000
00001000
00010000
00000000
01000000
00000000
10000000
00000000
,
00010000
10000000
01000000
10000000
01000000
00000000
00010000
00001000
,
00000010
00000000
00000100
00000010
00000001
00001000
00000100
00001000
,
00000001
00000010
00000100
00010000
00001000
00000000
00011000
00000000
,
00010000
11000000
00010000
11000000
,
00100000
01000000
00010000
00100000
00000000
00001000
00100000
00001000
,
00000100
00000000
00000001
00000000
00000001
00000010
00000100
00000010
,
00000001
00000100
00001000
00011000
,
00010000
01100000
00100000
10010000
,
10000000
00100000
10000000
00100000
10000000
01000000
00010000
00000000
,
00001000
00000000
00000100
00000000
00000001
00000010
00000100
00000010
,
00000001
00000000
00001000
00000000
00000001
00000100
00000000
00001000
,
00010000
00110000
01000000
01100000
,
00100000
01000000
10000000
00100000
00000000
10000000
00100000
00010000
,
00001000
00000000
00010000
00000000
00001000
00000100
00000001
00000100
,
00001000
00000100
00000001
00000100
,
00001000
00011000
00110000
00010000
,
00010000
00100000
00001000
00100000
00010000
00100000
01000000
00000000
,
00010000
00000000
00001000
00000000
00000100
00000010
00000000
00000100
,
00000001
00000010
00001000
00010000
,
00010000
11000000
00010000
11000000
,
10000000
01000000
00100000
00001000
00010000
00000000
00011000
00000000
,
00001000
00000000
00000100
00000010
00000100
00000000
00000001
00000100
,
00000001
00000100
00000010
00001000
00000100
00000000
00011000
00000000
,
00010000
10100000
00010000
10100000
,
10000000
01000000
00100000
00001000
00010000
00000000
00011000
00000000
,
00010000
00100000
00011000
00000100
,
00010000
00000000
00000000
00001000
00000000
00000000
00010000
00000000
00000100
00000000
00000000
00000000
00000010
00000000
00000000
00000000
,
00000011
00000010
00001100
00000100
,
00000001
00001000
00000100
00001000
00000010
00000000
00010000
00000000
,
00001000
00000000
00010000
00100000
00010000
00001000
00010000
01000000
,
10000000
01010000
10000000
01010000
,
00001000
00010000
00001000
00000000
00000100
00000000
00000001
00000000
,
00001000
00000001
00000100
00000001
00000100
00000000
00001000
00010000
,
00100000
00000000
01000000
00100000
10000000
00010000
01000000
00010000
,
10000000
00100000
01000000
00001000
00010000
00000000
00011000
00000000
,
00001000
00000010
00001000
00010000
,
00001000
00010000
00000100
00010000
00001000
00000000
00001000
00000000
,
00010000
00000000
00001000
00000010
00001000
00010000
00001000
00000100
,
00000001
00001100
00000001
00001100
,
00010000
00001000
00010000
00000000
01000000
00000000
10000000
00000000
,
00010000
10000000
01000000
10000000
01000000
00000000
00010000
00001000
,
00010000
00000000
00001000
00000000
00010000
00000000
00001000
00010000
,
00000100
00000000
00000010
00000000
00000100
00000000
00000010
00000001
,
00000100
00000000
00001000
00000000
00000100
00001000
00000100
00000000
,
00001000
00000000
00010000
00000000
00001000
00010000
00001000
00000000
,
00100000
00000000
01000000
00000000
00100000
01000000
00100000
00000000
,
00010000
00100000
00010000
00000000
01000000
10000000
01000000
00000000
,
20020000
00000000
00000000
30030000
,
10000000
01000000
00010000
00001000
00000100
00000000
00000000
00000000
,
00000002
00000000
00000000
00000000
,
00000000
00000000
00000000
00000000
,
00000000
00000000
00000000
00000003
,
00000000
00000000
00000000
00000000
;
