
//----- song ID: hapl -----//
#TITLE:*ハロー、プラネット。;
#ARTIST:sasakure.UK;
#TITLETRANSLIT:Hello, planet.;
#BANNER:Hello, planet.png;
#BACKGROUND:Hello, planet-bg.png;
#CDTITLE:./CDTitles/pop'n music peace.png;
#MUSIC:Hello, planet.ogg;
#SAMPLESTART:49.645;
#SAMPLELENGTH:15;
#BPMS:0=150;
#TIMESIGNATURES:188=3=4,191=4=4;
#NOTES:
     dance-single:
     :
     Beginner:
     3:
     :
0000
0000
0000
0000
,
0000
0000
0000
0000
,
0000
0000
0000
0000
,
0000
0000
0000
0000
,
0000
0000
0000
0000
,
0001
0000
0001
0000
,
0001
0000
0001
0001
,
0001
0000
0000
0000
,
0000
0000
0000
0000
,
1000
0000
1000
0000
,
1000
0000
1000
1000
,
1000
0000
0000
0000
,
0000
0000
0000
0000
,
0010
0000
0010
0000
,
0010
0000
0010
0010
,
0010
0000
0000
0000
,
0000
0000
0000
0000
,
0100
0000
0100
0000
,
0100
0000
0100
0100
,
0100
0000
0000
0000
,
0000
0001
0001
0001
,
0002
0000
0003
0000
,
0020
0000
0030
0000
,
2000
0000
3000
0000
,
0020
0000
0030
0000
,
1001
0000
0000
0000
,
0110
0000
0000
0000
,
0002
0000
0003
0000
,
0001
0000
0001
0000
,
2000
0000
3000
0000
,
1000
0000
1000
0000
,
1000
1000
1000
0000
,
0010
0000
1000
0000
,
0100
0000
0100
0000
,
1000
0000
0000
0000
,
0001
0001
0001
0000
,
0010
0000
0001
0000
,
0100
0000
0100
0000
,
0001
0000
0000
0000
,
1000
1000
1000
0000
,
0010
0000
1000
0000
,
0100
0000
0100
0000
,
1000
0000
0000
0000
,
0001
0001
0001
0000
,
0010
0000
0001
0000
,
0100
0000
0100
0000
,
0002
0000
0003
0000
,
0000
0000
0000
1000
,
1000
1000
0000
0010
,
0000
1000
0000
0100
,
0000
0100
0000
1000
,
0000
0000
0000
0001
,
0001
0001
0000
0010
,
0000
0001
0000
0100
,
0000
0100
0000
0001
,
0000
0000
0000
1000
,
1000
1000
0000
0010
,
0000
1000
0000
0100
,
0000
0100
0000
1000
,
0000
0000
0000
0001
,
0001
0001
0000
0010
,
0000
0001
0000
0100
,
0000
0100
0000
0001
,
0000
0000
0000
0002
,
0000
0003
0000
0020
,
0000
0030
0000
2000
,
0000
3000
0000
0020
,
0000
0030
0000
0000
,
0000
0000
0000
0002
,
0000
0003
0000
2000
,
0000
3000
0000
1001
,
0000
0000
0000
0000
;
#NOTES:
     dance-single:
     :
     Easy:
     7:
     :
0000
0000
0000
0000
,
0000
0000
0000
0000
,
0000
0000
0000
0000
,
0000
0000
0000
0000
,
0000
0000
0000
0000
,
0001
1000
1000
0001
,
1000
0100
0010
0001
,
0100
0000
0010
0010
,
1000
0001
1000
0000
,
1000
0100
0001
0010
,
2000
0000
3002
0000
,
0103
0100
0100
0100
,
0000
1000
0001
1000
,
0001
0001
1000
1000
,
0001
0010
0100
0000
,
0110
0000
1001
0000
,
0110
0000
1001
0000
,
0010
0010
0100
0100
,
0001
1000
0001
0000
,
1000
0100
0010
0001
,
1001
0010
0010
0010
,
0002
0000
0000
0000
,
2003
0000
3200
0000
,
0320
0000
0032
0000
,
2003
0000
0000
3001
,
0100
0000
0000
0100
0000
0000
0001
0000
,
0000
0001
0000
0000
1000
0000
0001
0000
,
0020
0000
0230
0000
,
2300
0000
3002
0000
,
0203
0000
0320
0000
,
2030
0000
3001
0000
,
1000
0001
1000
0000
0001
0000
0010
0000
,
0100
0100
1000
1000
,
0001
0000
0100
0100
,
0010
1000
0000
0000
,
0001
1000
0001
0000
1000
0000
0010
0000
,
0100
0100
0001
0001
,
1000
0000
0100
0100
,
0010
0001
0000
0000
,
1000
0001
1000
0000
0001
0000
0100
0000
,
0010
0010
1000
1000
,
0001
0000
0010
0010
,
0100
1000
0000
0000
,
0001
1000
0001
0000
1000
0000
0010
0000
,
0100
0100
0001
0001
,
1000
0000
0100
0100
,
0010
0001
0010
0100
,
0000
0000
0000
0000
0000
0000
1000
0001
,
1000
0001
0010
0100
,
0100
1000
1000
0010
,
0010
0100
0001
1000
,
0001
0000
0000
0000
0000
0000
0001
1000
,
0001
1000
0010
0100
,
0100
0001
0001
0010
,
0010
0100
1000
0001
,
1000
0000
0000
0000
0000
0000
1000
0001
,
1000
0001
0100
0010
,
0010
1000
1000
0100
,
0100
0010
0001
1000
,
0001
0000
0000
0000
0000
0000
0001
1000
,
0001
1000
0100
0010
,
0010
0001
0001
0100
,
0100
0010
1000
0001
,
1000
0000
0000
2000
,
0000
3200
0000
0320
,
0000
0032
0000
2003
,
0000
3020
0000
0230
,
0000
0000
0000
0000
,
0000
0000
0000
0302
,
0000
0000
0000
2003
,
0000
0000
0000
3001
,
0000
0000
0000
0000
;
#NOTES:
     dance-single:
     :
     Medium:
     9:
     :
0000
0000
0000
0000
,
0000
0000
0000
0000
,
0000
0000
0000
0000
,
0000
0000
0000
0000
,
0000
0000
0000
0000
,
0000
0001
1000
0001
0100
0000
0100
0000
,
0000
1000
0001
1000
0100
0000
0100
0000
,
1000
1010
0001
0101
,
1000
0001
1000
0000
0010
0000
0110
0000
,
0000
1000
0100
0001
0010
0000
0010
0000
,
0000
1000
0001
0100
0010
0000
0010
0000
,
0000
0001
0001
0001
0001
0000
0001
0000
,
0000
1000
1000
1000
1000
0000
1000
0000
,
0000
1000
0000
0001
1000
0010
0000
0010
,
0100
0000
0100
0000
0010
1000
0010
0000
,
0100
0110
1001
0110
,
0001
1000
0001
0000
0110
0000
1001
0000
,
0000
1000
0010
0100
0001
0000
0001
0000
,
0000
0001
0010
0100
1000
0000
1000
0000
,
0001
1000
0100
0000
0010
0001
1000
0000
,
1001
1000
0010
1000
,
0002
0100
2003
0010
,
3002
0010
2003
0100
,
3002
0010
1000
0100
,
2003
0100
0001
3010
,
0002
0000
0000
0203
0000
0000
0320
0000
,
0000
2030
0000
0000
3100
0000
0110
0000
,
0002
0000
0023
0000
,
0230
0000
1300
1001
,
0020
0000
0230
0000
,
0302
0000
1003
0000
,
0001
1000
0001
1000
0000
0010
0100
0000
,
0001
0001
1000
1000
,
0100
0010
0001
0000
0010
0100
1000
0000
,
0001
1000
0001
0000
0100
0000
0100
0000
,
1000
0001
1000
0001
0000
0010
0100
0000
,
1000
1000
0001
0001
,
0100
0010
1000
0000
0010
0100
0001
0000
,
1000
0001
1000
0000
0100
0000
0100
0000
,
0001
1000
0001
1000
0000
0100
0010
0000
,
0001
0001
1000
1000
,
0010
0100
0001
0000
0100
0010
1000
0000
,
0001
1000
0001
0000
0010
0000
0010
0000
,
1000
0001
1000
0001
0000
0100
0010
0000
,
1000
1000
0001
0001
,
0010
0100
1000
0000
0100
0010
0001
0000
,
1000
0001
1000
0000
0010
0000
0010
0000
,
0000
0000
0000
0000
0000
0000
0001
1000
,
0001
1000
0000
0010
0100
0000
0001
0010
,
0001
0000
1000
0100
1000
0000
0100
0010
,
0001
0000
0010
0100
1000
0000
0001
1000
,
0001
0000
0100
0000
0100
0000
1000
0001
,
1000
0001
0000
0010
0100
0000
1000
0010
,
1000
0000
0001
0100
0001
0000
0100
0010
,
1000
0000
0010
0100
0001
0000
1000
0001
,
1000
0000
0100
0000
0100
0000
0001
1000
,
0001
1000
0000
0100
0010
0000
0001
0100
,
0001
0000
1000
0010
1000
0000
0010
0100
,
0001
0000
0100
0010
1000
0000
0001
1000
,
0001
0000
0010
0000
0010
0000
1000
0001
,
1000
0001
0000
0100
0010
0000
1000
0100
,
1000
0000
0001
0010
0001
0000
0010
0100
,
1000
0000
0100
0010
0001
0000
1000
0001
,
1000
0010
0010
1000
,
0010
0000
0100
0001
0010
0000
0100
0000
,
1000
0000
0010
1000
0100
0000
0010
0001
,
1000
0000
0001
1000
0001
0200
0000
0000
,
0000
0000
0000
0000
,
0000
0000
0000
0320
,
0000
0000
0000
2030
,
0000
0000
0000
0002
,
0000
0000
0000
0000
,
0000
0000
0000
0000
,
3003
0000
0000
0000
,
0000
0000
0000
0000
;
#NOTES:
     dance-single:
     :
     Hard:
     13:
     :
0000
0000
0000
0000
,
0000
0000
0000
0000
,
0000
0000
0000
0000
,
0000
0000
0000
0000
,
0000
0000
0000
0000
,
0000
0001
1000
0001
0100
0010
0100
0010
,
0000
1000
0010
1000
0001
0100
0001
0100
,
0010
0000
1000
0010
1000
0000
0001
0100
0001
0000
0100
0010
0100
0000
0001
0000
,
1000
0100
0010
0001
0100
0010
1000
0001
,
0000
1000
0100
0001
0010
1000
0100
0001
,
0000
0100
1000
0001
0100
1000
0100
0001
,
0010
0100
0100
0100
0100
0100
0100
0100
,
0000
0010
0010
0010
1000
0010
0001
0010
,
1000
0020
0000
0031
0100
2000
0000
3100
,
0001
0000
0100
0000
1000
0000
0100
0000
0010
0000
1000
0000
0001
0000
1000
0100
,
1000
0000
0000
0100
0000
0000
0010
0001
0010
0000
0000
0100
0000
0000
1000
0000
,
0001
0000
0000
0001
0100
0000
0000
0100
0010
0000
0100
0000
0001
0000
1000
0000
,
0000
0010
0100
0010
0100
0100
0010
0100
,
0000
0001
1000
0100
0010
0001
0010
0100
,
1000
0100
1000
0000
0001
0010
0001
0000
1000
0001
1000
0000
0010
0000
0100
0000
,
1001
0002
0023
0230
,
1300
0100
0001
0100
1000
0100
0001
0100
,
1000
0010
0001
0010
1000
0010
0001
0010
,
1000
0010
0100
0010
1000
0001
0010
0001
,
1000
0100
0010
0100
1000
0100
0010
0100
,
2000
0000
3010
0020
0000
0130
0200
0000
,
0301
0002
0000
0013
0100
1000
0001
1000
,
0200
0000
0000
0010
0320
0000
0000
0001
,
0031
0000
0000
0000
0000
0000
1000
0001
1000
0000
0000
0010
0000
0000
0100
0000
,
0002
0000
0000
0100
0203
0000
0000
0010
,
0320
0000
0000
1000
2000
0000
3030
0000
,
0001
0100
0010
1000
0000
0100
0010
0001
,
0000
0010
0100
2000
0000
3001
0100
0020
,
0000
0130
0002
0000
1003
0100
0010
0200
,
0000
0000
0010
0000
0310
0000
0000
0000
0000
0000
0010
0001
0010
0000
0100
0000
,
1000
0100
0010
0001
0000
0100
0010
1000
,
0000
0010
0100
0002
0000
1003
0100
0020
,
0000
0130
2000
0000
3001
0100
0010
0200
,
0000
0000
0010
0000
0310
0000
0000
0000
0000
0000
0010
1000
0010
0000
0100
0000
,
0001
0010
0100
1000
0000
0010
0100
0001
,
0000
0100
0010
2000
0000
3001
0010
0200
,
0000
0310
0002
0000
1003
0010
0100
0020
,
0000
0000
0100
0000
0130
0000
0000
0000
0000
0000
0100
0001
0100
0000
0010
0000
,
1000
0010
0100
0001
0000
0010
0100
1000
,
0000
0100
0010
0002
0000
1003
0010
0200
,
0000
0310
2000
0000
3001
0010
0100
0020
,
0000
0000
0031
1000
0001
0000
0100
0010
0100
0000
0001
1000
0001
1000
0001
0000
,
0000
0000
0000
0000
0000
0000
1100
0001
,
0010
0110
0000
1000
0001
2001
0000
3010
,
0100
0001
0100
0010
1000
1002
0000
0013
,
0100
1000
0001
1000
0100
0120
0000
0031
,
1000
0000
0001
0000
0100
0000
0010
1000
0010
0000
0100
0000
0101
0000
1000
0000
,
0010
0110
0000
0001
1000
1002
0000
0013
,
0100
1000
0100
0010
0001
2001
0000
3010
,
0100
0001
1000
0001
0100
0120
0000
1030
,
0001
0000
1000
0000
0100
0000
0010
0001
0010
0000
0100
0000
1100
0000
0001
0000
,
0100
0110
0000
1010
0001
1000
0100
0010
,
0001
0021
0000
0130
1000
1002
0000
0103
,
0010
1000
0001
1000
0100
0120
0000
0130
,
1000
0000
0001
0000
0010
0000
0100
1000
0100
0000
0010
0000
0011
0000
1000
0000
,
0100
0110
0000
0011
1000
0001
0100
0010
,
1000
1020
0000
0130
0001
2001
0000
3100
,
0010
0001
1000
0001
0100
0120
0000
0130
,
0001
0000
1000
0000
0010
0000
0100
0001
0100
0001
0100
0001
1000
0000
0001
0000
,
0010
0100
0000
0010
0001
1000
0000
0010
,
0100
0001
1000
0100
0001
0100
0010
0100
,
1000
0010
0000
0100
0001
2000
0000
0000
,
0000
0000
0000
0000
,
0000
0000
0000
3001
,
0100
0010
1000
0001
,
0010
0100
2000
0002
,
0000
0000
0000
0000
,
0000
0000
0000
0000
,
3003
0000
0000
0000
,
0000
0000
0000
0000
;
#NOTES:
     dance-double:
     :
     Easy:
     7:
     :
00000000
00000000
00000000
00000000
,
00000000
00000000
00000000
00000000
,
00000000
00000000
00000000
00000000
,
00000000
00000000
00000000
00000000
,
00000000
00000000
00000000
00000000
,
00010000
00001000
00001000
00010000
,
00001000
00000010
00000001
00000010
,
00000100
00000000
00000100
00000100
,
00001000
00000001
00001000
00000000
,
00001000
00000100
00000001
00000010
,
00002000
00000000
00003002
00000000
,
00000103
00001000
00010000
00100000
,
00000000
01000000
00100000
01000000
,
00010000
00010000
10000000
10000000
,
00010000
00100000
01000000
01000000
,
00100000
00000000
00101000
00000000
,
00010000
00000000
00010100
00000000
,
00000010
00000001
00000010
00000100
,
00000000
00001000
00000001
00001000
,
00000100
00000010
00000001
00000100
,
00001000
00010000
00010000
00010000
,
00200000
00000000
00000000
00000000
,
20300000
00000000
32000000
00000000
,
03020000
00000000
00032000
00000000
,
00023000
00000000
00000000
00031000
,
00000100
00000000
00000000
00000110
00000000
00000000
00000001
00000000
,
00000000
00001001
00000000
00000000
00001000
00000000
00000001
00000000
,
00000020
00000000
00002030
00000000
,
00023000
00000000
00032000
00000000
,
00023000
00000000
00230000
00000000
,
20300000
00000000
30010000
00000000
,
10000000
10000000
01000000
01000000
,
00010000
00000000
00010000
00000000
00001000
00010000
00001000
00000000
,
00000010
00000000
00000000
00000000
00000100
00000010
00000100
00000000
,
00001000
00000001
00000100
00000000
,
00000001
00000001
00000100
00000100
,
00001000
00000000
00001000
00000000
00010000
00001000
00010000
00000000
,
00100000
00000000
00000000
00000000
01000000
00100000
01000000
00000000
,
00010000
10000000
01000000
00000000
,
10000000
10000000
01000000
01000000
,
00010000
00000000
00010000
00000000
00001000
00010000
00001000
00000000
,
00000010
00000000
00000000
00000000
00000100
00000010
00000100
00000000
,
00001000
00000001
00000100
00000000
,
00000001
00000001
00000100
00000100
,
00001000
00000000
00001000
00000000
00010000
00001000
00010000
00000000
,
00100000
00000000
00000000
00000000
01000000
00100000
01000000
00000000
,
00010000
10000000
01000000
00100000
,
00000000
00000000
00000000
10000000
,
10000000
01000000
01000000
00010000
,
00010000
00000000
00001000
00010000
00001000
00000000
00000010
00000000
,
00000010
00000000
00000001
00000010
00000001
00000000
00001000
00000000
,
00000100
00000010
00000000
00000001
,
00000001
00000100
00000100
00001000
,
00001000
00000000
00010000
00001000
00010000
00000000
00100000
00000000
,
00100000
00000000
10000000
00100000
10000000
00000000
00010000
00000000
,
01000000
00100000
00000000
10000000
,
10000000
01000000
01000000
00010000
,
00010000
00000000
00001000
00010000
00001000
00000000
00000010
00000000
,
00000010
00000000
00000001
00000010
00000001
00000000
00001000
00000000
,
00000100
00000010
00000000
00000001
,
00000001
00000100
00000100
00001000
,
00001000
00000000
00010000
00001000
00010000
00000000
00100000
00000000
,
00100000
00000000
10000000
00100000
10000000
00000000
00010000
00000000
,
01000000
00100000
00000000
20000000
,
00000000
32000000
00000000
03020000
,
00000000
00032000
00000000
00003020
,
00000000
00000032
00000000
00000203
,
00000000
00000000
00000000
00000000
,
00000000
00000000
00000000
00002300
,
00000000
00000000
00000000
00023000
,
00000000
00000000
00000000
00031000
,
00000000
00000000
00000000
00000000
;
#NOTES:
     dance-double:
     :
     Medium:
     9:
     :
00000000
00000000
00000000
00000000
,
00000000
00000000
00000000
00000000
,
00000000
00000000
00000000
00000000
,
00000000
00000000
00000000
00000000
,
00000000
00000000
00000000
00000000
,
00000000
00010000
00001000
00010000
00001000
00000000
00001000
00000000
,
00000000
00000010
00000001
00000010
00000100
00000000
00000100
00000000
,
00001000
00000001
00001000
00000000
00000010
00000000
00000100
00000000
,
00001000
00010000
00001000
00000000
00010000
00100000
01000000
00000000
,
00000000
00010000
01000000
10000000
00100000
00000000
00100000
00000000
,
00000000
00010000
10000000
01000000
00010000
00000000
00010000
00000000
,
00000000
00001000
00001000
00001000
00001000
00000000
00001000
00000000
,
00000000
00010000
00010000
00010000
00010000
00000000
00010000
00000000
,
00000000
00001000
00000000
00000010
00000001
00000010
00000000
00000001
,
00000010
00000010
00000100
00001000
,
00000001
00000000
00000000
00000100
00000000
00000000
00000001
00000000
00000100
00000000
00000000
00001000
00000000
00000000
00000100
00000000
,
00001000
00000000
00000000
00010000
00000000
00000000
00001000
00000000
00010000
00000000
00000000
00000000
00010000
00000000
00000000
00000000
,
00000000
00100000
01000000
00010000
10000000
00000000
10000000
00000000
,
00000000
10000000
01000000
00010000
00001000
00000000
00001000
00000000
,
00010000
00001000
00000100
00000000
00000010
00001000
00000001
00000000
,
00001001
00001000
00000010
00001000
,
00020000
01000000
10000000
00100000
,
00032000
00000100
00000001
00000010
,
00023000
01000000
10000000
00100000
,
00032000
00000100
00000001
00003010
,
00000020
00000000
00000000
00000230
00000000
00000000
00000302
00000000
,
00000000
00002003
00000000
00000000
00003100
00000000
00000010
00000000
,
00000002
00000000
00000023
00000000
,
00002030
00000000
00013000
00010000
,
00200000
00000000
20300000
00000000
,
32000000
00000000
03010000
00000000
,
00001000
00010000
00001000
00010000
00000000
00001000
00000010
00000000
,
00000001
00000001
00001000
00001000
,
00000010
00000100
00000001
00000000
00000100
00000010
00000100
00000000
,
00001000
00001000
00010000
00001000
,
00010000
00001000
00010000
00001000
00000000
00010000
00100000
00000000
,
10000000
10000000
00010000
00010000
,
00100000
01000000
10000000
00000000
01000000
00100000
01000000
00000000
,
00010000
00010000
00001000
00010000
,
00001000
00010000
00001000
00010000
00000000
00001000
00000100
00000000
,
00000001
00000001
00001000
00001000
,
00000100
00000010
00000001
00000000
00000010
00000100
00000010
00000000
,
00001000
00001000
00010000
00001000
,
00010000
00001000
00010000
00001000
00000000
00010000
01000000
00000000
,
10000000
10000000
00010000
00010000
,
01000000
00100000
10000000
00000000
00100000
01000000
00100000
00000000
,
00010000
00010000
00001000
00010000
,
00000000
00000000
00000000
00000000
00000000
00000000
00001000
00010000
,
00001000
00010000
00000000
00001000
00000010
00000000
00000001
00000010
,
00000001
00000000
00001000
00000100
00001000
00000000
00000010
00000100
,
00000001
00000000
00000100
00000010
00000100
00000000
00001000
00010000
,
00001000
00000000
00010000
00000000
00001000
00000000
00010000
00001000
,
00010000
00001000
00000000
00010000
00100000
00000000
10000000
00100000
,
10000000
00000000
00010000
01000000
00010000
00000000
00100000
01000000
,
10000000
00000000
01000000
00100000
01000000
00000000
00010000
00001000
,
00010000
00000000
00001000
00000000
00010000
00000000
00001000
00010000
,
00001000
00010000
00000000
00001000
00000100
00000000
00000001
00000100
,
00000001
00000000
00001000
00000010
00001000
00000000
00000100
00000010
,
00000001
00000000
00000010
00000100
00000010
00000000
00001000
00010000
,
00001000
00000000
00010000
00000000
00001000
00000000
00010000
00001000
,
00010000
00001000
00000000
00010000
01000000
00000000
10000000
01000000
,
10000000
00000000
00010000
00100000
00010000
00000000
01000000
00100000
,
10000000
00000000
00100000
01000000
00100000
00000000
00010000
00001000
,
00010000
00001000
00010000
00001000
,
00000010
00000000
00000001
00000010
00000001
00000000
00000100
00000000
,
00001000
00000000
00010000
00001000
00010000
00000000
00100000
10000000
,
00010000
00000000
00100000
01000000
10000000
02000000
00000000
00000000
,
00000000
00000000
00000000
00000000
,
00000000
00000000
00000000
03020000
,
00000000
00000000
00000000
00032000
,
00000000
00000000
00000000
00020000
,
00000000
00000000
00000000
00000000
,
00000000
00000000
00000000
00000000
,
00033000
00000000
00000000
00000000
,
00000000
00000000
00000000
00000000
;
#NOTES:
     dance-double:
     :
     Hard:
     13:
     :
00000000
00000000
00000000
00000000
,
00000000
00000000
00000000
00000000
,
00000000
00000000
00000000
00000000
,
00000000
00000000
00000000
00000000
,
00000000
00000000
00000000
00000000
,
00000000
00010000
00001000
00000100
00000001
00000010
00000100
00001000
,
00000000
00000001
00000010
00001000
00100000
00010000
00001000
00010000
,
00100000
01100000
00000000
11000000
00000000
01100000
00000000
00110000
,
00010000
00001000
00000100
00000010
00000001
00000010
00000100
00001000
,
00000000
00000001
00000100
00001000
00000010
00000001
00000100
00001000
,
00000000
00010000
00001000
00000100
00001000
00010000
01000000
10000000
,
01000000
00100000
00100000
00100000
00100000
00100000
00100000
00100000
,
00000000
01000000
01000000
01000000
10000000
00100000
00010000
00100000
,
10000000
00020000
00000000
01030000
00100000
20000000
00000000
30010000
,
10000000
01000000
00010000
01000000
00100000
00001000
00010000
00001000
,
00000100
00000000
00000000
00000100
00000001
00000000
00000000
00000001
00000010
00000000
00000000
00000010
00001000
00000000
00000000
00001000
,
00010000
00000000
00000000
00010000
00100000
00000000
00000000
00100000
10000000
00000000
00010000
00000000
01000000
00000000
00010000
00000000
,
00000000
00100000
01000000
00100000
01000000
01000000
00100000
01000000
,
00000000
00010000
10000000
00010000
00100000
01000000
10000000
00010000
,
10000000
01000000
00100000
00010000
00001000
00000100
00000010
00000001
,
00000011
00000002
00000203
00002300
,
00013000
00100000
10000000
00100000
00010000
00001000
00000100
00000001
,
00000100
00001000
00010000
01000000
10000000
01000000
00010000
00001000
,
00000010
00000001
00000010
00001000
00010000
00100000
10000000
00100000
,
00010000
00001000
00000100
00000001
00000100
00001000
00010000
01000000
,
20000000
00000000
30100000
00200000
00000000
01300000
02000000
00000000
,
03010000
00020000
00000000
00130000
00001000
00010000
00001000
00000100
,
00000020
00000000
00000000
00000100
00000230
00000000
00000000
00000001
,
00000302
00000000
00000000
00000000
00000000
00000000
00001000
00000000
00001003
00000000
00000000
00000100
00000000
00000000
00000010
00000000
,
00000002
00000000
00000000
00000100
00000203
00000000
00000000
00001000
,
00002300
00000000
00000000
00010000
00020000
00000000
00033000
00000000
,
00001000
00010000
00100000
01000000
00000000
00010000
10000000
01000000
,
00000000
00100000
00001000
00000100
00000000
00000001
00001000
00000100
,
00000000
00000010
00001000
00000000
00010000
01000000
10000000
01000000
,
00000000
00100000
00100000
00000000
00000000
01000000
00100000
00001000
,
00010000
00001000
00000100
00000010
00000000
00001000
00000001
00000010
,
00000000
00000100
00010000
00100000
00000000
10000000
00010000
00100000
,
00000000
01000000
00010000
00000000
00001000
00000010
00000001
00000010
,
00000000
00000100
00000100
00000000
00000000
00000010
00000100
00010000
,
00001000
00010000
01000000
00100000
00000000
00010000
10000000
00100000
,
00000000
01000000
00001000
00000010
00000000
00000001
00001000
00000010
,
00000000
00000100
00001000
00000000
00010000
00100000
10000000
00100000
,
00000000
01000000
01000000
00000000
00000000
00100000
01000000
00001000
,
00010000
00001000
00000010
00000100
00000000
00001000
00000001
00000100
,
00000000
00000010
00010000
01000000
00000000
10000000
00010000
01000000
,
00000000
00100000
00010000
00000000
00001000
00000100
00000001
00000100
,
00000000
00001000
00010000
01000000
00010000
00001000
00000100
00000010
,
00000000
00000000
00000000
00000000
00000000
00000000
00001000
00010000
,
00100000
10000000
00000000
01000000
00010000
00001000
00000000
00000100
,
00000001
00000010
00000000
00001000
00010000
00100000
00000000
10000000
,
01000000
00100000
00010000
00001000
00000100
00000010
00000000
00000001
,
00000010
00001000
00010000
00100000
01000000
00100000
00010000
00001000
,
00000100
00000001
00000000
00000010
00001000
00010000
00000000
00100000
,
10000000
01000000
00000000
00010000
00001000
00000100
00000000
00000001
,
00000010
00000100
00001000
00010000
00100000
01000000
00000000
10000000
,
01000000
00010000
00001000
00000100
00000010
00000100
00001000
00010000
,
01000000
10000000
00000000
00100000
00010000
00001000
00000010
00000010
,
00000001
00000100
00000000
00001000
00010000
01000000
00000000
10000000
,
00100000
01000000
00010000
00001000
00000010
00000100
00000000
00000001
,
00000100
00001000
00010000
01000000
00100000
01000000
00010000
00001000
,
00000010
00000001
00000000
00000100
00001000
00010000
01000000
01000000
,
10000000
00100000
00000000
00010000
00001000
00000010
00000000
00000001
,
00000100
00000010
00001000
00010000
01000000
00100000
00000000
10000000
,
00100000
00010000
00001000
00000010
00000100
00000010
00001000
00010000
,
01000000
00100000
00000000
01000000
10000000
00010000
00000000
01000000
,
00100000
00010000
00001000
00000100
00000010
00000100
00000001
00001000
,
00000100
00000010
00000000
00000100
00000001
00002000
00000000
00000000
,
00000000
00000000
00000000
00000000
,
00000000
00000000
00000000
00003001
,
00001000
00010000
10000000
00010000
,
00001000
00000001
00002000
00020000
,
00000000
00000000
00000000
00000000
,
00000000
00000000
00000000
00000000
,
00033000
00000000
00000000
00000000
,
00000000
00000000
00000000
00000000
;
