
//----- song ID: hmss -----//
#TITLE:初音ミクの消失;
#ARTIST:cosMo@暴走P feat. 初音ミク;
#TITLETRANSLIT:Hatsune Miku no shoushitsu;
#ARTISTTRANSLIT:cosMo@BousouP feat. Hatsune Miku;
#BANNER:Hatsune Miku no shoushitsu.png;
#BACKGROUND:Hatsune Miku no shoushitsu-bg.png;
#CDTITLE:./CDTitles/SOUND VOLTEX.png;
#MUSIC:Hatsune Miku no shoushitsu.ogg;
#SAMPLESTART:64.829;
#SAMPLELENGTH:15;
#BPMS:0=240;
#NOTES:
     dance-single:
     :
     Beginner:
     3:
     :
0000
0000
0000
0000
,
0000
0000
0000
0000
,
0000
0000
0000
0000
,
0000
0000
0000
0000
,
0000
0000
0000
0000
,
1000
0000
0000
0000
,
0000
0000
0000
0000
,
0001
0000
0000
0000
,
1000
0000
0000
0000
,
1000
0000
0000
0000
,
0000
0000
0000
0000
,
0001
0000
0000
0000
,
0000
0000
0000
0000
,
0010
0000
0000
0000
,
0000
0000
0000
0000
,
0010
0000
0000
0000
,
0010
0000
0000
0000
,
1000
0000
0000
0000
,
0000
0000
0000
0000
,
0001
0000
0000
0000
,
0000
0000
0000
0000
,
1000
0000
0000
0000
,
0000
0000
0000
0000
,
0001
0000
0000
0000
,
0010
0000
0000
0000
,
1000
0000
0000
0000
,
0000
0000
0000
0000
,
0001
0000
0000
0000
,
0000
0000
0000
0000
,
1000
0000
0000
0000
,
1000
0000
0000
0000
,
0010
0000
0000
0000
,
0001
0000
0000
0000
,
1000
0000
0000
0000
,
0000
0000
0000
0000
,
0001
0000
0000
0000
,
0000
0000
0000
0000
,
0020
0030
0000
0000
,
0000
0000
0000
0000
,
0002
0003
0000
0000
,
0000
0000
0000
0000
,
0010
0000
0000
0000
,
0000
0000
0000
0000
,
1000
0000
0000
0000
,
0000
0000
0000
0000
,
0020
0030
0000
0000
,
2000
3000
0000
0000
,
0020
0030
0000
0000
,
0000
0000
0000
0000
,
0000
0000
0000
0000
,
1000
0000
0000
0000
,
0000
0000
0000
0000
,
0001
0000
0000
0000
,
0000
0000
0000
0000
,
1000
0000
0000
0000
,
0010
0000
0010
0000
,
0010
0000
0000
0000
,
0001
0000
0000
0000
,
0000
0000
0000
0000
,
1000
0000
1000
0000
,
1000
0000
1000
0000
,
1000
0000
0000
0000
,
0001
0000
0000
0000
,
0002
0000
0000
0003
,
0000
0000
0000
0000
,
1000
0000
0000
0000
,
0000
0000
0000
0000
,
0001
0000
0000
0000
,
0000
0000
0000
0000
,
1000
0000
0000
0000
,
0001
0000
0000
0000
,
1000
0000
0000
0000
,
0000
0000
0000
0000
,
0001
0000
0000
0000
,
0000
0000
0000
0000
,
1000
0000
0000
0000
,
0000
0000
0000
0000
,
0001
0000
0000
0000
,
1000
0000
0000
0000
,
0001
0000
0000
0000
,
0000
0000
0000
0000
,
0001
0000
0000
0000
,
0001
0000
0000
0000
,
0100
0000
0000
0000
,
0100
0000
0000
0000
,
0010
0000
0000
0000
,
0000
0000
0000
0000
,
1000
0000
0000
0000
,
1000
0000
0000
0000
,
0001
0000
0000
0000
,
1000
0000
0000
0000
,
0001
0000
0000
0000
,
0001
0000
0000
0000
,
1000
0000
0000
0000
,
0001
0000
0000
0000
,
1000
0000
0000
0000
,
1000
0000
0000
0000
,
0010
0000
0000
0000
,
0010
0000
0000
0000
,
0100
0000
0000
0000
,
0100
0000
0000
0000
,
0010
0000
0000
0000
,
0000
0000
0000
0000
,
1000
0000
0000
0000
,
0001
0000
0000
0000
,
1000
0000
1000
0000
,
1000
0000
0000
0000
,
0001
0000
0000
0000
,
0001
0000
0000
0000
,
0001
0000
0001
0000
,
0001
0000
0000
0000
,
0010
0000
0000
0000
,
0100
0000
0000
0000
,
2000
0000
0000
3000
,
0000
0000
0000
0000
,
0002
0000
0000
0003
,
0000
0000
0000
0000
,
1000
0000
0000
0000
,
0000
0000
0000
0000
,
0001
0000
0000
0000
,
0000
0000
0000
0000
,
1000
0000
0000
0000
,
1000
0000
0000
0000
,
0001
0000
0000
0000
,
0001
0000
0000
0000
,
0010
0000
0000
0000
,
0010
0000
0000
0000
,
0001
0000
0000
0000
,
0001
0000
0000
0000
,
2002
0000
0000
0000
,
0000
0000
0000
3003
,
0000
0000
0000
0000
;
#NOTES:
     dance-single:
     :
     Easy:
     8:
     :
0000
0000
0000
0000
,
0000
0000
0000
0000
,
0000
0000
0000
0000
,
0000
0000
0000
0000
,
0000
0000
0000
0000
,
1000
0100
1000
0000
,
1000
0000
1000
0000
,
0001
0010
0001
0000
,
0001
0000
0001
0000
,
1000
0000
0001
0000
,
1000
0100
1000
0000
,
0001
0000
0010
0000
,
0001
0010
0100
1000
,
0001
0000
1000
0000
,
0001
0100
0001
0000
,
1000
0000
0001
0000
,
1000
0000
0001
0000
,
1000
0000
0100
0000
,
1000
0000
0100
0000
,
0001
0000
0100
0000
,
1000
0010
0001
0000
,
0010
0000
0000
0000
,
1000
0000
0000
0000
,
0001
0000
0100
0000
,
0110
0000
1001
0000
,
1000
0000
0000
0000
,
0001
0000
0100
0000
,
0010
0000
1000
0000
,
0001
0000
1000
0000
,
0001
0010
0100
2000
,
0000
3000
0010
0000
,
0110
0000
1001
0000
,
1000
0001
1000
0001
,
1000
0000
1000
0000
,
0001
0100
1000
0000
,
1000
0000
0100
0000
,
0010
0000
1000
0000
,
1000
0000
0000
0000
,
0002
0000
0103
0000
,
0020
0000
0130
0000
,
0001
0000
0000
0000
,
0001
0000
0001
0000
,
1000
0100
0001
0000
,
0100
0000
1000
0000
,
0010
0000
1000
0000
,
0001
0000
0000
0000
,
2000
0000
3100
0000
,
0020
0000
0130
0000
,
1000
0000
0001
0000
,
0000
0001
0000
1000
,
0100
0001
0100
0000
,
1000
0000
0000
0000
,
0001
0000
0000
0000
,
1000
0000
0100
0000
,
0010
0000
0001
0000
,
0001
0000
0100
0000
,
0010
0000
1000
0000
,
0001
1000
0010
0000
,
1000
0000
0010
0000
,
1001
0000
0110
0000
,
1001
0000
0001
0000
,
1000
0100
1000
0000
,
0010
0100
0010
0000
,
0002
0000
0000
0003
,
0000
0000
0000
0000
,
0100
1000
0001
0000
,
0001
0000
0100
0000
,
0001
1000
0001
0000
,
0001
0000
1000
0000
,
0010
0000
1001
0000
,
0100
0000
1001
0000
,
0001
0100
0001
0000
,
0001
0000
1000
0000
,
0100
0001
1000
0000
,
1000
0000
0100
0000
,
1000
0001
1000
0000
,
1000
0000
0001
0000
,
0010
0000
1001
0000
,
0100
0000
1001
0000
,
1000
0100
1000
0000
,
0001
0000
1000
0000
,
0001
0010
0001
0000
,
0010
0000
0001
0000
,
0100
0010
0100
0000
,
0010
0000
0100
0000
,
0001
1000
0001
0000
,
1000
0000
0001
0000
,
1000
0010
1000
0000
,
1000
0000
0001
0000
,
0001
1000
0001
1000
,
0001
1000
0001
0000
,
0010
0100
0010
0100
,
0010
0100
0010
0000
,
0001
0100
0001
0100
,
0001
0100
0001
0000
,
1000
0010
1000
0010
,
1000
0000
0110
0000
,
1000
0001
1000
0001
,
0010
0000
0010
0000
,
1000
0000
0010
0000
,
0001
0000
0100
0000
,
0010
0100
0010
0000
,
1000
0000
0001
0000
,
0100
0000
0010
0000
,
0001
1000
0100
0000
,
1000
0001
1000
0000
,
0001
0010
0001
0000
,
0100
0010
0100
0000
,
0010
0000
0010
0000
,
1000
0010
0100
0000
,
0001
0010
0100
0000
,
1001
0000
0110
0000
,
1000
0001
1000
0000
,
2000
0000
0100
0000
,
0000
0000
0100
3000
,
0002
0000
0100
0000
,
0000
0000
0100
0003
,
1000
0001
1000
0000
,
1000
0000
1000
0000
,
0001
0100
0001
0000
,
1000
0000
1000
0000
,
1000
0001
0010
0000
,
0001
0100
1000
0000
,
1000
0100
0001
0000
,
0001
0000
1000
0000
,
0001
1000
0010
0000
,
1000
0100
0001
0000
,
0001
0100
1000
0000
,
1000
0100
0010
0001
,
2002
0000
0000
0000
,
0000
0000
0000
3003
,
0000
0000
0000
0000
,
0000
0000
0000
0000
,
0000
0000
0200
0000
,
0000
0000
0300
0000
,
0000
0000
0000
0000
;
#NOTES:
     dance-single:
     :
     Medium:
     10:
     :
0000
0000
0000
0000
,
0000
0000
0000
0000
,
0000
0000
0000
0000
,
0000
0000
0000
0000
,
0000
0000
0000
0000
,
1000
0100
1000
0100
,
1000
0100
1000
0100
,
0001
0010
0001
0010
,
0001
0010
0001
1100
,
1000
0001
0010
0001
,
1000
0100
1000
0000
,
0001
0000
0010
0000
,
0001
0010
0100
1000
,
0001
1000
0010
1000
,
0001
0100
0001
0000
,
1100
0000
0011
0000
,
1000
0001
1000
0001
,
1000
0000
0100
0000
,
1000
0100
0001
0000
,
0001
0000
0100
0000
,
1000
0010
0001
0010
,
1000
0000
0100
0000
,
1000
0001
1000
0000
,
0001
0001
0100
0100
,
0010
1000
1000
0001
,
1000
0000
0001
0000
,
1000
0000
0100
0010
,
0100
0000
0010
0000
,
0001
0001
1000
1000
,
0001
0010
0100
2000
,
0000
3100
0010
0001
,
0110
0000
1100
0000
,
1000
0001
0010
0001
,
1000
0100
1000
0000
,
0001
0100
1000
0000
,
1000
0000
0100
0000
,
0010
0000
0001
0000
,
0020
0000
1030
0000
,
2000
0000
3100
0000
,
0002
0000
0103
1000
,
1000
0000
1100
0000
,
0001
0100
0001
0000
,
1000
0100
0001
0000
,
0100
0000
0010
0000
,
0001
0000
1000
0000
,
0020
0000
0031
0000
,
0002
0000
0013
0000
,
2000
0000
3100
1000
,
0001
0000
0110
0000
,
0000
0001
0100
1000
,
0100
0001
0010
0000
,
0001
1000
0100
0001
,
0100
1000
0100
0000
,
1000
0001
1000
0100
,
0010
0001
1000
0001
,
0110
0000
1100
0000
,
0110
0000
0011
0000
,
0001
1000
0010
0100
,
0001
1000
0100
1000
,
0001
0000
0011
0000
,
1000
0000
0101
0000
,
1000
0100
1000
0100
,
0010
0100
0010
0100
,
0002
0000
0000
0003
,
0000
0000
0000
0000
,
0100
1000
0001
0010
,
0001
0000
1100
0000
,
0001
1000
0001
0010
,
0001
0000
1010
0000
,
0010
0000
1001
0000
,
0100
0000
1001
0000
,
0001
0100
1000
0100
,
0001
0000
1001
0000
,
0100
0001
1000
0010
,
1000
0000
0101
0000
,
1000
0001
1000
0010
,
1000
0000
0010
0100
,
0010
0000
1001
0000
,
0100
0000
1001
0000
,
1000
0100
0001
0100
,
1000
0000
0001
0000
,
0001
0010
0001
0010
,
0001
0010
0001
0000
,
0100
0010
0100
0010
,
0100
0010
0100
0000
,
0001
1000
0001
1000
,
0001
1000
0001
0000
,
1000
0010
1000
0010
,
1000
0010
1000
0000
,
0001
0100
1000
0100
,
0001
0100
1000
0100
,
0001
0100
1000
0100
,
0001
0100
1000
0100
,
0001
0010
1000
0010
,
0001
0010
1000
0010
,
0001
0010
1000
0010
,
0001
0000
1000
0000
,
1001
1001
1001
1001
,
0010
0001
0010
0001
,
1000
0100
0010
0001
,
0001
0100
0010
1000
,
0110
0110
0110
0110
,
0001
1000
0001
1000
,
0100
0000
0010
0000
,
0001
1000
0100
0000
,
1000
0001
1000
1001
,
0001
1000
0001
1000
,
0100
0010
0100
0110
,
0100
0010
0100
0010
,
0001
0100
1000
1001
,
1000
1000
0001
0001
,
0011
0000
1010
0000
,
1000
0001
1000
0100
,
2000
0000
0100
0000
,
0000
0000
0100
3100
,
0002
0000
0100
0000
,
0000
0000
0100
0103
,
1000
0001
1000
0001
,
1000
0100
1000
0100
,
0001
0100
0001
0100
,
1000
0100
1000
0100
,
1000
0001
0010
0001
,
1000
0100
1000
0001
,
0010
1000
0010
0001
,
1000
0100
0010
0100
,
1000
0100
1000
0100
,
1000
0001
1000
1000
,
0001
0100
0001
0100
,
0001
1000
0001
0001
,
2002
0000
0000
0000
,
0000
0000
0000
3003
,
0000
0000
0000
0000
,
0000
0000
0000
0000
,
0000
0000
0200
0000
,
0000
0000
0300
0000
,
0000
0000
0000
0000
;
#NOTES:
     dance-single:
     :
     Hard:
     13:
     :
0000
0000
0000
0000
,
0000
0000
0000
0000
,
0000
0000
0000
0000
,
0000
0000
0000
0000
,
0000
0000
0000
0000
,
1000
0100
1000
0100
,
1000
0010
0000
0100
0000
0001
0100
0000
,
0001
0010
0001
0010
,
0001
1000
0000
0010
0000
1000
0100
0000
,
1000
0000
0101
0000
0010
0000
0001
0100
,
1000
0000
0100
0000
0001
0000
0010
0001
,
0010
0000
0000
0001
0010
0100
0010
0000
,
0001
0010
0100
1000
,
0001
1000
0010
1000
,
0001
0010
0000
0100
0000
1000
0100
0000
,
1000
0000
0010
0000
,
1000
0001
0000
0010
0000
0001
0100
0000
,
0001
0000
0010
0000
0100
0000
0010
0100
,
1000
0100
0001
0100
,
1000
0000
0000
0010
0000
0001
0010
0000
,
1000
0010
0100
0010
,
1000
0000
0000
0001
0000
0001
0010
0000
,
0001
0100
0000
0010
0000
1000
0100
0000
,
1000
0001
0100
0100
,
0010
1000
0000
0100
0000
0010
0100
0000
,
1000
0010
0100
0010
,
0101
0000
0001
1000
,
0002
0000
1003
0000
,
0001
0001
0010
0010
,
0001
0010
1000
0020
,
0000
0001
0001
0130
,
1001
0000
0100
0100
,
0010
0001
0000
0100
0000
0010
0100
0000
,
0001
0000
1000
0010
1000
0000
0001
0000
,
1000
0100
0010
0100
,
1000
0000
0000
0100
0000
0000
0001
0000
,
0100
0000
1000
0000
0001
0000
0100
0001
,
0020
0000
0000
0000
1030
0000
0010
0001
,
0010
0001
1000
0001
,
2000
0000
0000
3100
0000
0000
1000
0000
,
1001
0000
0000
0000
,
1000
0000
0001
0010
0001
0000
1000
0000
,
0001
0100
0010
0100
,
0001
0000
0000
0010
0000
0000
1000
0000
,
0010
0000
0001
0000
1000
0000
0100
1000
,
0020
0000
0000
0000
0031
0000
0010
1000
,
0010
1000
0001
1000
,
0002
0000
0103
0000
,
1100
0000
1001
0000
,
0000
0000
0001
0000
0100
0000
0001
0100
,
0000
1000
0000
0000
1000
0000
0100
0000
,
0001
0000
1000
0000
0100
0000
0001
0100
,
0000
1000
0000
0100
0000
0001
0000
0000
,
1000
0000
0010
0000
0001
0000
0100
0010
,
0000
1000
0000
0001
0100
0000
0001
0000
,
0010
1001
0100
1001
,
0010
1001
0100
0110
,
0001
0000
0000
0100
0000
0000
1000
0000
,
0100
0001
0100
0010
,
1000
0100
0000
0000
0101
0000
0000
0000
,
0001
0010
0000
0000
1001
0000
0000
0000
,
1000
0100
0001
0100
,
0010
0000
0001
0000
0100
0000
0010
1000
,
0200
0000
0010
0010
,
0310
0000
0000
0000
,
0100
0000
1000
0000
0001
0000
0010
0001
,
0010
0000
0001
0000
1000
0000
0100
1000
,
0100
0000
0000
0001
0000
0100
0010
0000
,
0001
0100
1000
0100
,
0011
0000
0101
0000
,
1100
0000
1010
0000
,
0001
0000
0100
0000
1000
0000
0100
0001
,
0000
0001
1000
0010
,
0100
0000
0001
0000
1000
0000
0010
1000
,
0010
0000
1000
0000
0001
0000
0100
0001
,
0100
0000
0010
1000
0000
0100
0010
0000
,
0001
0100
1000
0100
,
1010
0000
1100
0000
,
0101
0000
0011
0000
,
1000
0000
0100
0000
0001
0000
0100
1000
,
0000
0010
0001
0010
,
1000
0100
0010
0000
0001
0000
0010
0000
,
0001
0010
0001
0010
,
0100
1000
0010
0000
0100
0000
0010
0000
,
0100
0010
0100
0001
,
1000
0001
1000
0000
0001
0000
1000
0000
,
0001
1000
0001
1000
,
0001
0010
0001
0000
1000
0000
0010
0000
,
1000
0010
1000
0001
,
0001
0010
0100
0000
1000
0000
0100
0000
,
0001
0100
1000
0100
,
1000
0001
0100
0000
1000
0000
0100
0000
,
0001
1000
0100
0000
1000
0000
0100
0000
,
0001
0100
1000
0000
0100
0000
0010
0000
,
0001
0010
1000
0010
,
0001
0010
0001
0000
1000
0100
1000
0000
,
0001
0010
0100
0000
1000
0000
0000
0000
,
1000
0001
1100
0011
,
0010
0000
0001
0000
1000
0000
0001
0010
,
0001
0000
0100
0000
0010
1000
0100
0000
,
0001
0100
0010
0001
,
1000
0010
0110
0101
,
0001
0010
0000
0100
0000
0010
0001
0000
,
1000
0001
0110
0110
,
0001
0010
0000
1000
0000
0010
0001
0000
,
0001
0000
1000
0000
0010
0000
1000
0100
,
0001
0000
0100
0000
1000
0000
0010
1000
,
0010
0000
1000
0000
0010
0100
0010
0000
,
1000
0010
0100
0001
,
1000
0001
1001
1001
,
1000
0010
0000
0100
0000
0001
0100
0000
,
0011
0000
1010
0000
,
0001
1000
0000
0010
0000
1000
0100
0000
,
1000
0000
0001
0010
0001
0000
0000
0000
,
0100
0000
0100
0000
,
0001
1000
0100
0000
0100
0000
0000
0000
,
1000
0100
0010
0000
0001
0000
0000
0000
,
1000
0100
1000
0000
0001
0000
0010
0000
,
0001
0100
0010
0000
1000
0000
0010
0000
,
1000
0010
0100
0000
0001
0000
0100
0000
,
0001
1000
0100
0000
1000
0000
0100
0000
,
1000
0100
1000
0100
1000
0100
1000
0100
,
1000
0010
1000
0010
1000
0000
0000
0000
,
0001
0010
0001
0010
0001
0010
0001
0010
,
0001
1000
0001
1000
0001
0000
0000
0000
,
1000
0100
1000
0100
1000
0100
1000
0100
,
1000
0100
1000
0100
1000
0100
1000
0010
,
1000
0001
1000
0001
1000
0001
1000
0001
,
1000
0001
1000
0001
1000
0100
1000
0001
,
2002
0000
0000
0000
,
0000
0000
0000
3003
,
0000
0220
0000
0000
,
0000
0000
0000
0330
,
0000
0000
0200
0000
,
0000
0000
0300
0000
,
0000
0000
0000
0000
;
#NOTES:
     dance-single:
     :
     Challenge:
     15:
     :
0000
0000
0000
0000
,
0000
0000
0000
0000
,
0000
0000
0000
0000
,
0000
0000
0000
0000
,
0000
0000
0000
0000
,
1000
0010
0100
0010
1000
0001
0100
0001
,
1000
0010
1000
0001
0010
0001
0100
0000
,
0001
0010
0001
1000
0001
0100
0010
0000
,
1000
0100
1000
0010
1000
0001
1000
0000
,
0001
0100
0001
1000
0010
0100
0001
1000
,
0001
0100
0010
0100
0001
0100
0010
1000
,
0001
1000
0010
1000
0001
0100
0010
0000
,
1000
0010
1000
0001
0100
0010
1000
0000
,
0001
1000
0001
0100
0010
1000
0001
0100
,
0001
0010
0001
0100
0001
1000
0100
1000
,
0001
0000
0100
0000
0010
1000
0100
0010
,
0001
1000
0100
0010
0100
1000
0100
0000
,
1000
0001
0010
0000
0100
0000
0010
0100
,
1000
0000
0100
0000
0001
0000
0100
0010
,
0001
0000
1000
0010
0000
0001
0010
0000
,
0011
0110
1100
0110
,
1000
0100
1000
0001
0000
0001
0010
0000
,
0001
0100
0000
0010
0000
1000
0100
0000
,
1100
0100
0110
0010
,
0010
0001
0000
0100
0000
0010
0100
0001
,
1000
0001
0010
0000
0100
0000
0010
0001
,
0100
0000
0001
0010
0001
0000
1000
0100
,
2000
0001
3001
0110
,
0001
0010
0001
0000
0010
0100
0010
0000
,
0001
1000
0010
0000
1000
0000
0020
0000
,
0000
0001
0001
0130
,
1001
0000
0110
0000
,
0010
0001
0000
0100
0000
0010
0100
0000
,
0001
0010
0100
0010
0001
0100
0001
0000
,
1000
0100
1000
0001
0010
0001
0100
0000
,
0001
0100
0010
0100
0001
1000
0100
0010
,
0100
0010
0001
0010
0001
1000
0100
1000
,
0020
0000
0001
0000
0130
0000
0010
0100
,
0010
0001
0010
0100
1000
0100
0010
0000
,
0102
0000
0000
0100
0003
0000
1000
0000
,
1001
0000
0001
0000
1000
0100
0010
0001
,
1000
0010
0100
0010
1000
0100
1000
0000
,
0001
0100
0001
1000
0010
1000
0100
0000
,
1001
0000
0100
0010
0000
0000
1001
0000
,
0100
0010
0001
0010
0001
1000
0100
1000
,
0020
0000
0000
0000
0031
0000
0010
0100
,
0010
1000
0010
0100
0001
0100
0010
0000
,
2100
0000
3100
0001
,
1001
0000
0001
1000
0001
0100
0010
1000
,
0000
0000
0001
0000
0100
0000
0001
1000
,
0000
0001
1000
0010
0001
0010
0100
0010
,
1000
0001
1000
0010
0100
0000
0001
0100
,
0000
1000
0000
0100
0000
0001
0000
0000
,
1000
0100
0010
0100
0001
0100
0010
0100
,
1000
0001
0000
0001
0100
0000
0001
0000
,
0010
0001
0010
0000
0001
0100
0001
0000
,
0100
1000
0100
0000
0001
1000
0001
0000
,
1001
0000
0001
0100
0001
0000
1000
0010
,
0100
0001
0110
1001
,
1000
0100
1000
0000
0001
0010
0100
1000
,
0100
0010
0100
1000
0001
0010
0001
0010
,
0100
0000
1000
0100
1000
0100
0010
0001
,
0000
0001
0000
0100
0001
0010
1000
0000
,
0220
0000
0000
0330
,
0000
0000
0000
0000
,
0100
0001
0010
0000
0001
0000
0010
0001
,
0010
0000
0001
0000
1000
0000
0100
1000
,
0100
0000
1000
0001
1000
0100
0010
0000
,
0001
1000
0011
1100
,
1000
0100
1000
0000
0001
0010
0100
0000
,
1000
0010
0001
0000
1000
0100
0001
0000
,
1001
0000
0110
0000
1001
0000
0100
0001
,
1000
0100
1000
0010
1000
0000
0010
1000
,
0100
1000
0010
0000
1000
0000
0010
1000
,
0010
0000
1000
0000
0001
0000
0100
0001
,
0100
0000
0001
1000
0001
0100
0010
0000
,
1000
0001
1010
0101
,
0001
0100
0001
0000
1000
0010
0100
0000
,
0001
0010
1000
0000
0001
0100
1000
0000
,
1100
0000
0011
0000
1100
0000
0100
1000
,
0001
0100
0001
0010
0001
0000
0010
0001
,
1000
0100
0010
0100
0001
0100
0010
0100
,
1000
0100
0010
0100
0001
0000
0000
0000
,
0100
1000
0010
1000
0100
1000
0010
1000
,
0100
1000
0001
1000
0100
0000
0000
0000
,
1000
0001
1000
0100
0001
0100
0010
0100
,
1000
0100
0010
0100
0001
0000
0000
0000
,
0100
0010
0001
0100
1000
0100
0010
0100
,
0001
0100
0010
0100
1000
0100
0001
0000
,
0001
1000
0100
1000
0010
0100
0001
0010
,
0001
0100
0010
1000
0100
1000
0001
0010
,
0001
1000
0010
1000
0100
1001
0010
0001
,
0010
0001
0100
0010
1000
0100
1000
0001
,
0010
0001
0100
0010
1000
0100
0010
0100
,
0001
0100
1000
0001
0010
0001
0100
0010
,
1010
0000
0001
1000
,
0001
1000
0001
0000
,
1000
0001
1100
0011
,
0010
0100
1000
0010
1000
0100
0001
0100
,
1000
0000
0100
0000
0010
0001
0100
0000
,
0001
1000
0100
1000
0010
0100
0001
0000
,
1000
0001
0011
0110
,
0001
0010
0000
1000
0000
0010
0001
0000
,
1000
0100
1000
0100
0010
0001
0010
0000
,
0001
0010
0000
1000
0000
0010
0001
0000
,
0001
0010
0100
1000
0010
0001
0010
0100
,
0110
0000
0101
0000
1100
0000
0010
1000
,
0010
0100
0001
1000
0010
0100
0010
0000
,
1100
0110
0011
0001
,
1000
0100
1000
0010
0100
0001
1000
0100
,
1000
0010
0000
0100
0000
0001
0100
0000
,
0010
0001
0010
0000
1000
0001
1000
0000
,
0001
1000
0000
0010
0000
1000
0100
0000
,
2000
0000
0000
0000
,
3000
0000
0000
0000
,
0002
0000
0000
0003
,
0000
0000
0000
0000
,
1000
0001
0100
0000
0001
1000
0010
0000
,
0100
0001
0100
0010
0100
0000
0000
0000
,
0001
0010
0100
0000
0010
0100
1000
0000
,
0001
0100
0010
0100
0001
0000
0000
0000
,
1000
0001
0010
0001
0100
0001
1000
0100
,
0010
0001
0100
0010
0001
0010
0100
1000
,
0100
0010
1000
0100
1000
0001
0010
0001
,
1000
0100
1000
0001
1000
0100
0010
0000
,
0001
1000
0010
1000
0100
1000
0001
0100
,
0010
1000
0100
0010
1000
0010
0100
0001
,
0100
0010
0001
0100
0001
1000
0010
1000
,
0001
0100
0001
1000
0001
0100
0001
1000
,
2002
0000
0000
0000
,
0000
0000
0000
3003
,
0000
0220
0000
0000
,
0000
0000
0000
0330
,
0000
0000
0200
0000
,
0000
0000
0300
0000
,
0000
0000
0000
0000
;
#NOTES:
     dance-double:
     :
     Easy:
     8:
     :
00000000
00000000
00000000
00000000
,
00000000
00000000
00000000
00000000
,
00000000
00000000
00000000
00000000
,
00000000
00000000
00000000
00000000
,
00000000
00000000
00000000
00000000
,
00010000
00001000
00010000
00001000
,
00010000
00001000
00010000
00001000
,
00010000
00100000
00010000
00100000
,
10000000
00100000
10000000
00000000
,
10000000
00010000
00100000
00010000
,
10000000
01000000
10000000
00000000
,
00100000
00000000
00010000
00000000
,
00001000
00000010
00000100
00001000
,
00000001
00001000
00000010
00001000
,
00000001
00000100
00000001
00000000
,
00000100
00000000
00001000
00000000
,
00010000
00001000
00010000
00001000
,
00010000
00000000
01000000
00000000
,
10000000
01000000
00010000
00000000
,
00010000
00000000
01000000
00000000
,
10000000
00100000
00010000
00100000
,
10000000
00000000
01000000
00000000
,
00010000
00001000
00010000
00000000
,
00001000
00001000
00010000
00010000
,
00001000
00010000
00001000
00000100
,
00001000
00000000
00000100
00000000
,
00000001
00000100
00001000
00000000
,
00001000
00000000
00000100
00000000
,
00000001
00000010
00001000
00000010
,
00000001
00000000
00000100
00000000
,
00001000
00010000
00001000
00000000
,
00010000
00010000
01000000
01000000
,
00100000
00010000
00010000
10000000
,
10000000
01000000
10000000
00000000
,
00010000
01000000
10000000
00000000
,
10000000
00000000
01000000
00000000
,
00100000
00000000
00010000
00000000
,
00002000
00000000
00013000
00000000
,
00020000
00000000
00030100
00000000
,
00002000
00000000
00003001
00000100
,
00000001
00000000
00000000
00000000
,
00000001
00000100
00001000
00000000
,
00010000
01000000
00100000
00000000
,
00010000
00000000
10000000
00000000
,
00010000
00000000
10000000
00000000
,
00200000
00000000
00310000
00000000
,
00002000
00000000
00013000
00000000
,
00000200
00000000
00000310
00000000
,
00001001
00000000
00000110
00000000
,
00000000
00000001
00000100
00001000
,
00000100
00000001
00000010
00000000
,
00001000
00010000
01000000
00100000
,
01000000
10000000
01000000
00000000
,
10000000
00010000
10000000
01000000
,
00100000
00001000
00010000
00001000
,
00011000
00000000
00000110
00000000
,
00000011
00000000
00001001
00000000
,
00000001
00001000
00000010
00000100
,
00000001
00000100
00001000
00010000
,
00001000
00000000
00010000
00000000
,
00010000
00000000
00010000
00000000
,
00010000
01000000
10000000
01000000
,
00100000
01000000
00100000
01000000
,
00020000
00000000
00000000
00030000
,
00000000
00000000
00000000
00000000
,
00000100
00001000
00000001
00000010
,
00000001
00000000
00000100
00000000
,
00001000
00000000
00010000
00100000
,
00010000
00000000
00001000
00000000
,
00100000
00000000
00010000
00000000
,
01000000
00000000
10000000
00000000
,
01000000
00100000
00010000
00001000
,
00010000
00000000
00011000
00000000
,
01000000
00010000
10000000
00100000
,
10000000
00000000
01000000
00000000
,
00010000
00000000
00001000
00000010
,
00001000
00000000
00010000
00000000
,
00000010
00000000
00001000
00000000
,
00000100
00000000
00000001
00000000
,
00000100
00000010
00001000
00010000
,
00001000
00000000
00011000
00000000
,
00010000
00001000
00010000
00001000
,
00010000
00001000
00010000
00000000
,
01000000
00100000
01000000
00100000
,
01000000
00100000
01000000
00000000
,
00010000
00001000
00010000
00001000
,
00010000
00001000
00010000
00000000
,
00000100
00000000
00000010
00000000
,
00000001
00000000
00001000
00000000
,
00000001
00000100
00001000
00000100
,
00000001
00000100
00001000
00000100
,
00000001
00000100
00001000
00010000
,
00001000
00010000
00001000
00000000
,
00010000
00100000
10000000
00100000
,
00010000
00100000
10000000
00100000
,
00010000
00001000
00010000
00001000
,
00010000
00000000
00001000
00000000
,
00010000
00001000
00000100
00000001
,
00000010
00000001
00000010
00000001
,
00001000
00000100
00000010
00000001
,
00000001
00000100
00001000
00010000
,
00100000
01000000
00100000
01000000
,
00010000
10000000
00010000
10000000
,
01000000
00000000
00100000
00000000
,
01000000
00010000
00001000
00000000
,
00011000
00011000
00001000
00010000
,
00100000
10000000
00100000
10000000
,
00010000
01000000
00100000
10000000
,
10000000
01000000
00010000
00001000
,
00000110
00000110
00000100
00000010
,
00001000
00000001
00001000
00000001
,
00000100
00000000
00000010
00000000
,
00000100
00001000
00010000
00000000
,
00002000
00000000
01000000
00000000
,
00000000
00000000
01000000
01003000
,
00020000
00000000
01000000
00000000
,
00000000
00000000
01000000
01030000
,
00001000
00010000
00001000
00010000
,
00001000
00010000
00001000
00010000
,
00001000
00000100
00000001
00000100
,
00001000
00000100
00001000
00010000
,
00001000
00010000
00100000
00010000
,
00001000
00010000
01000000
10000000
,
01000000
10000000
00100000
00010000
,
00001000
00000100
00000010
00000100
,
00000001
00000100
00000001
00000100
,
00000001
00001000
00000001
00000000
,
00000001
00000100
00001000
00010000
,
00100000
10000000
00010000
00000000
,
20020000
00000000
00000000
00000000
,
00000000
00000000
00000000
30030000
,
00000000
00000000
00000000
00000000
,
00000000
00000000
00000000
00000000
,
00000000
00000000
00002000
00000000
,
00000000
00000000
00003000
00000000
,
00020000
00000000
00000000
00030000
,
00000000
00000000
00000000
00000000
;
#NOTES:
     dance-double:
     :
     Medium:
     13:
     :
00000000
00000000
00000000
00000000
,
00000000
00000000
00000000
00000000
,
00000000
00000000
00000000
00000000
,
00000000
00000000
00000000
00000000
,
00000000
00000000
00000000
00000000
,
10000000
01000000
10000000
01000000
,
10000000
00100000
00000000
01000000
00000000
00010000
01000000
00000000
,
00001000
00010000
00001000
00010000
,
00000100
00001000
00000000
00000010
00000000
00001000
00000100
00000000
,
00001000
00000000
00000101
00000000
00000100
00000000
00000001
00000100
,
00001000
00000000
00010000
00000000
00001000
00000000
00100000
00010000
,
00100000
00000000
00000000
00010000
00100000
01000000
00100000
00000000
,
00010000
10000000
01000000
00010000
,
00001000
00010000
00000010
00001000
,
00000001
00000010
00000000
00000100
00000000
00001000
00000100
00000000
,
00001000
00000000
01000000
00000000
,
10000000
00010000
00000000
00100000
00000000
00001000
00010000
00000000
,
00001000
00000000
00000010
00000000
00000100
00000000
00000010
00000100
,
00001000
00000100
00000001
00000100
,
00001000
00000000
00000000
00000010
00000000
00000001
00000010
00000000
,
00000100
00001000
00010000
00100000
,
10000000
00000000
00000000
00010000
00000000
00010000
00100000
00000000
,
00010000
01000000
00000000
00100000
00000000
10000000
01000000
00000000
,
00010000
00001000
00010000
00000100
,
00000010
00000001
00000000
00000100
00000000
00000010
00000100
00000000
,
00001000
00000100
00000010
00000100
,
00001000
00000000
00010000
00001000
,
00020000
00000000
01030000
00000000
,
10000000
10000000
00100000
00100000
,
00010000
00100000
10000000
00200000
,
00000000
00010000
00010000
00310000
,
00011000
00000000
00000100
00000010
,
00000100
00001000
00000000
00000100
00000000
00000010
00000100
00000000
,
00000001
00000000
00001000
00000010
00001000
00000000
00000001
00000000
,
00000100
00001000
00010000
00001000
,
00010000
00000000
00000000
01000000
00000000
00000000
00010000
00000000
,
01000000
00000000
10000000
00000000
00010000
00000000
01000000
00010000
,
00200000
00000000
00000000
00000000
10300000
00000000
00100000
00010000
,
00100000
00001000
00010000
00001000
,
00020000
00000000
00000000
01030000
00000000
00000000
10000000
00000000
,
01000000
00000000
00000000
00000000
,
10000000
00000000
00010000
00100000
00010000
00000000
10000000
00000000
,
01000000
00010000
00001000
00010000
,
00001000
00000000
00000000
00000100
00000000
00000000
00001000
00000000
,
00000100
00000001
00001000
00000100
,
00000020
00000000
00000000
00000000
00000031
00000000
00000010
00001000
,
00000010
00001000
00010000
00001000
,
00020000
00000000
01030000
00000000
,
01100000
00000000
10010000
00000000
,
00000000
00000000
10000000
00000000
01000000
00000000
00010000
01000000
,
00000000
10000000
00000000
00000000
10000000
00000000
01000000
00000000
,
00010000
00000000
00001000
00000000
00000100
00000000
00000001
00000100
,
00000000
00001000
00000000
00000100
00000000
00000001
00000000
00000000
,
00001000
00000000
00000010
00000000
00010000
00000000
00001000
00010000
,
00000000
00001000
00000000
00100000
01000000
00000000
10000000
00000000
,
10000000
00000000
00010000
00000000
,
00001000
00000100
00000001
00000110
,
00000001
00000000
00000000
00000100
00000000
00000000
00001000
00000000
,
00000100
00000001
00000010
00001000
,
00010000
01000000
00000000
00000000
01100000
00000000
00000000
00000000
,
00010000
10000000
00000000
00000000
10010000
00000000
00000000
00000000
,
10000000
01000000
00010000
00001000
,
00000010
00000000
00000001
00000000
00000100
00000000
00000010
00001000
,
00000200
00000000
00000000
00000010
00000000
00000010
00000000
00000010
,
00000000
00000310
00000000
00000000
00000000
00000000
00000000
00000000
,
00000001
00000000
00001000
00000000
00000001
00000000
00000010
00000001
,
00000010
00000000
00000001
00000000
00001000
00000000
00000100
00001000
,
00000100
00000000
00000000
00010000
00000000
00001000
00100000
00000000
,
00010000
01000000
10000000
01000000
,
00110000
00000000
00011000
00000000
,
00001010
00000000
00000011
00000000
,
00000001
00000000
00000100
00000000
00001000
00000000
00010000
00001000
,
00000000
00100000
01000000
10000000
,
10000000
00000000
00010000
00000000
10000000
00000000
00100000
10000000
,
00100000
00000000
10000000
00000000
00010000
00000000
01000000
00010000
,
01000000
00000000
00000000
00001000
00000000
00010000
00000010
00000000
,
00001000
00000100
00000001
00000100
,
00001010
00000000
00011000
00000000
,
00110000
00000000
10100000
00000000
,
10000000
00000000
01000000
00000000
00010000
00000000
01000000
10000000
,
00000000
10000000
01000000
00010000
,
00001000
00010000
00001000
00000000
00000100
00000000
00000001
00000000
,
00000100
00000001
00000100
00000001
,
00000100
00001000
00010000
00000000
00001000
00000000
00010000
00000000
,
00001000
00010000
00001000
00010000
,
01000000
10000000
00010000
00000000
10000000
00000000
00010000
00000000
,
10000000
00010000
10000000
00010000
,
00010000
00100000
00001000
00000000
00010000
00000000
00001000
00000000
,
00010000
00001000
00010000
00001000
,
00010000
00100000
01000000
00000000
10000000
00000000
01000000
00000000
,
00010000
01000000
10000000
01000000
,
00001000
00010000
00001000
00000000
00010000
00000000
00000100
00000000
,
00000010
00000001
00000100
00000000
00000001
00000000
00000100
00000000
,
00001000
00010000
00001000
00000000
01000000
00000000
00100000
00000000
,
00010000
00100000
10000000
00100000
,
00010000
00001000
00010000
00000000
00001000
00000100
00000010
00000000
,
00001000
00000001
00001000
00000000
,
00000001
00000100
00001000
00010000
,
00100000
00000000
10000000
00000000
10000000
00000000
00010000
00100000
,
00010000
00000000
01000000
00000000
00100000
10000000
01000000
00000000
,
00010000
00001000
00010000
00001000
,
00010000
00000100
00001000
00000010
,
00001000
00000001
00000000
00000100
00000000
00001000
00010000
00000000
,
00001000
00010000
00100000
01000000
,
00010000
00100000
00000000
10000000
00000000
00100000
00010000
00000000
,
00010000
00000000
10000000
00000000
00100000
00000000
10000000
01000000
,
00010000
00000000
00001000
00000000
00010000
00000000
00100000
10000000
,
00100000
00000000
10000000
00000000
00100000
01000000
00100000
00000000
,
00010000
00001000
00000100
00000001
,
00000010
00001000
00000010
00000001
,
00000100
00001000
00000000
00010000
00000000
00001000
01000000
00000000
,
01010000
00000000
10100000
00000000
,
00010000
10000000
00000000
00100000
00000000
10000000
01000000
00000000
,
00010000
00000000
00001000
00010000
00001000
00000000
00000000
00000000
,
00000100
00000000
00000100
00000000
,
00000001
00001000
00000100
00000000
00000100
00000000
00000000
00000000
,
00010000
00001000
00100000
00000000
00010000
00000000
00000000
00000000
,
10000000
01000000
10000000
00000000
00010000
00000000
00100000
00000000
,
00010000
01000000
00100000
00000000
10000000
00000000
00100000
00000000
,
00010000
00001000
00000010
00000000
00001000
00000000
00000010
00000000
,
00000001
00001000
00000100
00000000
00001000
00000000
00000100
00000000
,
00010000
00001000
00010000
00001000
00010000
00001000
00010000
00001000
,
00010000
00000100
00010000
00000100
00010000
00000000
00000000
00000000
,
00001000
00000010
00001000
00000010
00001000
00000010
00001000
00000010
,
00001000
00000001
00001000
00000001
00001000
00000000
00000000
00000000
,
00000001
00000100
00000001
00000100
00000001
00000100
00000001
00000100
,
00000001
00000100
00000001
00000100
00000001
00000100
00000001
00000100
,
00001000
00010000
00001000
00010000
00001000
00010000
00001000
00010000
,
00001000
00010000
00001000
00010000
00001000
00010000
01000000
00000000
,
02200000
00000000
00000000
00000000
,
00000000
00000000
00000000
03300000
,
00000000
22000000
00000000
00000000
,
00000000
00000000
00000000
33000000
,
00000000
00000000
02000000
00000000
,
00000000
00000000
03000000
00000000
,
00000000
00000000
00000000
00000000
;
#NOTES:
     dance-double:
     :
     Hard:
     14:
     :
00000000
00000000
00000000
00000000
,
00000000
00000000
00000000
00000000
,
00000000
00000000
00000000
00000000
,
00000000
00000000
00000000
00000000
,
00000000
00000000
00000000
00000000
,
00010000
00100000
01000000
00100000
00010000
10000000
01000000
10000000
,
00010000
00000000
00100000
00000000
01000000
10000000
01000000
00000000
,
00010000
00001000
00010000
00000010
00001000
00000100
00000010
00000001
,
00000100
00000000
00000001
00000000
00000001
00001000
00000001
00000000
,
00001000
00000100
00001000
00000001
00000010
00000100
00010000
00000000
,
00001000
00000000
00010000
00000000
00001000
00000000
00000010
00000001
,
00000010
00000000
00000001
00000100
00000010
00000100
00001000
00000000
,
00010000
01000000
10000000
10010000
,
00010000
10000000
00010000
01000000
00100000
10000000
00010000
00000000
,
10000000
01000000
00000000
00010000
00000000
00001000
00000010
00001000
,
00010000
00001000
00000100
00000000
00000010
00001000
00000100
00000000
,
00001000
00000001
00000000
00000010
00000000
00000001
00000100
00000000
,
00001000
00010000
00001000
00000000
01000000
00000000
00100000
01000000
,
00010000
00000000
01000000
00000000
10000000
00000000
01000000
00100000
,
10000000
00000000
00010000
00100000
00000000
10000000
00100000
00000000
,
01000000
00010000
00001000
00000100
,
00000001
00000100
00000001
00001000
00000000
00001000
00000010
00000000
,
00001000
00000100
00000000
00000010
00000000
00000001
00000100
00000000
,
00000001
00000100
00001000
00010000
,
00100000
10000000
00000000
01000000
00000000
00100000
01000000
10000000
,
00010000
10000000
00100000
00000000
01000000
00000000
00100000
10000000
,
01000000
00000000
10000000
00100000
10000000
00000000
01000000
00010000
,
00001000
00010000
00001000
00000010
,
00001000
00010000
00001000
00000000
00000100
00000010
00000100
00000000
,
00000001
00001000
00001000
00000020
,
00000000
00010000
00010000
00001030
,
00011000
00000000
00100000
00000000
,
00100000
10000000
00000000
01000000
00000000
00100000
01000000
00000000
,
00010000
00001000
00000010
00000000
00000100
00000000
00000010
00000000
,
00000001
00000100
00000001
00001000
00000010
00001000
00000100
00000000
,
00000010
00001000
00010000
00000000
00001000
00000000
00100000
00000000
,
00010000
00100000
00010000
00100000
00010000
00000000
10000000
00000000
,
00100000
00000000
10000000
00000000
01000000
00000000
00010000
00001000
,
00010000
00000010
00001000
00000001
00000100
00000001
00001000
00000000
,
00002100
00000000
00000000
00000100
00003000
00000000
00001000
00000000
,
00001001
00000001
00000100
00001000
,
00001000
00010000
00100000
00000000
01000000
00000000
00100000
00000000
,
10000000
00010000
00100000
01000000
,
00200000
00000000
00000000
00310000
00000000
00000000
00000010
00000000
,
00002000
00000000
00003010
00000001
,
00000010
00000000
00001000
00010000
,
00001000
00100000
00010000
00000000
01000000
00000000
10000000
00000000
,
01020000
00000000
10030000
00000000
,
10000000
01000000
00010000
00001000
,
00000000
00000000
00010000
00000000
00000100
00000000
00001000
00000010
,
00000000
00010000
00000100
00000010
00001000
00000000
00000010
00000000
,
00000001
00000000
00000100
00000000
00001000
00000000
00000100
00000010
,
00000000
00000100
00000000
00001000
00000000
00010000
00000000
00000000
,
00100000
00000000
00100000
01000000
10000000
00000000
00100000
01000000
,
00010000
10000000
00000000
10000000
01000000
00000000
10000000
00000000
,
10000000
01000000
00010000
00000000
00001000
00010000
00000010
00000000
,
00000100
00000010
00000100
00000000
00001000
00000001
00001000
00000000
,
00000001
00000000
00000100
00000000
00001000
00000000
00010000
00100000
,
10000000
01000000
00100000
00010000
,
10000000
00100000
00000000
00000000
10000000
00010000
00000000
00000000
,
01000000
00001000
00000000
00000000
00010000
00000010
00001000
00000010
,
00000100
00000000
00000001
00000100
00000000
00000100
00000000
00001000
,
00000000
00010000
00000000
00001000
00010000
00001000
01000000
00000000
,
20000000
00000000
00000000
30000000
,
00000000
00000000
00000000
00000000
,
01000000
10000000
00100000
00000000
10000000
00000000
00100000
00000000
,
10000000
00000000
10000000
00000000
00010000
00000000
01000000
00001000
,
01000000
00000000
00001000
00000000
00010000
00000010
00001000
00000000
,
00000100
00000010
00000001
00001000
,
00000001
00000100
00001000
00000000
00010000
00000000
00000100
00000000
,
00001000
00000000
00100000
00000000
00010000
00001000
00010000
00000000
,
00001000
00000010
00000001
00000100
,
00001000
00010000
00001000
00010000
00001000
00000000
00000100
00000000
,
00000010
00000001
00000010
00000000
00001000
00000000
00000010
00000000
,
00001000
00000000
00000001
00000000
00001000
00000000
00000100
00010000
,
00000100
00010000
00001000
00010000
,
00100000
10000000
01000000
10000000
,
10000000
01000000
00010000
00000000
00001000
00000000
01000000
00000000
,
00010000
00000000
00000010
00000000
00001000
00010000
00001000
00000000
,
00010000
00100000
10000000
01000000
,
00010000
00001000
00000100
00000000
00000001
00000000
00001000
00000000
,
00000001
00000100
00000010
00000000
00001000
00000000
00000010
00000000
,
00001000
00000100
00000010
00000100
00001000
00000000
00000000
00000000
,
00001000
00010000
00100000
00000000
01000000
00000000
00100000
00000000
,
01000000
00010000
10000000
00010000
01000000
00000000
00000000
00000000
,
00001000
00010000
00001000
00000000
00000010
00000000
00000100
00000000
,
00000010
00000100
00000010
00000100
00010000
00000000
00000000
00000000
,
00001000
00100000
00010000
00000000
00100000
00000000
01000000
00000000
,
00010000
01000000
00100000
01000000
00010000
00000000
00001000
00000000
,
00000010
00000001
00000100
00000001
00000010
00000000
00000001
00000000
,
00001000
00000100
00000010
00000001
00000100
00000000
00001000
00000000
,
00010000
00001000
00010000
00001000
01000000
00000000
00100000
00000000
,
10000000
00010000
01000000
00100000
10000000
00000000
00010000
00000000
,
00100000
00010000
00100000
00010000
00100000
00000000
00001000
00000000
,
00010000
00001000
00010000
00001000
00000010
00000000
00000100
00000000
,
00001001
00000000
00000100
00001000
,
00010000
01000000
10000000
00000000
,
10010000
00100000
00010000
00001000
,
00000010
00000000
00000001
00000000
00000001
00000100
00000010
00000100
,
00000001
00000000
00000100
00000000
00000010
00001000
00000100
00000000
,
00010000
00001000
01000000
00001000
00010000
00000000
00100000
00000000
,
00010000
00001000
00000010
00000100
,
00001000
00000010
00000000
00000001
00000000
00000010
00001000
00000000
,
00000001
00000100
00000010
00010000
,
00001000
00010000
00000000
00001000
00000000
00000100
00000001
00000000
,
00000001
00000010
00000100
00000010
,
00001000
00000000
00010000
00000000
00001000
00000000
00010000
01000000
,
10000000
00000000
01000000
00000000
00100000
00010000
01000000
00000000
,
00001000
00000000
00010000
00000000
00001000
00000100
00000010
00000000
,
00000100
00001000
00010000
01000000
,
00010000
01000000
00000000
10000000
00000000
01000000
00010000
00000000
,
01000000
10000000
00100000
00010000
,
00010000
00001000
00000000
00010000
00000000
00000100
00001000
00000000
,
00000002
00000000
00000000
00000003
,
00000000
00000000
00000000
00000000
,
00022000
00000000
00000000
00033000
,
00000000
00000000
00000000
00000000
,
00001000
00010000
00001000
00000000
01000000
00100000
01000000
00100000
,
01000000
00100000
01000000
00100000
,
00010000
00100000
01000000
00000000
01000000
00100000
01000000
00010000
,
00001000
00010000
00001000
00000010
,
00000001
00001000
00000010
00001000
00000100
00001000
00000001
00000100
,
00000010
00010000
00001000
00010000
,
01000000
00100000
00010000
01000000
00010000
10000000
00100000
10000000
,
00010000
10000000
00010000
00100000
,
00001000
00010000
00001000
00010000
01000000
00010000
00001000
00000000
,
00010000
00001000
00000010
00000100
00000001
00000100
00000010
00000000
,
00000100
00000010
00000001
00000100
00001000
00000100
00000001
00000000
,
00000100
00000010
00001000
00010000
00001000
01000000
00001000
00000000
,
00022000
00000000
00000000
00000000
,
00000000
00000000
00000000
00033000
,
00000000
02200000
00000000
00000000
,
00000000
00000000
00000000
03300000
,
00000000
00000000
02000000
00000000
,
00000000
00000000
03000000
00000000
,
00000000
00000000
00000000
00000000
;
#NOTES:
     dance-double:
     :
     Challenge:
     15:
     :
00000000
00000000
00000000
00000000
,
00000000
00000000
00000000
00000000
,
00000000
00000000
00000000
00000000
,
00000000
00000000
00000000
00000000
,
00000000
00000000
00000000
00000000
,
00001000
00000010
00000100
00000010
00001000
00000001
00000100
00000001
,
00001000
00000010
00001000
00000100
00000010
00000001
00000100
00000000
,
00001000
00010000
00001000
00100000
00010000
01000000
00100000
10000000
,
01000000
10000000
00010000
00100000
00010000
10000000
00010000
00000000
,
00010000
01000000
00010000
10000000
00100000
01000000
00001000
00010000
,
00001000
00010000
00001000
01000000
00001000
01000000
00010000
10000000
,
00100000
10000000
00100000
10000000
00100000
01000000
00100000
00000000
,
00010000
00000000
00001000
00000000
00000100
00000000
00000001
00000100
,
00000001
00001000
00000001
00000100
00000010
00001000
00000001
00000100
,
00000001
00000100
00000000
00001000
00000000
00010000
00100000
00010000
,
00001000
00010000
01000000
10000000
00100000
10000000
01000000
00100000
,
00010000
10000000
01000000
00100000
01000000
10000000
01000000
00000000
,
00010000
00001000
00010000
00000000
00000100
00000000
00000010
00000100
,
00001000
00000000
00000100
00000000
00000001
00000000
00000100
00000010
,
00000001
00000000
00001000
00000001
00000000
00000001
00000010
00000000
,
00000100
00010000
00001000
00000000
00010000
00000000
01000000
00000000
,
10000000
01000000
10000000
00010000
00000000
00010000
00100000
00000000
,
00010000
01000000
00000000
00100000
00000000
10000000
01000000
00000000
,
10000000
01000000
00010000
00001000
,
00000010
00000001
00000000
00000100
00000000
00000010
00000100
00000001
,
00001000
00000001
00000010
00000000
00000100
00000000
00000010
00000001
,
00000100
00000000
00000001
00000010
00000001
00000000
00000100
00001000
,
00010000
00001000
00010000
00100000
,
00010000
00001000
00010000
00000000
01000000
00100000
01000000
00000000
,
10000000
00010000
00100000
00000000
00010000
00000000
00200000
00000000
,
00000000
00001000
00001000
00310000
,
00011000
00000000
00000110
00000000
,
00000010
00000001
00000000
00000100
00000000
00000010
00000100
00000000
,
00001000
00010000
00100000
01000000
00010000
01000000
00010000
00000000
,
10000000
01000000
10000000
00010000
00100000
00010000
01000000
00000000
,
00001000
00010000
00100000
00010000
00001000
00000010
00000100
00000010
,
00000100
00000010
00000001
00000010
00000001
00001000
00000100
00000000
,
00000010
00000000
00000001
00000000
00000100
00000000
00001000
00010000
,
00001000
00100000
00010000
10000000
01000000
10000000
00010000
00000000
,
01020000
00000000
00000000
01000000
00030000
00000000
00010000
00000000
,
10010000
00000000
10000000
00000000
01000000
00000000
00010000
00001000
,
00010000
00001000
00000010
00000100
00001000
00000100
00001000
00000000
,
00000001
00000100
00000001
00001000
00000010
00001000
00000100
00000000
,
00020000
00000000
00000000
00032000
00000000
00000000
01003000
00100000
,
01000000
00100000
10000000
00100000
10000000
00010000
01000000
00000000
,
00100000
00000000
10000000
00000000
01000000
00000000
00010000
00001000
,
00010000
00000010
00001000
00000001
00000100
00000001
00001000
00000000
,
00002100
00000000
00003100
00000000
,
00011000
00000000
00010000
00001000
00010000
01000000
00100000
00010000
,
00000000
00000000
00001000
00000000
01000000
00000000
00010000
10000000
,
00000000
00010000
10000000
00100000
00010000
00100000
01000000
00100000
,
10000000
00010000
10000000
00100000
01000000
00000000
00010000
10000000
,
00000000
01000000
00000000
00010000
00000000
00001000
00000000
00000000
,
00000010
00000001
00000010
00000100
00001000
00000100
00000010
00000100
,
00001000
00000001
00000000
00001000
00000100
00000000
00001000
00000000
,
00000001
00000100
00001000
00000000
00010000
00001000
00100000
00000000
,
01000000
00100000
01000000
00000000
00010000
10000000
00010000
00000000
,
10010000
00000000
01000000
00000000
00010000
00000000
00001000
00000010
,
00000001
00000100
00000110
00001001
,
00000001
00000010
00000000
00000000
00000010
00001000
00000000
00000000
,
00001000
00010000
00100000
10000000
00010000
00100000
00010000
00100000
,
01000000
00000000
10000000
01000000
10000000
01000000
00100000
00010000
,
00000000
00100000
00000000
00001000
00010000
00001000
00000100
00000000
,
00000002
00000000
00000000
00000003
,
00000000
00000000
00000000
00000000
,
00000100
00000001
00000010
00000100
00000001
00000100
00000010
00000001
,
00000010
00000000
00000001
00000000
00001000
00000000
00000100
00010000
,
00000100
00000000
00010000
00001000
00010000
00100000
00010000
00000000
,
00110000
10100000
01100000
10010000
,
10000000
01000000
00010000
00000000
00001000
00100000
01000000
00000000
,
00010000
00001000
00000010
00000000
00001000
00010000
00001000
00000000
,
00010000
00100000
10000000
01000000
,
00010000
00001000
00100000
00001000
00010000
01000000
10000000
00000000
,
01000000
10000000
00100000
01000000
10000000
01000000
00100000
10000000
,
00100000
00000000
10000000
00000000
00010000
00000000
01000000
00001000
,
01000000
00000000
00001000
00010000
00001000
00000010
00001000
00000000
,
00001010
00000011
00000110
00001001
,
00000001
00000100
00001000
00000000
00010000
00000010
00000100
00000000
,
00001000
00010000
00100000
00000000
00010000
00001000
00010000
00000000
,
00001000
00010000
01000000
00100000
,
00001000
00010000
01000000
10000000
00010000
01000000
00010000
00000000
,
10000000
01000000
00100000
01000000
00010000
01000000
00100000
01000000
,
10000000
01000000
00100000
01000000
00010000
00000000
00000000
00000000
,
00000100
00001000
00000010
00001000
00000100
00001000
00000010
00001000
,
00000100
00001000
00000001
00001000
00000100
00000000
00000000
00000000
,
00010000
00001000
00010000
00100000
01000000
00100000
01000000
00010000
,
01000000
00100000
01000000
00100000
00010000
00000000
00000000
00000000
,
00000010
00000100
00000001
00000010
00000001
00000010
00000100
00000010
,
00000001
00000010
00000100
00000010
00001000
00000000
00010000
00000000
,
00100000
10000000
01000000
10000000
00100000
01000000
00010000
00100000
,
00010000
01000000
00100000
10000000
01000000
10000000
00010000
00100000
,
00001000
00010000
00001000
00010000
00000100
00001000
00000100
00001000
,
00000010
00001000
00000100
00000010
00000001
00000100
00000001
00000100
,
00000010
00001000
00000010
00001000
00000010
00010000
00000010
00010000
,
00001000
00010000
00001000
00010000
00100000
01000000
10100000
00000000
,
10100000
00000000
01000000
00010000
,
00001000
00000100
00000001
00000000
,
00000011
00001010
00011000
00110000
,
00100000
01000000
10000000
00100000
10000000
01000000
00010000
01000000
,
10000000
00000000
01000000
00000000
00100000
00010000
01000000
00000000
,
00001000
00010000
00000100
00010000
00001000
00000100
00000010
00000000
,
00000110
00001100
00011000
01100000
,
00010000
00100000
00000000
10000000
00000000
00100000
00010000
00000000
,
10000000
01000000
10000000
00000000
00100000
00010000
00100000
00000000
,
00010000
00001000
00000000
00010000
00000000
01000000
10000000
00000000
,
11000000
00110000
00011000
00001010
,
00000010
00000100
00000001
00000010
00000001
00000100
00001000
00000100
,
00000001
00000000
00000100
00000000
00000010
00001000
00000100
00000000
,
00010000
00001000
01000000
00001000
00010000
01000000
00100000
00000000
,
01100000
01010000
00011000
00000110
,
00001000
00000010
00000000
00000001
00000000
00000010
00001000
00000000
,
00000001
00000100
00000001
00000000
00000010
00001000
00000010
00000000
,
00001000
00010000
00000000
00001000
00000000
01000000
00010000
00000000
,
20000000
00000000
00000000
30000000
,
00000000
00000000
00000000
00000000
,
00022000
00000000
00000000
00033000
,
00000000
00000000
00000000
00000000
,
00010000
00001000
00010000
00000000
00000010
00000100
00000010
00000000
,
00000100
00001000
00000100
00000010
00000100
00001000
00000100
00000010
,
00001000
00000010
00000100
00000000
00000001
00000000
00000010
00000000
,
00001000
00010000
00001000
00010000
00001000
00100000
00010000
00000000
,
10000000
00010000
00100000
00010000
01000000
00010000
10000000
01000000
,
00100000
00010000
01000000
00100000
00010000
00001000
00010000
00000010
,
00000100
00000010
00001000
00000100
00001000
00000001
00000010
00000001
,
00001000
00000100
00001000
00000001
00001000
00000100
00000010
00000000
,
00000100
00001000
00000010
00010000
00000100
00010000
00001000
00010000
,
00001000
00010000
00100000
01000000
10000000
01000000
00100000
00010000
,
00100000
01000000
00010000
00100000
00010000
10000000
00100000
10000000
,
00010000
01000000
00001000
00010000
00001000
00000100
00001000
00010000
,
00022000
00000000
00000000
00000000
,
00000000
00000000
00000000
00033000
,
00000000
00000220
00000000
00000000
,
00000000
00000000
00000000
00000330
,
00000000
00000000
00000200
00000000
,
00000000
00000000
00000300
00000000
,
00000000
00000000
00000000
00000000
;
