
//----- song ID: haru -----//
#TITLE:ハルイチバン;
#ARTIST:ときめきアイドル project;
#TITLETRANSLIT:Haru ichiban;
#ARTISTTRANSLIT:Tokimeki Idol project;
#BANNER:Haru ichiban.png;
#BACKGROUND:Haru ichiban-bg.png;
#CDTITLE:./CDTitles/DDR A.png;
#MUSIC:Haru ichiban.ogg;
#SAMPLESTART:47.003;
#SAMPLELENGTH:15;
#DISPLAYBPM:180;
#BPMS:0=180.5,4=180;
#NOTES:
     dance-single:
     :
     Beginner:
     4:
     :
0000
0000
0000
0000
,
0000
0000
0000
0000
,
0000
0000
0000
0000
,
0000
0000
0000
0000
,
1000
0000
1000
0000
,
2000
0000
3000
0000
,
0010
0000
0010
0000
,
0020
0000
0030
0000
,
0001
0000
0001
0000
,
0002
0000
0003
0000
,
0010
0000
0010
0000
,
0020
0000
0030
0000
,
0001
0001
0001
0000
,
0001
0000
0000
0000
,
1000
1000
1000
0000
,
1000
0000
0000
0000
,
0020
0000
0030
0000
,
0200
0000
0300
0000
,
1001
0000
0000
0000
,
0000
0000
0000
0000
,
1000
1000
0000
0000
,
2000
0000
3000
0000
,
1000
0000
0010
0000
,
1000
0000
0000
0000
,
0001
0001
0000
0000
,
0002
0000
0003
0000
,
0001
0000
0010
0000
,
0001
0000
0000
0000
,
0002
0003
0000
0000
,
2000
3000
0000
0000
,
2002
0000
0000
0000
,
3003
0000
0000
0000
,
1000
0000
0000
0000
,
0001
0000
0000
0000
,
1001
0000
0000
0000
,
0000
0000
0000
0000
,
1000
0000
1000
0000
,
0010
0000
0010
0000
,
1000
0000
1000
0000
,
0100
0000
0000
0000
,
0001
0000
0001
0000
,
0010
0000
0010
0000
,
0001
0000
0001
0000
,
0100
0000
0000
0000
,
2000
0000
3000
0000
,
1000
0000
0000
0000
,
0002
0000
0003
0000
,
0001
0000
0000
0000
,
0010
0000
0010
0000
,
0001
0000
0001
0000
,
0100
0000
0100
0000
,
1001
0000
0000
0000
,
1000
0000
1000
0000
,
0010
0000
0010
0000
,
1000
0000
1000
0000
,
0100
0000
0000
0000
,
0001
0000
0001
0000
,
0010
0000
0010
0000
,
0001
0000
0001
0000
,
0100
0000
0000
0000
,
2000
0000
3000
0000
,
1000
0000
0000
0000
,
0002
0000
0003
0000
,
0001
0000
0000
0000
,
0010
0000
0010
0000
,
0001
0000
0001
0000
,
0002
0000
0003
0000
,
0001
0000
0000
0000
,
2000
0000
3000
0000
,
1000
0000
0000
0000
,
1001
0000
0000
0000
,
1001
0000
0000
0000
,
0000
0000
0000
0000
,
1000
0000
1000
0000
,
0010
0000
0010
0000
,
2000
0000
3000
0000
,
1000
0000
0000
0000
,
0001
0000
0001
0000
,
0010
0000
0010
0000
,
0002
0000
0003
0000
,
0001
0000
0000
0000
,
0001
0000
0000
0000
,
1000
0000
0000
0000
,
0000
0000
0200
0000
,
0000
0000
0000
0000
,
0000
0000
0000
0000
,
0300
0000
0000
0000
,
0000
0000
0000
0000
;
#NOTES:
     dance-single:
     :
     Easy:
     6:
     :
0000
0000
0000
0000
,
0000
0000
0000
0000
,
0000
0000
0000
0000
,
0000
0000
0000
0000
,
0001
1000
0100
0000
,
1000
0001
0010
0000
,
0010
0100
0010
0000
,
0100
0010
0100
0000
,
0001
0000
0010
0000
,
1000
0000
0100
0000
,
0002
0000
1003
0000
,
2000
0000
3001
0000
,
0100
1000
0100
1000
,
0100
0001
0100
0000
,
1100
0000
0001
0000
,
0001
0100
1000
0000
,
0001
0000
1000
0000
,
0001
0000
0001
0000
,
0020
0000
0130
0000
,
0200
0000
0310
0000
,
0010
1001
0000
0000
,
2002
0000
3003
0000
,
0002
0000
1003
0000
,
0110
0000
1001
0000
,
0100
1001
0000
0000
,
2002
0000
3003
0000
,
1000
0000
0100
0000
,
0001
0000
0100
0000
,
0100
0000
0010
0000
,
0100
0000
0010
0000
,
1000
0001
1000
0001
,
1000
0000
0000
0000
,
1100
0000
0000
0000
,
0011
0000
0000
0000
,
2002
0000
0000
0000
,
3003
0000
0000
0000
,
1000
0000
0001
0000
,
1000
1000
1000
0000
,
1010
0000
0101
0000
,
1010
0000
0101
0000
,
1000
0010
0100
0001
,
0001
1000
0001
0000
,
0202
0000
0000
0000
,
0303
0000
0000
0000
,
0001
0100
1000
0100
,
0001
0000
0000
0000
,
1000
0100
0001
0100
,
1000
0000
0002
0000
,
0203
0000
0300
0000
,
0011
0000
0101
0000
,
2002
0000
0000
0000
,
3003
0000
0000
0000
,
1000
0000
0001
0000
,
1000
1000
1000
0000
,
1010
0000
0101
0000
,
1010
0000
0101
0000
,
1000
0001
0100
0010
,
2000
0000
3001
0000
,
0001
1000
0020
0000
,
0130
0000
0000
0000
,
1000
0001
1000
0001
,
2000
0000
3010
0000
,
0001
0001
0001
0000
,
0200
0000
0310
0000
,
1000
0000
0001
0000
,
1000
0000
0001
0000
,
2000
0000
3100
0000
,
0200
0000
0310
0000
,
0001
0000
0200
0000
,
1300
0000
0000
0000
,
0220
0000
0330
0000
,
2002
0000
0000
0000
,
0000
0000
0000
0000
,
3003
0000
0000
0000
,
0000
0000
0000
0000
,
1000
0100
0001
0100
,
1000
0100
0001
0100
,
0001
1000
0001
0000
,
1000
0001
1000
0000
,
0001
1000
0001
0000
,
0002
0000
0003
0000
,
0100
0000
1000
0000
,
0010
0000
0001
1000
,
0000
0000
0220
0000
,
0000
0000
0000
0000
,
0000
0000
0000
0000
,
0330
0000
0000
0000
,
0000
0000
0000
0000
;
#NOTES:
     dance-single:
     :
     Medium:
     7:
     :
0000
0000
0000
0000
,
0000
0000
0000
0000
,
0000
0000
0000
0000
,
0000
0000
0000
0000
,
0000
1000
0100
0010
,
0001
1000
0010
0100
,
0001
0000
1000
0010
,
0100
0001
1000
0100
,
0010
0000
0001
0100
,
0010
1000
0100
0010
,
0002
0103
2000
3100
,
0020
0000
0130
0000
,
1000
0100
0001
0100
,
1000
0000
0001
0100
,
1000
0100
0001
1000
,
0001
0000
1000
0100
,
0020
0000
0032
0000
,
2003
0000
3020
0000
,
0130
0000
0010
0100
,
1001
0000
0000
0000
,
0110
1001
0000
0000
,
0002
0000
0000
0103
,
0010
1000
0001
0000
,
0010
0100
1000
0000
,
1001
0110
0000
0000
,
2000
0000
0000
3010
,
0100
0001
1000
0000
,
0100
0010
0001
1000
,
0020
0000
0000
0000
,
0200
0000
0330
0000
,
0001
0100
1000
0100
,
0001
0000
0001
0010
,
0110
0000
0000
0000
,
1001
0000
0000
0000
,
1000
0100
0010
0001
,
1000
0000
1001
0000
,
0001
0100
1000
0100
,
0001
0100
1000
0100
,
0001
0010
1000
0010
,
0001
0010
1000
0010
,
0002
0000
2003
0000
,
3020
0000
0230
0000
,
0301
1000
0001
1000
,
0100
0000
0110
0000
,
0001
0010
0100
1000
,
0001
0000
0110
0000
,
1000
0010
0100
0001
,
1000
0000
0110
0000
,
1000
0100
0001
0000
,
0001
0100
1000
0000
,
0001
0010
1000
0010
,
0001
0000
1001
0000
,
1000
0100
0001
0100
,
1000
0100
0001
0100
,
1000
0010
0001
0010
,
1000
0010
0001
0010
,
2000
0000
3002
0000
,
0023
0000
0230
0000
,
1300
0001
1000
0001
,
0100
0000
0110
0000
,
1000
0010
0100
0001
,
1000
0000
0110
0000
,
0001
0010
0100
1000
,
0001
0000
0110
0000
,
0001
0100
1000
0000
,
1000
0100
0001
0000
,
2000
0000
3001
0000
,
0020
0000
0130
0000
,
2000
0000
0000
3100
,
0010
0001
0010
0100
,
2000
0000
0000
0000
,
3001
0100
0010
0100
,
2002
0000
0000
0000
,
0000
0000
0000
0000
,
3003
0000
0000
0000
,
0001
0100
0001
0100
,
0010
1000
0001
0000
,
1000
1000
1000
1000
,
0100
0100
0100
0100
,
0010
0010
0010
0010
,
0001
0001
0001
0001
,
1001
0000
0110
0000
,
1001
0000
0000
0000
,
0000
0000
2002
0000
,
0000
0000
0000
0000
,
0000
0000
0000
0000
,
3003
0000
0000
0000
,
0000
0000
0000
0000
;
#NOTES:
     dance-single:
     :
     Hard:
     11:
     :
0000
0000
0000
0000
,
0000
0000
0000
0000
,
0000
0000
0000
0000
,
0000
0000
0000
0000
,
1000
1000
1000
1000
,
1000
0000
1000
0000
1000
0100
0010
0000
,
0001
0001
0001
0001
,
0001
0000
0001
0000
0001
1000
0010
0000
,
0100
0100
0100
0100
,
0100
0000
0100
0000
0100
0001
1000
0000
,
0010
0010
0100
0100
,
0001
0000
1000
0000
0100
0010
0001
0000
,
1000
0000
0010
0000
0100
0001
1000
0000
,
0100
0000
0010
0000
0001
1000
0010
0000
,
0100
0000
0001
0000
1000
0100
0010
0000
,
0001
0000
1000
0000
0010
0100
0001
0000
,
0020
0100
0100
0130
,
2000
0000
0000
3001
,
0110
0000
0000
1001
0000
0110
0000
1001
,
0000
0001
0010
0000
0100
0000
1000
0000
,
0100
0010
0100
0000
0000
0000
0000
0000
,
2000
0000
0000
0000
3000
0001
1000
0000
,
0100
0000
0010
0001
1000
0000
0010
0100
,
0001
0000
1000
0100
0010
0000
0001
0000
,
1000
0100
1000
0000
0000
0000
0000
0000
,
0002
0000
0000
0000
0003
0100
0001
0000
,
1000
0000
0010
0100
0001
0000
0010
0100
,
1000
0000
0001
0100
0010
1000
0100
0000
,
0020
0000
0001
0000
0001
0000
0031
1000
,
0020
0100
0130
0001
,
0101
0000
0110
0000
,
1010
0000
1001
0000
,
0001
0010
0001
0010
0001
0010
0000
0100
,
1000
0100
1000
0100
1000
0100
0000
0010
,
0001
1000
0010
0100
0001
1000
0100
0010
,
0001
1000
0010
0100
,
0002
0000
1003
0100
0020
0000
0031
1000
,
0010
0100
0001
1000
,
0200
0000
0310
0001
0200
0000
0310
1000
,
0001
0010
0200
0320
,
0032
0023
0230
2300
,
3002
2003
3020
0230
,
0320
0001
0100
1000
,
0230
0001
0010
1000
,
0310
0000
0100
0000
0010
1000
0010
0001
,
0010
0000
0100
0010
0000
1000
0001
0000
,
1000
0100
1000
0100
0001
0100
0001
0100
,
1000
0000
0100
0010
0000
0001
1000
0000
,
0001
0000
0100
0000
1000
0100
0001
0000
,
1000
0000
0100
0000
0001
0100
1000
0000
,
0001
0000
0000
0000
0110
0000
0000
1001
,
0000
1001
0000
0000
0100
0000
0010
0000
,
2000
0000
3001
0010
0200
0000
1300
0001
,
0100
0010
1000
0001
,
0020
0000
0130
1000
0020
0000
0130
0001
,
1000
0100
0020
0230
,
2300
3200
0320
0032
,
2003
0000
0000
0000
0000
0000
0000
0000
3001
0000
0000
0100
0000
0000
0010
0000
,
0200
1000
0010
0001
,
0320
1000
0100
0001
,
0130
0000
0010
0000
0100
0001
0100
1000
,
0100
0000
0010
0100
0000
0001
1000
0000
,
0001
0010
0001
0010
1000
0010
1000
0010
,
0001
0000
0010
0100
0000
1000
0001
0000
,
1000
0000
0010
0000
0001
0010
1000
0000
,
0001
0000
0010
0000
1000
0010
0001
0000
,
2000
0000
0001
3001
,
0010
0100
1000
0001
,
2000
0000
0000
3010
,
0100
0001
0010
0100
,
0020
0000
0000
0030
,
1001
0000
0000
0000
,
0000
0000
0000
0000
,
1000
0000
0100
0000
0010
0001
0010
0000
,
0100
0000
1000
0000
0001
0100
0001
0000
,
1000
0000
0010
0000
0100
0001
0100
0000
,
0010
1000
0010
0000
0100
0001
0010
0100
,
2000
0000
0100
0000
0100
0000
3100
0010
,
0002
0000
1000
0000
1000
0000
1003
0010
,
0200
0000
0001
0000
0001
0000
0301
0020
,
0000
0031
0010
0100
,
1000
0001
0010
0000
0100
1000
0001
0100
,
0000
0000
0000
0110
0000
0110
0000
0000
,
0000
0000
0000
2000
0002
0000
0000
0000
,
0000
0000
0000
0000
,
0000
0000
0000
0000
,
3003
0000
0000
0000
,
0000
0000
0000
0000
;
#NOTES:
     dance-double:
     :
     Easy:
     5:
     :
00000000
00000000
00000000
00000000
,
00000000
00000000
00000000
00000000
,
00000000
00000000
00000000
00000000
,
00000000
00000000
00000000
00000000
,
10000000
00000000
01000000
00000000
,
00010000
00001000
00010000
00000000
,
00002000
00000000
00003010
00000000
,
00000002
00000000
00000013
00000000
,
00000001
00000000
00000100
00000000
,
00001000
00010000
00001000
00000000
,
00020000
00000000
00130000
00000000
,
20000000
00000000
30010000
00000000
,
10000000
01000000
10000000
01000000
,
10000000
00000000
00000000
00000000
,
01000000
00010000
01000000
00010000
,
01000000
00000000
00000000
00000000
,
00020000
00000000
00032000
00000000
,
00023000
00000000
00032000
00000000
,
00003010
00000000
00000100
00000010
,
00000001
00000000
00000000
00000000
,
00000001
00000001
00000000
00000000
,
00000002
00000000
00000103
00000000
,
00001000
00010000
00001000
00000000
,
00010000
00000000
00100000
00000000
,
10000000
10000000
00000000
00000000
,
20000000
00000000
31000000
00000000
,
00010000
00001000
00010000
00000000
,
00001000
00000000
00000010
00000000
,
00000002
00000000
00000000
00000000
,
00001003
00000000
00000000
00000000
,
00000002
00000000
00000203
00000000
,
00002300
00000000
00013000
00000000
,
00100000
00000000
00000000
00000000
,
01000000
00000000
00000000
00000000
,
20020000
00000000
00000000
00000000
,
30030000
00000000
00000000
00000000
,
10000000
00000000
00010000
00000000
,
10000000
01000000
00010000
00000000
,
00001000
00000000
00010000
00000000
,
00001000
00000010
00000001
00000000
,
00000001
00000010
00000001
00000000
,
00001000
00000100
00001000
00000000
,
00000001
00000100
00000001
00000000
,
00001000
00000010
00001000
00000000
,
00000001
00000001
00000100
00000100
,
00001000
00000000
00000000
00000000
,
00010000
00010000
00100000
00100000
,
10000000
00000000
00000000
00000000
,
10000000
00000000
01000000
00000000
,
00010000
00000000
00001000
00000000
,
00000020
00000000
00000001
00000000
,
00000031
00000000
00000000
00000000
,
00000001
00000000
00001000
00000000
,
00000001
00000100
00001000
00000000
,
00010000
00000000
00001000
00000000
,
00010000
00100000
10000000
00000000
,
10000000
00100000
10000000
00000000
,
00010000
01000000
00010000
00000000
,
10000000
01000000
10000000
00000000
,
00010000
00100000
00010000
00000000
,
10000000
10000000
01000000
01000000
,
00010000
00000000
00000000
00000000
,
00001000
00001000
00000010
00000010
,
00000001
00000000
00000000
00000000
,
00000001
00000000
00000100
00000000
,
00001000
00000000
00010000
00000000
,
00200000
00000000
10000000
00000000
,
00010000
00000000
10300000
00000000
,
20000000
00000000
01000000
00000000
,
00010000
00000000
31000000
00000000
,
01100000
00000000
00000000
00000000
,
10010000
00000000
00000000
00000000
,
00000000
00000000
00000000
00000000
,
10000000
00000000
01000000
00000000
,
00010000
00001000
00010000
00000000
,
00001000
00000000
00000010
00000000
,
00000001
00000000
00001000
00000000
,
00000001
00001000
00000001
00000000
,
00000100
00000010
00000100
00000000
,
00001000
00010000
00001000
00000000
,
00010000
00100000
00010000
00000000
,
00100000
00000000
01000000
00000000
,
01100000
00000000
00000000
00000000
,
00000000
00000000
20000000
00000000
,
00000000
00000000
00000000
00000000
,
00000000
00000000
00000000
00000000
,
30000000
00000000
00000000
00000000
,
00000000
00000000
00000000
00000000
;
#NOTES:
     dance-double:
     :
     Medium:
     7:
     :
00000000
00000000
00000000
00000000
,
00000000
00000000
00000000
00000000
,
00000000
00000000
00000000
00000000
,
00000000
00000000
00000000
00000000
,
00000000
10000000
00010000
00100000
,
01000000
00010000
00001000
00010000
,
00001000
00000000
00000010
00000001
,
00000010
00000100
00001000
00000001
,
00000100
00000000
00001000
00010000
,
00001000
00010000
00100000
01000000
,
00020000
00000000
20030000
00000000
,
32000000
00000000
03010000
00001000
,
00000010
00000001
00000010
00000100
,
00001000
00000000
00000001
00000100
,
00001000
00010000
00100000
10000000
,
00010000
00000000
10000000
00010000
,
20000000
00000000
32000000
00000000
,
03020000
00000000
00032000
00000000
,
00003010
00000000
00000010
00000001
,
00001001
00000000
00000000
00000000
,
00001001
00001001
00000000
00000000
,
00000002
00000000
00000000
00000103
,
00001000
00010000
00100000
00000000
,
10000000
00010000
01000000
00000000
,
10010000
10010000
00000000
00000000
,
20000000
00000000
00000000
31000000
,
00010000
00001000
00000010
00000000
,
00000001
00000010
00001000
00000010
,
00000002
00000000
00000000
00000000
,
00002000
00000000
00003003
00000000
,
00000001
00000100
00001000
00010000
,
00001000
00000000
00010000
00100000
,
01100000
00000000
00000000
00000000
,
10010000
00000000
00000000
00000000
,
10000000
01000000
00010000
00001000
,
00000010
00000000
00001001
00000000
,
00000001
00000100
00001000
00000100
,
00000001
00000100
00001000
00000100
,
00000001
00000010
00001000
00000010
,
00000001
00000010
00001000
00010000
,
00200000
00000000
20300000
00000000
,
30020000
00000000
02030000
00000000
,
03100000
10000000
00100000
10000000
,
01000000
00000000
00010000
00000000
,
00001000
00000010
00000001
00000010
,
00001000
00000000
00011000
00000000
,
00010000
00100000
10000000
00100000
,
00010000
00000000
00011000
00000000
,
00001000
00000100
00000001
00000000
,
00000001
00000100
00001000
00000000
,
00010000
00100000
10000000
00100000
,
01000000
00000000
10010000
00000000
,
10000000
01000000
00010000
01000000
,
10000000
01000000
00010000
01000000
,
10000000
00100000
00010000
00100000
,
10000000
00100000
00010000
00001000
,
00000020
00000000
00000032
00000000
,
00002003
00000000
00003200
00000000
,
00000310
00000001
00000010
00000001
,
00000100
00000000
00001000
00000000
,
00010000
00100000
10000000
00100000
,
00010000
00000000
00011000
00000000
,
00001000
00000010
00000001
00000010
,
00001000
00000000
00011000
00000000
,
00010000
01000000
10000000
00000000
,
10000000
01000000
00010000
00000000
,
00002000
00000000
00013000
00000000
,
00020000
00000000
00031000
00000000
,
00002000
00000000
00000000
00003010
,
00000001
00000010
00000100
00000000
,
00002000
00000000
00000000
00000000
,
00003001
00000100
00000010
00000100
,
00002002
00000000
00000000
00000000
,
00000000
00000000
00000000
00000000
,
00003003
00000000
00000000
00000000
,
00000001
00000100
00000001
00000100
,
00001000
00010000
00001000
00010000
,
00100000
00100000
00100000
00100000
,
10000000
10000000
10000000
10000000
,
01000000
01000000
01000000
01000000
,
00010000
00010000
00010000
00010000
,
00011000
00000000
00000110
00000000
,
00001001
00000000
00000000
00000000
,
00000000
00000000
00002002
00000000
,
00000000
00000000
00000000
00000000
,
00000000
00000000
00000000
00000000
,
00003003
00000000
00000000
00000000
,
00000000
00000000
00000000
00000000
;
#NOTES:
     dance-double:
     :
     Hard:
     11:
     :
00000000
00000000
00000000
00000000
,
00000000
00000000
00000000
00000000
,
00000000
00000000
00000000
00000000
,
00000000
00000000
00000000
00000000
,
10000000
10000000
10000000
10000000
,
10000000
00000000
10000000
00000000
10000000
01000000
00010000
00000000
,
00001000
00001000
00001000
00001000
,
00001000
00000000
00001000
00000000
00001000
00000010
00000001
00000000
,
00000100
00000100
00000100
00000100
,
00000100
00000000
00000100
00000000
00000100
00001000
00010000
00000000
,
00001000
00001000
00010000
00010000
,
00001000
00010000
00100000
01100000
,
10000000
00000000
00010000
00000000
10000000
00010000
01000000
00000000
,
00100000
00000000
10000000
00000000
00010000
00100000
01000000
00000000
,
10000000
00000000
01000000
00000000
00010000
00001000
00010000
00000000
,
00001000
00000100
00000001
00000010
,
00002000
00010000
00010000
00013000
,
00200000
00000000
00000000
01300000
,
10010000
00000000
00000000
01100000
00000000
01100000
00000000
10010000
,
00000000
00010000
00100000
00000000
01000000
00000000
10000000
00000000
,
01000000
00100000
01000000
00000000
00000000
00000000
00000000
00000000
,
00020000
00000000
00000000
00000000
00030000
00001000
00010000
00000000
,
00001000
00000000
00000010
00000001
00001000
00000000
00000001
00000100
,
00000010
00000000
00001000
00000100
00000010
00000000
00000001
00000000
,
00001000
00000010
00001000
00000000
00000000
00000000
00000000
00000000
,
00000002
00000000
00000000
00000000
00000003
00000100
00000001
00000000
,
00000100
00000000
00001000
00010000
00001000
00000000
00010000
00100000
,
01000000
00000000
00010000
10000000
01000000
00100000
00010000
00000000
,
20000000
00000000
01000000
00000000
01000000
00000000
31000000
00010000
,
00002000
00010000
00013000
00001000
,
00001010
00000000
00000011
00000000
,
00000101
00000000
00001100
00000000
,
00010000
00001000
00010000
00001000
00010000
00001000
00000000
00100000
,
00010000
00100000
00010000
00100000
00010000
00100000
00000000
00010000
,
10000000
00010000
01000000
00100000
10000000
00010000
00100000
01000000
,
10000000
00010000
01000000
00100000
,
20000000
00000000
31000000
00010000
00002000
00000000
00013000
00001000
,
00000100
00000010
00000100
00001000
,
00000200
00000000
00000301
00000100
00002000
00000000
00013000
00100000
,
10000000
00010000
00200000
02300000
,
03020000
00032000
00003200
00002300
,
00023000
00032000
00203000
00320000
,
00032000
00000100
00000001
00000010
,
00023000
01000000
10000000
00100000
,
00031000
00000000
00000100
00000000
00000010
00000001
00000010
00001000
,
00010000
00000000
01000000
00100000
00000000
00010000
10000000
00000000
,
10000000
01000000
10000000
01000000
00010000
00001000
00010000
00001000
,
00000010
00000000
00000100
00000010
00000000
00000001
00001000
00000000
,
00000001
00000100
00001000
00010000
,
00100000
10000000
01000000
00010000
,
00001000
00000000
00000000
00000000
00000110
00000000
00000000
00001001
,
00000000
00001001
00000000
00000000
00000010
00000000
00000100
00000000
,
00000002
00000000
00000013
00001000
00020000
00000000
00031000
00010000
,
00100000
01000000
00100000
00010000
,
00200000
00000000
10300000
00100000
00020000
00000000
00031000
00000100
,
00000001
00001000
00000200
00000320
,
00002030
00023000
00230000
00320000
,
00032000
00000000
00000000
00000000
00000000
00000000
00000000
00000000
00003100
00000000
00000000
00000010
00000000
00000000
00001000
00000000
,
00020000
01000000
10000000
00100000
,
00032000
00000100
00000001
00000010
,
00013000
00000000
01000000
00000000
00100000
10000000
00100000
00010000
,
00001000
00000000
00000100
00000010
00000000
00001000
00000001
00000000
,
00000001
00000010
00000001
00000010
00001000
00010000
00001000
00010000
,
01000000
00000000
00100000
01000000
00000000
10000000
00010000
00000000
,
10000000
00100000
00010000
00001000
,
00000100
00000001
00000010
00001000
,
00020000
00000000
01000000
01030000
,
10000000
00010000
10000000
00100000
,
00020000
00000000
00000000
00031000
,
00000010
00000001
00000100
00001000
,
00000200
00000000
00000000
00000300
,
00001001
00000000
00000000
00000000
,
00000000
00000000
00000000
00000000
,
00000001
00000000
00000100
00000000
00001000
00010000
00001000
00000000
,
00010000
00000000
00100000
00000000
10000000
00100000
10000000
00000000
,
01000000
00000000
00010000
00000000
00001000
00010000
00001000
00000000
,
00000010
00000001
00000010
00000000
00000100
00001000
00000100
00000010
,
00000002
00000000
00000100
00000000
00000100
00000000
00000103
00000010
,
00002000
00000000
00000001
00000000
00000001
00000000
00003001
00000010
,
00000200
00000000
00010000
00000000
00010000
00000000
00010300
00002000
,
00000000
00013000
00100000
10000000
,
00010000
10000000
00100000
00000000
01000000
00010000
10000000
00100000
,
00000000
00000000
00000000
01100000
00000000
01100000
00000000
00000000
,
00000000
00000000
00000000
20000000
00020000
00000000
00000000
00000000
,
00000000
00000000
00000000
00000000
,
00000000
00000000
00000000
00000000
,
30030000
00000000
00000000
00000000
,
00000000
00000000
00000000
00000000
;
