
//----- song ID: haps -----//
#TITLE:ハッピーシンセサイザ;
#ARTIST:EasyPop;
#TITLETRANSLIT:Happy synthesizer;
#BANNER:Happy synthesizer.png;
#BACKGROUND:Happy synthesizer-bg.png;
#CDTITLE:./CDTitles/jubeat plus.png;
#MUSIC:Happy synthesizer.ogg;
#SAMPLESTART:56.681;
#SAMPLELENGTH:15;
#BPMS:0=127;
#NOTES:
     dance-single:
     :
     Beginner:
     2:
     :
0000
0000
0000
0000
,
0000
0000
0000
0000
,
0000
0000
0000
0000
,
0000
0000
0000
0000
,
0000
0000
0000
0000
,
0000
0000
0000
0000
,
0100
0000
0010
0000
,
0001
0000
0000
0000
,
1000
0000
0100
0000
,
1000
0000
0000
0000
,
0100
0000
0010
0000
,
1000
0000
0000
0000
,
0001
0000
0100
0000
,
0001
0001
0001
0000
,
0010
0000
0100
0000
,
0001
0000
0001
0000
,
0010
0000
0100
0000
,
1000
1000
1000
0000
,
0010
0000
0100
0000
,
1000
0000
1000
0000
,
0010
0000
0100
0000
,
0001
0001
0001
0000
,
0010
0010
0010
0000
,
1000
0000
1000
0000
,
0001
0001
0001
0000
,
1000
0000
0001
0000
,
0010
0010
0010
0000
,
0001
0000
0001
0000
,
1000
1000
1000
0000
,
1001
0000
0000
0000
,
0010
0000
0100
0000
,
0001
0001
0001
0000
,
0100
0000
0010
0000
,
0001
0000
0001
0000
,
0010
0000
0100
0000
,
1000
1000
1000
0000
,
0100
0000
0010
0000
,
0200
0000
0300
0000
,
1000
1000
1000
0000
,
0001
0000
1000
0000
,
1000
0000
1000
0000
,
0100
0000
0001
0000
,
0001
0001
0001
0000
,
1000
0000
0001
0000
,
0001
0000
0001
0000
,
0100
0000
0000
0000
,
0010
0000
0001
0001
,
0001
0000
1000
0000
,
2002
0000
0000
0000
,
0000
0000
0000
3003
,
0000
0000
0000
0000
;
#NOTES:
     dance-single:
     :
     Easy:
     5:
     :
0000
0000
0000
0000
,
0000
0000
0000
0000
,
0000
0000
0000
0000
,
0000
0000
0000
0000
,
0000
0000
0000
0000
,
0000
0000
0000
0000
,
0001
0100
0010
0010
,
1000
0000
1000
0100
,
1000
0100
0010
0010
,
0010
0001
0100
0000
,
1000
0100
0010
0010
,
0001
0000
0001
0100
,
0001
0100
0010
0010
,
0020
0030
0200
0300
,
0001
0100
0010
0000
,
1000
1000
0010
0000
,
1000
0100
0010
0000
,
0010
0001
0100
0000
,
1000
0100
0010
0000
,
0001
0001
0010
0000
,
0001
0100
0010
0000
,
1000
0001
1000
0000
,
0001
0010
1000
0000
,
1000
0000
0010
0000
,
0001
0100
1000
0000
,
0100
0001
0001
0000
,
1000
0010
0001
0000
,
0001
0000
0010
0000
,
1000
0100
0001
0000
,
1001
0000
0000
0000
,
0001
0010
0100
1000
,
0010
0100
0001
0000
,
1000
0001
1000
0000
,
0010
1000
0100
0000
,
1000
0010
0100
0001
,
0010
0100
1000
0000
,
0001
1000
0001
0000
,
0100
0100
0100
0000
,
0001
0000
0100
0100
,
0010
0000
1000
0001
,
0100
0000
0010
0010
,
1000
0100
0100
0000
,
1000
0000
0100
0100
,
0010
0000
0001
1000
,
0100
0000
0010
0010
,
1001
0000
0000
0000
,
0010
0100
1000
0000
,
0010
0100
0001
0001
,
2002
0000
0000
0000
,
0000
0000
0000
3003
,
0000
0000
0000
0000
;
#NOTES:
     dance-single:
     :
     Medium:
     9:
     :
0000
0000
0000
0000
,
0000
0000
0000
0000
,
0000
0000
0000
0000
,
0000
0000
0000
0000
,
0000
0000
0000
0000
,
0000
0000
0000
0000
,
0001
0100
0010
0000
1000
0000
0101
0000
,
0001
0000
0010
0000
0100
1000
0100
0000
,
1000
0100
1000
0000
0010
0000
0110
0000
,
1000
0010
1100
0101
,
1000
0100
0010
0000
0001
0000
1100
0000
,
1000
0000
0010
0000
0100
0001
0100
0000
,
0001
0100
0001
0000
0010
0000
0110
0000
,
1001
0110
1001
0110
,
0001
1000
0100
0010
0100
0000
1000
0000
,
0001
0010
0001
0100
0010
0000
0010
0000
,
1000
0010
0100
0010
1000
0000
0001
0000
,
1000
0000
0010
0001
0010
0000
0000
0000
,
1000
0001
0100
0010
0100
0000
0001
0000
,
1000
0010
1000
0100
0010
0000
0010
0000
,
0001
0010
0100
0010
0001
0000
1000
0000
,
1001
0000
0010
0000
0100
0001
0010
0000
,
0001
0100
0010
0000
0100
0000
0001
0010
,
0001
0100
0010
0000
0100
0000
1100
0000
,
1000
0100
0010
0000
0100
0000
0100
0010
,
0100
0010
0100
0000
1000
0000
0101
0000
,
1000
0100
0010
0000
0100
0000
1000
0010
,
1000
0100
0010
0000
0100
0000
0101
0000
,
0001
0100
0010
0000
0100
0000
0100
0010
,
0200
0001
1000
0301
,
0001
0000
0001
1000
0001
0000
0110
0000
,
1000
0010
0100
0001
0001
0000
0001
0000
,
0001
0010
0001
0000
1000
0100
1000
0000
,
0011
1100
0011
0000
,
1000
0001
0100
0010
1000
0000
0110
0000
,
0001
0010
0100
1000
1000
0000
1000
0000
,
1000
0010
1000
0000
0001
0100
0001
0000
,
0011
1100
0011
1001
,
1000
0001
0100
0002
0010
0000
0103
0000
,
0000
1000
0010
2000
0010
0000
3001
0000
,
0000
0001
0100
0010
1000
0000
1000
0100
,
0010
0001
1000
1000
0000
0000
0110
0000
,
0001
1000
0100
2000
0010
0000
3100
0000
,
0000
0001
0010
0002
0010
0000
1003
0000
,
0000
1000
0100
0010
0001
0000
0001
0100
,
0010
1000
0001
1000
1001
0000
0110
0000
,
0001
0000
0010
1000
0010
0001
0010
0000
,
1000
0000
0010
0001
0010
1000
0010
0000
,
2002
0000
0000
0000
,
0000
0000
0000
3003
,
0000
0000
0000
0000
;
#NOTES:
     dance-single:
     :
     Hard:
     13:
     :
0000
0000
0000
0000
,
0000
0000
0000
0000
,
0000
0000
0000
0000
,
0000
0000
0000
0000
,
0000
0000
0000
0000
,
0000
0000
0000
0000
,
1000
0000
0100
0000
0010
0000
0001
0000
0100
0000
0010
0100
0000
0001
1000
0000
,
0001
0000
1000
0000
0001
0000
0100
0000
0010
0000
1000
0001
0000
0100
0001
0000
,
0001
0000
0100
0000
0010
0000
1000
0000
0100
0000
0010
0100
0000
1000
0001
0000
,
1001
0000
0000
0000
0110
0000
0000
0000
0001
0010
0001
0000
1000
0100
1000
0000
,
0001
0000
0100
0000
0010
0000
1000
0000
0100
0000
0010
0100
0000
1000
0001
0000
,
1000
0000
0001
0000
1000
0000
0100
0000
0010
0000
0001
1000
0000
0100
1000
0000
,
1000
0000
0010
0000
0100
0000
0001
0000
0100
0000
0010
0100
0000
0001
1000
0000
,
1001
0000
0000
0000
0101
0000
0000
1100
0000
0000
0000
0000
0000
0000
0000
0000
,
0100
0000
0010
0000
0001
0000
0100
0000
0001
1000
0000
1000
0000
0000
0010
0000
,
0100
0001
1000
0100
0010
0000
0101
0000
,
0010
0000
0100
0000
0001
0000
1000
0100
1000
0100
0000
1000
0000
0000
0010
0000
,
0100
0000
0001
0100
0000
0010
0000
0200
0000
0000
0000
0000
0010
0000
0300
0000
,
0100
0000
0010
0000
1000
0000
0100
0000
1000
0001
0000
0001
0000
0000
0010
0000
,
0100
1000
0001
0100
0010
0000
1100
0000
,
0010
0000
0100
0000
1000
0000
0001
0100
0001
0100
0000
0001
0000
0000
0010
0000
,
0100
0000
1000
0100
0000
0010
0000
0110
0000
0000
0010
0000
0100
0000
0000
0000
,
0001
0100
0010
1000
0001
0000
0100
0001
0000
0010
0000
0100
0000
0000
0000
1000
,
0100
0000
0010
0001
0000
0100
0000
0010
0000
1000
0100
0010
0000
0000
0100
0000
,
1000
0100
0010
0001
1000
0000
0010
1000
0000
0001
0100
0010
0000
0000
1000
0010
,
1000
0000
0100
1000
0000
0001
0000
0000
1100
0000
0000
0000
0101
0000
0000
0000
,
1000
0100
0010
0001
1000
0000
0100
1000
0000
0010
0000
0100
0000
0000
0001
0000
,
0100
0000
0010
1000
0000
0100
0000
0010
0000
0001
0100
0010
0000
0000
0100
0000
,
0001
0100
0010
1000
0001
0000
0010
0001
0000
1000
0100
0010
0000
0000
0001
0010
,
0001
0000
0100
0001
0000
1000
0000
0000
0001
0000
1000
0000
0001
0000
1000
0000
,
2001
0000
0000
0000
3100
0000
0000
0000
0001
0000
1000
0100
0000
0010
0001
0000
,
1000
0000
0001
0000
0010
0000
0001
0000
1000
0000
0010
0100
0000
0000
0010
0000
,
1000
0000
0001
0100
0000
0010
0000
0010
0000
0010
0000
0010
0000
0000
0010
0000
,
1000
0000
0001
0000
1000
0000
0010
0000
0100
0001
0100
0000
0010
0000
0000
0000
,
1002
0000
0000
0000
0103
0000
0000
0000
1000
0001
0000
0100
0000
0000
0001
0000
,
0100
0000
1000
0000
0100
0000
0010
0000
0001
0000
0010
0100
0000
0000
0001
0000
,
1000
0000
0001
0100
0000
0010
0000
0010
0000
0010
0000
0010
0000
0000
0100
0000
,
0001
1000
0001
0010
0000
1100
0101
0000
,
0000
0000
1000
0000
0100
0000
1000
0000
0001
0000
0100
0010
0000
1000
0100
0000
,
0000
0000
1000
0000
0001
0000
0100
0000
0001
0000
1000
0100
0000
0010
0001
0000
,
0000
0000
0100
0000
0010
0000
1000
0000
0100
0000
1000
0100
0000
0000
1000
0000
,
0001
0000
0100
0000
0001
0000
0010
0000
0001
0100
0010
0000
0001
0000
0100
0000
,
0000
0000
0001
0000
1000
0000
0100
0000
1000
0000
0001
0100
0000
0010
1000
0000
,
0000
0000
0100
0000
0010
0000
0001
0000
0100
0000
0001
0100
0000
0000
0001
0000
,
1000
0100
1000
0010
1010
0000
0011
0000
,
0001
0000
0010
0000
0001
0000
0100
0000
0010
0100
0010
0000
1000
0001
1000
0000
,
0010
1000
0010
0000
0100
0000
0001
0010
0001
0000
0011
0000
1010
0000
0000
0010
,
1000
0000
0000
0000
0000
0000
0001
0000
0000
0000
0000
0000
0100
0000
0000
0001
0000
0000
0000
0000
0000
1000
0000
0000
0100
0000
0000
0000
0001
0000
0000
0000
0100
0000
0000
0000
1000
0000
0000
0000
0010
0000
0000
0000
0001
0000
0000
0000
,
2002
0000
0000
0000
,
0000
0000
0000
3003
,
0000
0000
0000
0000
;
#NOTES:
     dance-double:
     :
     Easy:
     5:
     :
00000000
00000000
00000000
00000000
,
00000000
00000000
00000000
00000000
,
00000000
00000000
00000000
00000000
,
00000000
00000000
00000000
00000000
,
00000000
00000000
00000000
00000000
,
00000000
00000000
00000000
00000000
,
00010000
02000000
00100000
03100000
,
10000000
00000000
01000000
00010000
,
00001000
00000200
00000010
00000310
,
00001000
00000000
00010000
00000000
,
00001000
00000200
00000010
00000310
,
00000001
00000000
00000100
00001000
,
00010000
02000000
00100000
03100000
,
00010000
00000000
00011000
00000000
,
00010000
01000000
00100000
00000000
,
00010000
00010000
01000000
00000000
,
00100000
00010000
00001000
00000000
,
00000010
00000001
00000100
00000000
,
00001000
00000100
00000010
00000000
,
00001000
00001000
00000100
00000000
,
00000010
00001000
00010000
00000000
,
00100000
10000000
00010000
00000000
,
00010000
00100000
01000000
00000000
,
01000000
00000000
00010000
00000000
,
00001000
00010000
00001000
00000000
,
00000100
00000001
00000001
00000000
,
00001000
00000010
00000100
00000000
,
00000100
00000000
00001000
00000000
,
00010000
00001000
00010000
00000000
,
00011000
00000000
00110000
00000000
,
00010000
00100000
01000000
10000000
,
01000000
00100000
00001000
00000000
,
00010000
00001000
00001000
00000000
,
00000010
00000001
00000001
00000000
,
00001000
00000010
00000100
00000001
,
00000010
00000100
00010000
00000000
,
00001000
00100000
00010000
00000000
,
00100000
01000000
10010000
00000000
,
00010000
00000000
01000000
01000000
,
00100000
00000000
10000000
10000000
,
01000000
00000000
00100000
00001000
,
00010000
00000000
00000100
00000000
,
00001000
00000000
00000100
00000100
,
00000010
00000000
00000001
00000001
,
00000100
00000000
00001000
00010000
,
00011000
00000000
00000000
00000000
,
00100000
00001000
00010000
00000000
,
00000010
00001000
00000100
00010000
,
00022000
00000000
00000000
00000000
,
00000000
00000000
00000000
00033000
,
00000000
00000000
00000000
00000000
;
#NOTES:
     dance-double:
     :
     Medium:
     9:
     :
00000000
00000000
00000000
00000000
,
00000000
00000000
00000000
00000000
,
00000000
00000000
00000000
00000000
,
00000000
00000000
00000000
00000000
,
00000000
00000000
00000000
00000000
,
00000000
00000000
00000000
00000000
,
00010000
01000000
00100000
00000000
00010000
00000000
01010000
00000000
,
00010000
00000000
00100000
00000000
01000000
10000000
01000000
00000000
,
00010000
00001000
00000100
00000000
00000010
00000000
00000110
00000000
,
00000001
00000010
00001100
00011000
,
00001000
00000100
00000010
00000000
00001000
00000000
00001100
00000000
,
00001000
00000000
00000010
00000000
00000100
00000001
00000100
00000000
,
00001000
00010000
01000000
00000000
00100000
00000000
01100000
00000000
,
11000000
00110000
00011000
00001100
,
00000001
00001000
00000100
00000010
00000100
00000000
00001000
00000000
,
00000001
00000010
00000001
00000100
00001000
00000000
00010000
00000000
,
01000000
00100000
01000000
00100000
00010000
00000000
10000000
00000000
,
00010000
00000000
00100000
00001000
00010000
00000000
00000000
00000000
,
00001000
00010000
01000000
00100000
01000000
00000000
10000000
00000000
,
10000000
00100000
10000000
01000000
00010000
00000000
00001000
00000000
,
00000100
00000010
00000100
00000010
00001000
00000000
00000001
00000000
,
00001000
00000000
00000010
00000000
00000000
00010000
00001000
00000000
,
00010000
01000000
00100000
00000000
01000000
00000000
10000000
00100000
,
10000000
01000000
00100000
00000000
00010000
00000000
00011000
00000000
,
00001000
00000100
00000010
00000000
00000100
00000000
00000100
00000001
,
00000100
00000001
00000100
00000000
00001000
00000000
00011000
00000000
,
00001000
00000100
00000010
00000000
00000100
00000000
00000001
00000010
,
00000001
00000100
00000010
00000000
00001000
00000000
00011000
00000000
,
00101000
00011000
00010100
00001100
,
00000001
00000100
00001000
00010000
,
00010000
00000000
00010000
00001000
00010000
00000000
01100000
00000000
,
10000000
00100000
01000000
00010000
10000000
00000000
01000000
00000000
,
00010000
00001000
00010000
00000000
00001000
00000100
00000010
00000000
,
00010000
00001000
00010000
00000000
,
00001000
00010000
00001000
00010000
00001000
00000000
00000110
00000000
,
00000001
00000010
00000100
00001000
00000001
00000000
00000100
00000000
,
00001000
00010000
00001000
00000000
00010000
01000000
00100000
00000000
,
01100000
00011000
00001100
00000000
,
00000001
00001000
00000100
00002000
00000010
00000000
00003100
00000000
,
00000000
00000001
00000010
00000002
00000010
00000000
00001003
00000000
,
00000000
00000001
00000100
00001000
00010000
00000000
00010000
01000000
,
00100000
00010000
01000000
00010000
00000000
00000000
01000000
00000000
,
00010000
10000000
01000000
00200000
00001000
00000000
00301000
00000000
,
00000000
00010000
00001000
00020000
00001000
00000000
00030100
00000000
,
00000000
00001000
00000100
00000010
00000001
00000000
00000001
00000100
,
00000010
00001000
00000100
00010000
00000000
00000000
00001000
00000000
,
00010000
00000000
00100000
10000000
00100000
00010000
00100000
00000000
,
10000000
00000000
01000000
00010000
00001000
00000100
00000001
00000000
,
00000202
00000000
00000000
00000000
,
00000000
00000000
00000000
00000303
,
00000000
00000000
00000000
00000000
;
#NOTES:
     dance-double:
     :
     Hard:
     13:
     :
00000000
00000000
00000000
00000000
,
00000000
00000000
00000000
00000000
,
00000000
00000000
00000000
00000000
,
00000000
00000000
00000000
00000000
,
00000000
00000000
00000000
00000000
,
00000000
00000000
00000000
00000000
,
10000000
00000000
01000000
00000000
00100000
00000000
00010000
00000000
01000000
00000000
00100000
01000000
00000000
00010000
10000000
00000000
,
00010000
00000000
00100000
00000000
00001000
00000000
00010000
00000000
00000100
00000000
00010000
00001000
00000000
00010000
00001000
00000000
,
00000100
00000000
00000001
00000000
00000001
00000000
00001000
00000000
00000100
00000000
00000010
00001000
00000000
00010000
00001000
00000000
,
00011000
00000000
00000000
00000000
00001010
00000000
00000000
00000000
00000010
00001000
00000010
00000000
00010000
00001000
00010000
00000000
,
00001000
00000000
00000100
00000000
00000010
00000000
00001000
00000000
00000100
00000000
00000010
00000100
00000000
00001000
00000001
00000000
,
00001000
00000000
00000100
00000000
00010000
00000000
00000100
00000000
00010000
00000000
00001000
00100000
00000000
00001000
00100000
00000000
,
01000000
00000000
10000000
00000000
10000000
00000000
00010000
00000000
01000000
00000000
00100000
00010000
00000000
00001000
00010000
00000000
,
00001100
00000000
00000000
00000000
00000011
00000000
00000000
00000110
00000000
00000000
00000000
00000000
00000000
00000000
00000000
00000000
,
00000100
00000000
00000010
00000000
00001000
00000000
00010000
00000000
01000000
10000000
00000000
10000000
00000000
00000000
00100000
00000000
,
01000000
00010000
10000000
01000000
00010000
00000000
00011000
00000000
,
00000010
00000000
00000001
00000000
00000001
00000000
00001000
00000100
00001000
00000100
00000000
00010000
00000000
00000000
00001000
00000000
,
00000100
00000000
00001000
00010000
00000000
00001000
00000000
00022000
00000000
00000000
00000000
00000000
00000000
00000000
00033000
00000000
,
00000100
00000000
00000010
00000000
00001000
00000000
00000100
00000000
00001000
00000001
00000000
00000001
00000000
00000000
00000010
00000000
,
00000100
00001000
00000001
00000100
00001000
00000000
00011000
00000000
,
00100000
00000000
10000000
00000000
10000000
00000000
00010000
01000000
00010000
01000000
00000000
00001000
00000000
00000000
00010000
00000000
,
01000000
00000000
00010000
00001000
00000000
00010000
00000000
00011000
00000000
00000000
01000000
00000000
01000000
00000000
00000000
00000000
,
10000000
01000000
10000000
01000000
10000000
00000000
00010000
10000000
00000000
01000000
00000000
00100000
00000000
00000000
01000000
10000000
,
01000000
00000000
00100000
00001000
00000000
00010000
00000000
00000100
00000000
00010000
00001000
00010000
00000000
00000000
00000000
00000000
,
00001000
00010000
00001000
00010000
00001000
00000000
00000010
00000001
00000000
00001000
00000100
00001000
00000000
00000000
00000100
00001000
,
00000100
00000000
00000010
00000100
00000000
00010000
00000000
00001000
00000000
00000000
00000000
00000000
00000010
00000000
00000000
00000000
,
00000001
00000100
00000001
00000100
00000001
00000000
00001000
00000001
00000000
00000100
00000000
00000010
00000000
00000000
00000100
00000001
,
00000100
00000000
00000010
00010000
00000000
00001000
00000000
01000000
00000000
00001000
00010000
00001000
00000000
00000000
00000000
00000000
,
00110000
00011000
00001100
00000110
,
00000010
00000000
00000100
00000001
00000000
00000100
00000000
00000000
00000001
00000000
00000010
00000000
00001000
00000000
00000000
00000000
,
00012000
00000000
00000000
00000000
01003000
00000000
00000000
00000000
00100000
00000000
10000000
01000000
00000000
00100000
00010000
00000000
,
01000000
00000000
00001000
00000000
00010000
00000000
00000100
00000000
00001000
00000000
00000010
00000100
00000000
00000000
00000001
00000000
,
00000010
00000000
00000001
00000100
00000000
00000010
00000000
00000010
00000000
00000010
00000000
00000010
00000000
00000000
00000010
00000000
,
00001000
00000001
00000100
00001000
00000000
00010000
00001000
00000000
,
00021000
00000000
00000000
00000000
00030100
00000000
00000000
00000000
00001000
00010000
00000000
00001000
00000000
00000000
01000000
00000000
,
00010000
00000000
00100000
00000000
01000000
00000000
10000000
00000000
10000000
00000000
00100000
00010000
00000000
00000000
00010000
00000000
,
00100000
00000000
10000000
01000000
00000000
00100000
00000000
00001000
00000000
00010000
00000000
00000010
00000000
00000000
00000100
00000000
,
00000010
00001000
00000100
00010000
00000000
00001000
00100000
00000000
,
00000000
00000000
00100000
00000000
01000000
00000000
10000000
00000000
00010000
00000000
01000000
00100000
00000000
10000000
01000000
00000000
,
00000000
00000000
10000000
00000000
00010000
00000000
01000000
00000000
00001000
00000000
00010000
00001000
00000000
00000100
00000010
00000000
,
00000000
00000000
00000100
00000000
00000010
00000000
00001000
00000000
00000100
00000000
00000010
00001000
00000000
00000000
00010000
00000000
,
00001000
00000000
00010000
00000000
00100000
00000000
10000000
00000000
01000000
00100000
01000000
00000000
10000000
00000000
01000000
00000000
,
00010000
00000000
00001000
00000000
00000100
00000000
00000001
00000000
00001000
00000000
00000100
00000010
00000000
00000001
00000100
00000000
,
00000000
00000000
00000010
00000000
00010000
00000000
00000100
00000000
00001000
00000000
00000100
00010000
00000000
00000000
00001000
00000000
,
00010000
01000000
00100000
00010000
00110000
00000000
00011000
00000000
,
00010000
00001000
00000100
00001000
00010000
00000000
00000000
00000000
,
00100000
10000000
00100000
00000000
01000000
00000000
00001000
00100000
00001000
00000000
00010000
00000000
00000100
00000000
00000000
00000010
,
00000001
00000000
00000000
00000000
00000000
00000000
00000010
00000000
00000000
00000000
00000000
00000000
00001000
00000000
00000000
00000010
00000000
00000000
00000000
00000000
00000000
00000001
00000000
00000000
00000100
00000000
00000000
00000000
00000001
00000000
00000000
00000000
00000100
00000000
00000000
00000000
00001000
00000000
00000000
00000000
00010000
00000000
00000000
00000000
01000000
00000000
00000000
00000000
,
22000000
00000000
00000000
00000000
,
00000000
00000000
00000000
33000000
,
00000000
00000000
00000000
00000000
;
