
//----- song ID: hapk -----//
#TITLE:ハピ恋☆らぶりぃタイム!!;
#ARTIST:DJ TOTTO feat.anporin;
#TITLETRANSLIT:Happy koi☆lovely time!!;
#BANNER:Happy koi lovely time!!.png;
#BACKGROUND:Happy koi lovely time!!-bg.png;
#CDTITLE:./CDTitles/REFLEC BEAT groovin'!!.png;
#MUSIC:Happy koi lovely time!!.ogg;
#SAMPLESTART:64.528;
#SAMPLELENGTH:15;
#BPMS:0=139;
#NOTES:
     dance-single:
     :
     Beginner:
     2:
     :
0000
0000
0000
0000
,
0000
0000
0000
0000
,
0000
0000
0000
0000
,
0000
0000
0000
0000
,
1000
0000
0001
0000
,
0100
0000
0000
0000
,
0001
0000
1000
0000
,
0001
0000
0001
0000
,
1000
0000
0001
0000
,
1000
0000
1000
0000
,
1000
0000
0001
0000
,
1000
0000
1000
0000
,
0010
0010
0010
0000
,
1001
0000
0000
0000
,
0001
0000
0000
0000
,
1000
0000
0000
0000
,
1000
0000
0000
0000
,
0001
0000
0000
0000
,
0100
0000
0010
0000
,
0100
0100
0100
0000
,
0001
0000
1000
0000
,
0100
0000
0000
0000
,
1000
0000
1000
0000
,
0001
0001
0001
0000
,
0001
0000
0000
0000
,
1000
1000
1000
0000
,
0001
0000
0000
0000
,
0010
0000
0000
0000
,
1000
0000
0001
0000
,
0001
0000
0000
0000
,
1000
0000
0000
0000
,
0100
0000
0000
0000
,
0001
0000
0000
0000
,
0100
0000
0000
0000
,
0010
0000
0000
0000
,
0100
0000
0000
0000
,
0010
0010
0010
0000
,
1001
0000
0000
0000
,
1000
0000
1000
0000
,
0010
0010
0010
0000
,
1000
0000
0001
0000
,
1000
0000
0100
0000
,
0001
0000
0100
0000
,
1000
0000
0100
0000
,
0000
1000
0000
0001
,
0001
0001
0001
0001
,
0001
0000
0100
0000
,
0010
0000
0100
0000
,
1000
1000
1000
0000
,
0001
0000
0100
0000
,
1000
0000
0100
0000
,
0001
0000
0100
0000
,
0010
0010
0010
0000
,
0010
0000
1000
0000
,
1000
0000
0001
0000
,
1000
0000
1000
0000
,
0010
0000
0100
0000
,
0001
0000
0010
0000
,
0001
0000
0000
0000
,
0001
0000
0001
0000
,
1000
1000
1000
0000
,
1000
0000
0001
0000
,
0200
0000
0000
0000
,
0000
0000
0000
0300
,
0000
0000
0000
0000
;
#NOTES:
     dance-single:
     :
     Easy:
     5:
     :
0000
0000
0000
0000
,
0000
0000
0000
0000
,
0000
0000
0000
0000
,
0000
0000
0000
0000
,
1000
0000
0001
0000
,
0200
0000
0000
0300
,
0001
0010
1000
0010
,
0001
0000
0001
0000
,
1000
0100
0001
0100
,
1000
0000
1000
0000
,
1000
0010
0001
0010
,
1000
0000
1000
0000
,
0001
1000
0001
1000
,
1001
0000
0000
0000
,
0001
0010
0001
1000
,
0000
1000
0000
1000
,
1000
0001
0100
0001
,
0000
0001
0000
0001
,
1000
1000
0001
0001
,
1000
0001
0100
0000
,
0002
0103
2000
3100
,
0100
0000
0100
0100
,
1000
0010
1000
0001
,
0000
0001
0000
0001
,
0001
1000
0100
1000
,
0000
1000
0000
1000
,
0001
0010
0100
1000
,
1000
0100
0010
0001
,
2000
3010
0002
0013
,
0100
0000
0100
0100
,
2000
0000
0000
3000
,
0200
0000
0000
0300
,
0002
0000
0000
0003
,
0200
0000
0000
0300
,
2002
0000
0000
3003
,
0220
0000
0000
0330
,
0010
0010
0100
0100
,
1001
0000
0000
0000
,
1000
0100
1000
0001
,
0010
0010
0100
0100
,
1000
1000
0001
0001
,
1000
0000
0100
0000
,
0001
0000
0100
0000
,
1000
0000
0100
0000
,
1000
1000
0001
0001
,
0010
0001
0100
1000
,
0100
0000
0100
0000
,
0010
0010
0100
0100
,
0010
1000
0100
0001
,
0001
0000
0100
0000
,
1000
0000
0100
0000
,
0001
0000
0100
0000
,
0010
0001
0100
1000
,
0010
0000
1001
0000
,
1000
0010
0001
0010
,
1000
0000
1000
0000
,
0001
0100
1000
0100
,
0001
0000
0001
0000
,
0001
0010
1000
0010
,
0001
0000
0001
0000
,
1000
0001
1000
0001
,
1000
1000
0000
0001
,
0200
0000
0000
0000
,
0000
0000
0000
0300
,
0000
0000
0000
0000
;
#NOTES:
     dance-single:
     :
     Medium:
     8:
     :
0000
0000
0000
0000
,
0000
0000
0000
0000
,
0000
0000
0000
0000
,
0000
0000
0000
0000
,
1000
0000
0000
0001
0000
0000
2000
0000
,
0000
0000
0000
3000
,
0001
0000
0010
0000
1000
0010
0001
0000
,
0001
0000
0100
0000
1000
0100
0001
0000
,
0001
0000
0101
0000
0001
0100
0010
0000
,
0100
0010
1000
0000
0001
0100
0001
0000
,
1000
0000
0010
0000
0001
0010
1000
0000
,
1000
0000
0100
0000
0001
0100
1000
0000
,
1000
0100
1000
0000
0001
0100
0001
0000
,
1002
0000
0103
0000
,
0001
0010
0001
0000
1000
0000
0100
0000
,
1000
0000
0100
0000
0001
0100
1000
0000
,
1000
0010
1000
0000
0001
0000
0100
0000
,
0001
0000
0100
0000
1000
0100
0001
0000
,
1000
0000
0100
0000
0001
0100
0001
0000
,
0100
1000
0100
0000
1000
0000
0001
0000
,
1000
0100
0001
0010
,
1001
0000
0100
0100
,
1000
0100
1000
0000
0001
0000
0010
0000
,
0001
0000
0010
0000
1000
0010
0001
0000
,
0001
0100
0001
0000
1000
0000
0010
0000
,
1000
0000
0010
0000
0001
0010
1000
0000
,
0001
0000
1000
0000
0001
0010
0001
0000
,
0010
0100
0010
0000
1000
0100
1000
0000
,
0001
0000
0010
0001
0000
0001
0100
1000
,
0000
1000
0100
0000
0010
0000
1000
0000
,
2200
0000
0000
3000
,
0002
0000
0000
0300
,
0200
0000
0000
0003
,
2000
0000
0000
3300
,
0012
0010
0010
0013
,
1200
1000
1000
1300
,
1000
0101
0001
1100
,
1001
0000
0000
0000
,
1000
0001
0100
0000
0101
0000
1100
0000
,
0010
0100
0010
0000
0100
0010
0100
0000
,
1000
0000
1000
0000
0001
0010
0001
0000
,
1000
0000
0000
0000
1000
0010
0100
0000
,
0001
0000
1000
0000
0001
0010
0100
0000
,
1000
0100
0010
0001
,
1000
1100
0001
0011
,
0010
0000
0001
0000
0100
1000
0100
0000
,
0001
1000
0100
0000
1100
0000
0101
0000
,
0010
0100
0010
0000
0100
0010
0100
0000
,
0010
0001
0100
1000
,
1001
0000
0000
0000
0001
0010
0100
0000
,
1000
0000
0001
0000
1000
0010
0100
0000
,
0001
0100
0010
1000
,
0001
0010
0001
0000
1000
0100
0000
1000
,
0100
1000
0000
0001
0100
0001
0100
0000
,
0001
0000
0100
0000
1000
0100
0001
0000
,
0001
0000
0010
0000
1000
0010
0001
0000
,
0001
0000
0011
0000
0001
0010
0100
0000
,
0010
0100
1000
0000
0001
0010
0001
0000
,
1000
0000
0100
0000
0001
0100
1000
0000
,
1000
0000
0010
0000
0001
0010
1000
0000
,
1000
0010
1000
0000
0001
0010
0001
0000
,
1000
0001
1000
0001
0010
0000
0100
0000
,
0220
0000
0000
0000
,
0000
0000
0000
0330
,
0000
0000
0000
0000
;
#NOTES:
     dance-single:
     :
     Hard:
     11:
     :
0000
0000
0000
0000
,
0000
0000
0000
0000
,
0000
0000
0000
0000
,
0000
0000
0000
0000
,
1000
0000
0000
0001
0000
0000
1000
0000
,
0000
0000
0000
0000
1001
1000
0001
0100
,
0001
0000
1000
0100
1000
0100
0001
0000
,
0001
0100
1000
0010
1000
0100
0010
0001
,
0010
0000
0001
0010
1000
0010
0001
0100
,
1000
0100
0001
0010
0001
0100
0001
0000
,
1000
0000
0001
0100
0001
0100
1000
0000
,
1000
0100
0001
0010
0001
0100
0010
1000
,
0001
0010
0100
1000
0100
0010
0001
0100
,
0010
0100
0001
0010
0001
0100
0001
0000
,
0001
0010
0001
0000
1000
0100
0000
0100
,
1000
0100
0010
0001
0010
0100
1000
0100
,
1000
0010
1000
0000
0001
0010
0000
0010
,
0001
0010
0100
1000
0100
1000
0001
0010
,
0001
0000
0110
0000
0001
0100
0001
0010
,
0100
1000
0100
0000
1000
0100
0010
0100
,
1000
0100
1000
0200
0000
0000
0300
0001
,
0100
1000
0010
1000
0100
0001
0100
0000
,
1000
0010
1000
0000
0001
0100
0000
0100
,
0001
0100
0010
1000
0010
0100
0001
0100
,
0001
0010
0001
0000
1000
0010
0000
0010
,
1000
0010
0100
0001
0100
0001
1000
0010
,
1000
0000
0110
0000
0010
1000
0010
0001
,
0000
0010
1000
0100
0000
0001
0100
0001
,
0000
0000
0100
1000
0000
0010
0000
0001
,
0000
0001
0010
0001
0010
1000
0001
0000
,
0022
0000
0000
0000
0000
0000
0000
0030
,
0200
0000
0000
0000
0000
0000
0000
0003
,
2000
0000
0000
0000
0000
0000
0000
0300
,
0020
0000
0000
0000
0000
3030
0010
1000
,
1010
0000
0000
0000
0000
0000
0010
0000
0100
0000
0000
0001
0000
0000
0010
0000
,
0021
1000
0001
1030
,
0001
0100
0010
0000
0100
1000
0100
0000
,
1001
0000
0000
0100
1000
0100
0010
0001
,
1000
0001
0100
0000
0100
0001
0100
1000
,
0100
0010
0001
0000
0010
1000
0100
0000
,
0010
1000
0010
0000
0001
0100
0010
1000
,
0100
1000
0010
0100
0001
0010
0100
0010
,
0001
0000
1000
0000
1000
0010
0001
0010
,
0100
1000
0100
0000
0010
0100
0001
0100
,
1000
0101
0001
1100
,
1000
0100
0010
0001
0100
0010
1000
0100
,
1000
0010
1000
0100
0001
0100
0010
0100
,
1000
0100
0010
0001
0010
0100
0010
0100
,
1000
0010
0001
0000
0110
0000
1001
0000
,
0001
0010
0100
1000
0100
1000
0010
0001
,
0010
1000
0010
0100
0001
0100
0001
0010
,
0100
1000
0100
0000
0001
0100
0010
1000
,
0100
0010
0001
0100
0010
0001
0000
0010
,
0100
0001
1000
0100
0000
0110
0110
0000
,
1000
0000
0001
0100
0001
0100
1000
0000
,
1000
0100
0001
0010
0001
0100
0010
1000
,
0010
0000
1000
0010
0001
0010
1000
0100
,
0001
0100
1000
0010
1000
0100
1000
0000
,
0001
0000
1000
0100
1000
0100
0001
0000
,
0001
0100
1000
0010
1000
0100
0010
0001
,
1000
0010
0100
0001
0100
0010
1000
0100
,
0000
1000
0100
0001
0010
0000
0001
0100
,
2200
0000
0000
0000
,
0000
0000
0000
3300
,
0000
0000
0000
0000
;
#NOTES:
     dance-double:
     :
     Easy:
     5:
     :
00000000
00000000
00000000
00000000
,
00000000
00000000
00000000
00000000
,
00000000
00000000
00000000
00000000
,
00000000
00000000
00000000
00000000
,
00000001
00000000
00000100
00000000
,
00002000
00000000
00000000
00003000
,
00010000
00100000
10000000
00100000
,
10000000
00000000
01000000
00000000
,
00010000
00001000
00000010
00000001
,
00000010
00000000
00000001
00000000
,
00001000
00000010
00000001
00000010
,
00001000
00000000
00000010
00000000
,
00010000
00001000
00100000
00010000
,
10000000
00000000
10000000
00000000
,
00010000
00100000
00010000
10000000
,
00000000
01000000
00000000
00010000
,
00001000
00010000
00001000
00000100
,
00000000
00000001
00000000
00000001
,
00000010
00000010
00001000
00001000
,
00010000
00010000
01000000
00000000
,
10000000
01000000
00010000
00001000
,
00000010
00000000
00000001
00001000
,
00001000
00000010
00001000
00000001
,
00000000
00000100
00000000
00001000
,
00010000
00001000
00010000
01000000
,
00000000
10000000
00000000
10000000
,
00100000
00100000
00010000
00010000
,
00001000
00001000
00000100
00000000
,
00000002
00000103
00002000
00003100
,
00000100
00000000
00001000
00000001
,
00000002
00000000
00000000
00000003
,
00000020
00000000
00000000
00000030
,
00002000
00000000
00000000
00003000
,
00020000
00000000
00000000
00030000
,
00022000
00033000
00000000
00000000
,
02200000
00000000
00000000
03300000
,
10000000
00100000
00010000
00001000
,
00000110
00000000
00000000
00000000
,
00001000
00000100
00001000
00000001
,
00000010
00000010
00001000
00001000
,
00010000
00010000
00100000
00100000
,
10000000
00000000
01000000
00000000
,
00010000
00000000
00001000
00000000
,
00000100
00000000
00000001
00000000
,
00000001
00000100
00001000
00010000
,
00100000
01000000
00010000
00000000
,
00010000
01000000
00010000
10000000
,
00100000
00100000
00010000
00010000
,
00001000
00001000
00000010
00000010
,
00000001
00000000
00000100
00000000
,
00001000
00000000
00010000
00000000
,
01000000
00000000
10000000
00000000
,
10000000
01000000
00010000
00001000
,
00010000
00001000
00010000
00011000
,
00001000
00000010
00000001
00000010
,
00000001
00000000
00000100
00000000
,
00001000
00010000
00100000
10000000
,
00100000
00000000
10000000
00000000
,
00010000
00100000
10000000
00100000
,
00010000
00000000
00100000
00000000
,
00001000
00010000
00000010
00001000
,
00000001
00000010
00000100
00001000
,
00000020
00000000
00000000
00000000
,
00000000
00000000
00000000
00000030
,
00000000
00000000
00000000
00000000
;
#NOTES:
     dance-double:
     :
     Medium:
     8:
     :
00000000
00000000
00000000
00000000
,
00000000
00000000
00000000
00000000
,
00000000
00000000
00000000
00000000
,
00000000
00000000
00000000
00000000
,
00001000
00000000
00000000
00010000
00000000
00000000
00002000
00000000
,
00000000
00000000
00000000
00003000
,
00010000
00000000
00100000
00000000
10000000
00100000
00010000
00000000
,
00010000
00000000
00100000
00000000
10000000
01000000
00010000
00000000
,
00001000
00000000
00000100
00000000
00000001
00000100
00000010
00000000
,
00000100
00001000
00010000
00000000
00010000
00100000
10000000
00000000
,
01000000
00010000
00001000
00000100
,
00001000
00000000
00000100
00000000
00000010
00000100
00001000
00000000
,
00010000
00000000
01000000
00000000
10000000
01000000
00100000
00000000
,
01000000
00100000
00010000
00000000
10000000
01000000
00010000
00000000
,
00010000
00001000
00000100
00000000
00000001
00000000
00000100
00000000
,
00000001
00000000
00000100
00000000
00001000
00010000
00100000
00000000
,
10000000
00100000
10000000
00000000
00010000
00000000
01000000
00000000
,
00010000
00000000
10000000
00000000
10000000
01000000
00010000
00000000
,
00001000
00000000
00000100
00000000
00000001
00000100
00000001
00000000
,
00000100
00001000
00000100
00000000
00000100
00000000
00000010
00000000
,
00000100
00001000
00010000
00100000
,
10000000
00000000
01000000
00010000
,
00001000
00010000
01000000
00000000
10000000
00000000
01000000
00000000
,
10000000
00000000
01000000
00000000
00010000
00001000
00000010
00000000
,
00000001
00000010
00000001
00000000
00001000
00000000
00000100
00000000
,
00001000
00000000
00000001
00000000
00000001
00000100
00001000
00000000
,
00010000
00000000
01000000
00000000
10000000
01000000
10000000
00000000
,
01000000
00010000
01000000
00000000
01000000
00000000
00100000
00000000
,
01000000
00010000
00001000
00000010
,
00000001
00000010
00000001
00000100
,
00002000
00000000
00000100
00000000
,
00023000
00000000
00100000
00000000
,
02030000
00000000
00000000
00000000
,
20000000
00000000
00000000
33000000
,
10000000
00100000
00010000
00001000
,
00000200
00000001
00000001
00000301
,
00000001
00000110
00001000
00011000
,
00011000
00000000
00000000
00000000
,
00001000
00010000
00100000
00000000
10100000
00000000
11000000
00000000
,
01000000
00010000
00001000
00000000
00001000
00000100
00000010
00000000
,
00001000
00000000
00000010
00000000
00000100
00001000
00010000
00000000
,
00100000
00000000
01000000
00000000
10000000
01000000
00100000
00000000
,
00010000
00000000
00001000
00000000
00000010
00000100
00000001
00000000
,
00000100
00001000
00000100
00010000
,
00001000
00011000
00100000
10100000
,
10000000
00100000
00010000
00001000
,
00010000
00001000
00000010
00000000
00000011
00000000
00000101
00000000
,
00000100
00001000
00010000
00000000
00010000
01000000
00100000
00000000
,
00010000
00000000
00100000
00000000
01000000
00010000
00001000
00000000
,
00000010
00000000
00000100
00000000
00000001
00000100
00000010
00000000
,
00001000
00000000
00010000
00000000
01000000
00100000
00010000
00000000
,
00100000
00010000
00100000
10000000
,
00100000
01000000
00010000
00000000
00001000
00010000
00000000
00001000
,
00010000
00001000
00000000
00001000
00000000
00010000
00001000
00000000
,
00001000
00000000
00000010
00000000
00000001
00000010
00001000
00000000
,
00001000
00000000
00000010
00000000
00000001
00000100
00001000
00000000
,
00010000
00000000
01000000
00000000
10000000
01000000
00100000
00000000
,
01000000
00010000
00001000
00000000
00001000
00000010
00000001
00000000
,
00000100
00001000
00010000
00100000
,
10000000
00000000
01000000
00000000
00100000
01000000
00010000
00000000
,
00001000
00000000
00000100
00000000
00000001
00000100
00000010
00000100
,
00000000
00000010
00000001
00000010
00000000
00000100
00001000
00000000
,
00022000
00000000
00000000
00000000
,
00000000
00000000
00000000
00033000
,
00000000
00000000
00000000
00000000
;
#NOTES:
     dance-double:
     :
     Hard:
     11:
     :
00000000
00000000
00000000
00000000
,
00000000
00000000
00000000
00000000
,
00000000
00000000
00000000
00000000
,
00000000
00000000
00000000
00000000
,
00001000
00000000
00000000
00000001
00000000
00000000
00001000
00000000
,
00000000
00000000
00000000
00000000
00000001
00001000
00000001
00000100
,
00001000
00000000
00010000
01000000
10000000
01000000
00010000
00000000
,
00010000
01000000
10000000
00100000
10000000
01000000
00010000
00001000
,
00000010
00000000
00000001
00000010
00001000
00000010
00000001
00000100
,
00001000
00000100
00000001
00000010
00000001
00000100
00001000
00000000
,
00010000
00000000
00001000
00010000
00100000
01000000
10000000
00000000
,
10000000
01000000
00010000
00100000
00010000
01000000
00100000
10000000
,
01000000
00010000
00001000
00010000
00000100
00000010
00000001
00000100
,
00000010
00000100
00000001
00000010
00000001
00000100
00001000
00000000
,
00010000
00100000
10000000
00000000
10000000
01000000
00000000
01000000
,
10000000
01000000
00100000
00010000
00100000
01000000
10000000
01000000
,
00010000
00001000
00000010
00000000
00000001
00000010
00000000
00000010
,
00000001
00000010
00000100
00001000
00000100
00010000
00001000
00100000
,
00010000
00000000
00110000
00000000
10000000
01000000
10000000
00100000
,
01000000
10000000
01000000
00000000
10000000
01000000
00100000
01000000
,
00100000
00010000
00001000
00020000
00000000
00000000
00030000
00001000
,
00000100
00001000
00000100
00000010
00000100
00001000
00010000
00000000
,
00001000
00000100
00000001
00000000
00000001
00000010
00000000
00000010
,
00000001
00000010
00000100
00001000
00000100
00000010
00000001
00000010
,
00001000
00010000
01000000
00000000
10000000
01000000
00000000
01000000
,
10000000
01000000
00100000
00010000
00100000
00001000
00010000
00000100
,
00001000
00000000
00000110
00000000
00000010
00000001
00000010
00001000
,
00000000
00000010
00000001
00000100
00000000
00001000
00000100
00001000
,
00000000
00000000
00000100
00001000
00000000
00010000
00000000
00100000
,
00000000
01000000
00100000
01000000
00100000
10000000
00100000
00000000
,
00020000
00001000
00000000
01000000
,
00002000
00030000
00000010
00000000
,
00010000
00000000
00000000
00003000
,
00000220
00000000
00000000
00000000
00000330
00000000
00001000
00010000
,
01100000
00000000
00000000
00000000
00000000
00000000
00100000
00000000
01000000
00000000
00000000
00010000
00000000
00000000
00100000
00000000
,
00210000
10000000
00010000
10300000
,
00100000
01000000
00010000
00000000
00001000
00000010
00000100
00000000
,
00001001
00000000
00000000
00000100
00000001
00000100
00000010
00000100
,
00001000
00010000
00100000
00000000
01000000
00010000
01000000
10000000
,
01000000
00100000
00010000
00000000
00100000
10000000
01000000
00000000
,
00010000
00001000
00000010
00000000
00000001
00000100
00000010
00001000
,
00000100
00001000
00000010
00000100
00000001
00000100
00001000
00010000
,
00001000
00000000
00010000
00000000
00010000
00100000
00010000
00100000
,
01000000
10000000
01000000
00000000
00100000
01000000
00010000
01000000
,
00001000
00011000
00000100
00000110
,
00001000
00000100
00000010
00000001
00000100
00000010
00001000
00000100
,
00010000
00001000
00010000
01000000
00010000
01000000
00100000
01000000
,
10000000
01000000
00100000
00010000
00100000
00001000
00100000
00001000
,
00010000
00000100
00000110
00001001
,
00000001
00000010
00000100
00001000
00000100
00000001
00000100
00000010
,
00001000
00010000
00100000
01000000
00010000
01000000
00010000
00100000
,
01000000
10000000
01000000
00000000
00100000
10000000
00100000
01000000
,
00010000
00001000
00000100
00000010
00000001
00000010
00000000
00000010
,
00000100
00001000
00010000
00100000
00000000
00010000
00001000
00000000
,
00010000
00000000
00001000
00000100
00000001
00000100
00001000
00000000
,
00001000
00000100
00000001
00000010
00000001
00000100
00001000
00010000
,
00100000
00000000
10000000
00100000
00010000
00100000
10000000
01000000
,
00010000
01000000
10000000
00100000
10000000
01000000
00010000
00000000
,
00001000
00000000
00010000
00001000
00000010
00000100
00000001
00000000
,
00000001
00000100
00001000
00000010
00001000
00000100
00000010
00000001
,
00000100
00001000
00010000
00100000
01000000
00100000
10000000
01000000
,
00000000
10000000
01000000
00010000
00100000
00000000
00010000
01000000
,
00200000
00000000
00000000
00000000
,
00000000
00000000
00000000
00300000
,
00000000
00000000
00000000
00000000
;
