
//----- song ID: hall -----//
#TITLE:Ha・lle・lu・jah;
#ARTIST:SOUND HOLIC feat. Nana Takahashi;
#TITLETRANSLIT:Hallelujah;
#BANNER:Ha-lle-lu-jah.png;
#BACKGROUND:Ha-lle-lu-jah-bg.png;
#CDTITLE:./CDTitles/SOUND VOLTEX BOOTH.png;
#MUSIC:Ha-lle-lu-jah.ogg;
#SAMPLESTART:61.578;
#SAMPLELENGTH:15;
#BPMS:0=150;
#NOTES:
     dance-single:
     :
     Beginner:
     2:
     :
0000
0000
0000
0000
,
0000
0000
0000
0000
,
0000
0000
0000
0000
,
0000
0000
0000
0000
,
0000
0000
0000
0000
,
0000
0000
0000
0000
,
0001
0000
0000
0000
,
0010
0000
0000
0000
,
0100
0000
0000
0000
,
1000
0000
1000
0000
,
1000
0000
0000
0000
,
0010
0000
0000
0000
,
0100
0000
0000
0000
,
0001
0000
0001
0000
,
0001
0000
0000
0000
,
0100
0000
0000
0000
,
0010
0000
0000
0000
,
1000
0000
0000
0000
,
0100
0000
0000
0000
,
0010
0000
0000
0000
,
0001
0000
0100
0000
,
0010
0000
0000
0000
,
1000
0000
0000
0000
,
0100
0000
0000
0000
,
0010
0000
0000
0000
,
0001
0000
0000
0000
,
0100
0000
0000
0000
,
0010
0000
0000
0000
,
1000
0000
0100
0000
,
0010
0000
0000
0000
,
0001
0000
0100
0000
,
0100
0000
0000
0000
,
1000
0000
0010
0000
,
0010
0000
0000
0000
,
1001
0000
0000
0000
,
1001
0000
0000
0000
,
0010
0000
0000
0000
,
0100
0000
0000
0000
,
0000
0000
0001
0000
,
0000
0000
0100
0000
,
0000
0000
0010
0000
,
0000
0000
1000
0000
,
1000
0000
1000
0000
,
0000
0000
0100
0000
,
0000
0000
0010
0000
,
0000
0000
0001
0000
,
0001
0000
0100
0000
,
0000
0000
0010
0000
,
0000
0000
1000
0000
,
0000
0000
0001
0000
,
0000
0000
0100
0000
,
0000
0000
0010
0000
,
0000
0000
0001
0000
,
0000
0000
1000
0000
,
0000
0000
0001
0000
,
0000
0000
0100
0000
,
0000
0000
0010
0000
,
0000
0000
1000
0000
,
1000
0000
1000
0000
,
0000
0000
0100
0000
,
0000
0000
0010
0000
,
0000
0000
0001
0000
,
0001
0000
0100
0000
,
0000
0000
0010
0000
,
0000
0000
1001
0000
,
0000
0000
0000
0000
;
#NOTES:
     dance-single:
     :
     Easy:
     5:
     :
0000
0000
0000
0000
,
0000
0000
0000
0000
,
0000
0000
0000
0000
,
0000
0000
0000
0000
,
0000
0000
0000
0000
,
0000
0000
0000
0000
,
0001
0001
0100
0000
,
0010
0010
1000
0000
,
0100
0100
0010
0000
,
0001
0001
1000
1000
,
1000
0100
1000
0000
,
0001
0000
1000
0000
,
0100
0010
0100
0010
,
0001
0000
0001
0000
,
0010
0010
0100
0100
,
1000
1000
1000
0000
,
0010
0000
0100
0000
,
0001
0000
1000
0000
,
0010
0010
0100
0100
,
0001
0001
0001
0000
,
0001
0100
1000
0100
,
0001
0000
0001
0000
,
0100
0000
0010
0000
,
1000
1000
0100
0000
,
0010
0000
0001
0000
,
0100
0010
0100
0000
,
0100
0000
0010
0000
,
1000
1000
0100
0100
,
0010
0000
0001
0000
,
1001
0000
0000
0000
,
0100
0000
0010
0000
,
1000
0000
0000
0000
,
0100
0000
0010
0000
,
0001
0000
0000
0000
,
1001
0100
0100
0000
,
1001
0100
0100
0000
,
1000
0000
0001
0000
,
0100
0000
0000
0000
2002
0000
0000
3003
,
0000
0000
0001
0100
,
1000
0100
0001
0001
,
1000
1000
1000
0100
,
0001
0100
1000
0000
,
0100
0000
1000
0100
,
0001
0100
1000
1000
,
0001
0001
0001
0100
,
1000
0100
0001
0000
,
0001
0000
0100
0000
,
0010
0000
1000
0000
,
0200
0000
0001
0001
,
0310
0000
1000
1000
,
0001
0000
0001
0010
,
1000
0010
0001
0001
,
0020
0000
1000
1000
,
0130
0000
0001
0001
,
1000
0000
0001
0100
,
1000
0100
0001
0001
,
1000
1000
1000
0100
,
0001
0100
1000
0000
,
0001
0000
1000
0100
,
0001
0100
1000
1000
,
0001
0001
0001
0100
,
1000
0100
0001
0000
,
1001
0000
0100
0000
,
0010
0000
0001
0000
,
0100
0000
1001
0000
,
0000
0000
0000
0000
;
#NOTES:
     dance-single:
     :
     Medium:
     9:
     :
0000
0000
0000
0000
,
0000
0000
0000
0000
,
0000
0000
0000
0000
,
0000
0000
0000
0000
,
0000
0000
0000
0000
,
0000
0000
0000
0000
0001
0100
0001
0000
,
0010
0001
0100
0010
,
1000
0000
0100
0000
0010
0001
0100
0000
,
0001
1000
0100
0010
,
0001
0100
0010
0010
,
0010
1000
0100
0010
,
0001
0000
0100
0000
0010
1000
0100
0000
,
1000
0001
0100
0010
,
1000
0100
0010
0001
,
1000
0000
0100
0010
0001
0000
0100
0000
,
0001
0010
0100
0000
1100
0000
0101
0000
,
0100
0000
0010
1000
0000
0001
0000
1000
,
0000
0000
0100
0010
0000
0001
0000
0000
,
0001
0000
0100
0010
1000
0000
0100
0000
,
1000
0010
0100
0000
0001
0000
1000
0000
,
0100
0000
0010
0001
0000
1000
0000
1001
,
0000
0000
0000
0000
,
0010
0000
1000
0000
0100
0000
0000
0000
0010
0000
0000
0100
0000
0000
0000
0000
,
1000
0000
0100
0000
0010
0000
0000
0000
0001
0000
0000
1000
0000
0000
0000
0000
,
0100
0000
0010
0000
0001
0000
0000
0000
0100
0000
0000
0100
0000
0000
0000
0000
,
0001
0101
0100
1100
,
0010
0000
0001
0000
0100
0000
0000
0000
0010
0000
0000
0100
0000
0000
0000
0000
,
0001
0000
0100
0000
0010
0000
0000
0000
1000
0000
0000
0001
0000
0000
0000
0000
,
0100
0000
0010
0000
1000
0000
0000
0000
0100
0000
0000
0100
0000
0000
0000
0000
,
2000
0000
0100
0000
0100
0000
0100
3000
,
0002
0000
0010
0000
,
0103
0000
0000
1000
0100
0010
0001
0000
,
2000
0000
0010
0000
,
3100
0000
0000
0000
0000
0010
0001
0100
,
0010
0000
1000
0001
0000
0100
0010
1000
,
0001
0000
0000
0010
0000
0100
0000
1000
,
0001
0000
0000
0100
0010
0000
0000
1000
,
0001
0000
0000
0010
0100
0000
0000
0000
,
0000
0000
0000
0000
0001
1000
0100
0010
,
0001
0000
0100
0000
0010
1000
0010
0000
,
0100
0000
0001
0010
0000
0100
1000
0010
,
0100
0000
0101
0000
1000
0100
1000
0000
,
0110
0000
0000
0000
1000
0001
0100
0010
,
1000
0000
0100
0000
0010
0001
0010
0000
,
0100
0000
1000
0010
0000
0100
0001
0010
,
0100
1100
0011
0110
,
1001
0000
0001
0100
,
0010
0100
0001
0000
0100
0000
0010
0000
,
2000
0000
0000
0000
0010
0000
0001
3000
,
0100
0000
0000
0100
0000
0000
0000
0000
1000
0000
0000
0000
0010
0000
0000
0000
,
1000
0000
0000
0010
0000
0000
0000
0000
1000
0000
0000
0000
0100
0000
0000
0000
,
0010
0001
0100
0010
,
2000
0000
0000
0000
0010
0000
0001
3000
,
0100
0000
0000
0100
0000
0000
1000
0000
0001
0000
0000
0000
0010
0000
0000
0000
,
1001
0000
0000
0000
1000
0000
0100
0010
,
0001
0000
0100
0000
0010
1000
0010
0000
,
0100
0000
0001
0010
0000
0100
1000
0010
,
0100
0000
0001
1000
0000
0100
1000
0000
,
1001
0000
0000
0000
0001
0000
0100
0010
,
1000
0000
0100
0000
0010
0001
0010
0000
,
0100
0000
1000
0010
0000
0100
0001
0010
,
0100
0000
1000
0001
0000
0100
0001
0000
,
1001
0000
0001
0010
,
0100
1000
0001
0000
1000
0000
0010
0000
,
0100
0001
1000
1001
0000
0000
0000
0000
,
0000
0000
0000
0000
;
#NOTES:
     dance-single:
     :
     Hard:
     12:
     :
0000
0000
0000
0000
,
0000
0000
0000
0000
,
0000
0000
0000
0000
,
0000
0000
0000
0000
,
0000
0000
0000
0000
,
0000
0000
0000
0000
0000
0000
0000
0000
1000
0010
1000
0000
0001
0000
0000
0000
,
0100
0000
0010
0000
1000
0000
0000
0001
0000
0000
0010
0000
0100
0000
0000
0000
,
0010
0000
0100
0000
1000
0000
0000
0001
0000
0000
0100
0000
0010
0000
0000
0000
,
0010
0000
0100
0000
0010
0000
0000
1000
0000
0000
0001
0000
0100
0000
0000
0000
,
0001
0100
0010
0000
0110
0000
1001
0000
,
0100
0000
0010
0000
0001
0000
0000
1000
0000
0000
0010
0000
0100
0000
0000
0000
,
0010
0000
0100
0000
0001
0000
0000
1000
0000
0000
0100
0000
0010
0000
0000
0000
,
0010
0000
0100
0000
0010
0000
0000
0001
0000
0000
1000
0000
0100
0000
0000
0000
,
1000
0100
0010
0002
0000
0000
1003
0000
,
0001
1000
0010
0100
0001
0000
1000
0100
,
0010
0001
1000
0000
0100
0010
0001
0100
,
0010
0000
1000
0100
0000
1000
0000
1000
,
0000
0000
0010
1000
0000
0100
0000
0000
,
1000
0001
0010
0100
1000
0000
0001
0100
,
0010
1000
0001
0000
0100
0010
1000
0100
,
0010
0000
0001
0100
0000
1001
0000
2000
,
0010
0000
0001
0000
0100
3000
0000
0001
,
0100
0000
0010
0000
1000
0000
0100
0000
0010
0000
0000
0100
0000
0000
0100
0000
,
0001
0100
0010
1000
0100
0000
0000
0001
,
1000
0000
0010
0000
0100
0000
0001
0000
1000
0000
0000
1000
0000
0000
0100
0000
,
1000
0000
0000
0010
0000
0000
1000
0000
0100
0000
0000
1000
0000
0000
0010
0000
,
0100
0000
0010
0000
0001
0000
0010
0000
0100
0000
0000
0001
0000
0000
0001
0000
,
1000
0000
0100
0000
0010
0000
0001
0000
0100
0000
0000
0010
0000
0000
1000
0000
,
0001
0000
0000
0010
0000
0000
0100
0000
1000
0000
0000
0001
0000
0000
0100
0000
,
0010
0000
0000
1000
0001
0010
0100
1000
,
0002
0000
0100
0000
,
0013
0000
0000
0001
1000
0010
0100
0001
,
2000
0000
0100
0000
,
3010
0000
0000
0000
0000
1000
0100
0010
,
0100
0010
0000
0010
0000
0001
0100
0010
,
0000
1000
0000
1000
0100
0010
0001
0100
,
0001
0000
0000
0100
0110
0000
0000
0001
,
1001
0000
0000
1000
0000
0000
0100
0010
0001
0000
0000
0000
1001
0000
0000
0000
,
0000
0000
0000
0000
0001
0000
1100
1000
,
0100
0010
0001
0000
1000
0100
0010
0000
,
0001
0100
0001
1000
0000
0100
1000
0010
,
1000
0001
0100
0010
0000
1000
0001
0010
,
0100
0000
0000
0000
1000
0000
0101
0001
,
0100
0010
1000
0000
0001
0100
0010
0000
,
1000
0100
1000
0001
0000
0100
0010
0100
,
0001
1000
0100
0010
0000
0001
0100
1000
,
0100
0000
0000
0000
0001
0100
0010
1000
,
0100
0000
0010
0001
1000
0000
0010
0000
0100
0000
0000
0000
0001
0000
0000
0000
,
0200
0000
0000
0000
0310
0100
0001
0100
,
0001
0000
1000
0100
0000
0000
0010
0000
0001
0000
0100
0000
0010
0000
1000
0000
,
0001
0000
0000
1000
0000
0000
0000
0000
0010
0000
0100
0000
0010
0000
0001
0000
,
0100
0000
0010
1000
0001
0000
0010
0000
0100
0000
0000
0000
1000
0000
0000
0000
,
0001
0000
0001
0000
0010
0010
0001
0100
,
0001
0000
1000
0100
0000
0000
0010
0000
0001
0000
0100
0000
0010
0000
1000
0000
,
1001
0000
0001
0000
1000
0000
0101
0001
,
0100
0010
1000
0000
0001
0100
0010
0000
,
1000
0100
1000
0001
0000
0100
0001
0010
,
0001
1000
0100
0010
0000
0001
1000
0010
,
1000
0000
0000
0001
0010
0000
0001
0000
0100
0000
0000
0000
1100
0000
1000
0000
,
0100
0010
0001
0000
1000
0100
0010
0000
,
0001
0100
0001
1000
0000
0100
0010
0100
,
1000
0001
0100
0010
0000
1000
0100
0001
,
0100
0000
0000
0000
0000
0000
0000
0000
0100
0000
0010
0000
1000
0000
0000
0001
,
0000
0000
0010
0000
0100
0000
1000
0000
0010
0000
0100
0000
0001
0000
0000
1000
,
0000
0100
0010
0110
0000
0000
0000
0000
,
0000
0000
0000
0000
;
#NOTES:
     dance-double:
     :
     Easy:
     4:
     :
00000000
00000000
00000000
00000000
,
00000000
00000000
00000000
00000000
,
00000000
00000000
00000000
00000000
,
00000000
00000000
00000000
00000000
,
00000000
00000000
00000000
00000000
,
00001000
00000000
00010000
00000000
,
00100000
00000000
01000000
00000000
,
00010000
00000000
10000000
00000000
,
01000000
00000000
00100000
00000000
,
00001000
00000000
00010000
00000000
,
00000010
00000010
00000100
00000000
,
00000001
00000001
00000100
00000000
,
00001000
00001000
00010000
00000000
,
00001000
00000000
00010000
00000000
,
00100000
00000000
10000000
10000000
,
00000000
01000000
01000000
00000000
,
00010000
00000000
00001000
00000000
,
00000100
00000000
00000001
00000000
,
00000010
00000000
00000001
00000001
,
00000001
00000100
00000100
00000100
,
00001000
00000000
00010000
00000000
,
00011000
00000000
00000000
00000000
,
00010000
00000000
00100000
00000000
,
10000000
00000000
01000000
00000000
,
00010000
00001000
00010000
00000000
,
00010000
00001000
00000100
00000000
,
00000001
00000001
00000001
00000000
,
00000100
00000100
00001000
00000000
,
00020000
00000000
01000000
00000000
,
00031000
00000000
00000000
00000000
,
00011000
00000000
00000000
00000000
,
00011000
00000000
00010000
00000000
,
00001000
00000000
00000100
00000000
,
00000001
00000000
00000000
00000000
,
00001010
00000000
00000000
00000000
,
00011000
00000000
00000000
00000000
,
00100000
00000000
00001000
00000000
,
00000010
00000000
00001000
00000000
,
00010000
00000000
01000000
01000000
,
10000000
10000000
00100000
00000000
,
01000000
00000000
00001000
00000000
,
00020000
00000000
01000000
00000000
,
00031000
00000000
00000100
00000100
,
00000001
00000001
00000010
00000000
,
00000100
00000000
00010000
00000000
,
00001000
00000000
00010000
00001000
,
00010000
00000000
00100000
00000000
,
10000000
00000000
01000000
00000000
,
00020000
00000000
00001000
00001000
,
00030010
00000000
00000100
00000000
,
00000001
00000000
00000010
00000010
,
00000001
00000001
00000100
00000100
,
00002000
00000000
00010000
00013000
,
00100000
00100000
01000000
01000000
,
10000000
00000000
01000000
01000000
,
10000000
10000000
00100000
00100000
,
01000000
01000000
00001000
00001000
,
00020000
00000000
00001000
00001000
,
00031000
00000000
00000100
00000100
,
00000001
00000001
00000010
00000010
,
00000100
00000000
00010000
00000000
,
00002000
00000000
00010000
00010000
,
00023000
00000000
01000000
00000000
,
00032000
00000000
00000100
00000000
,
00013000
00000000
00011000
00000000
,
00000000
00000000
00000000
00000000
;
#NOTES:
     dance-double:
     :
     Medium:
     9:
     :
00000000
00000000
00000000
00000000
,
00000000
00000000
00000000
00000000
,
00000000
00000000
00000000
00000000
,
00000000
00000000
00000000
00000000
,
00000000
00000000
00000000
00000000
,
00000000
00000000
00000000
00000000
,
00100000
10000000
01000000
00010000
,
00001000
00000000
00000100
00000000
00000001
00000010
00001000
00000000
,
00010000
01000000
10000000
00100000
,
00010000
00002000
00000100
00013000
,
00001000
00010000
00000100
00001000
,
00010000
00000000
01000000
00000000
10000000
00100000
00010000
00000000
,
00001000
00000100
00000001
00000010
,
00001000
00020000
01000000
00031000
,
00010000
00001000
00010000
00000000
00001000
00000000
00010000
00000000
,
00001000
00000010
00000001
00000100
,
00001000
00000000
00010000
00001000
00000000
00000100
00000000
00000001
,
00000000
00000000
00000010
00000001
00001000
00000000
00000000
00000000
,
00000010
00000001
00000100
00001000
,
00010000
00100000
10000000
01000000
,
00010000
00000000
00001000
00010000
00000000
01000000
00000000
10000000
,
00000000
00000000
00000000
00000000
,
01000000
10000000
00100000
00000000
00010000
00000000
00011000
00000000
,
00000010
00001000
00000100
00000000
00010000
00000000
00001000
00000000
,
00010000
00001000
00100000
00000000
00001000
00000000
00000100
00000000
,
00000010
00000011
00001000
00000011
,
00000100
00000001
00000010
00000000
00001000
00000000
00010000
00000000
,
00001000
00010000
00001000
00000000
00010000
00000000
00100000
00000000
,
01000000
00000000
00000000
00010000
00000000
00000000
00100000
00000000
00010000
00000000
00000000
10000000
00000000
00000000
01000000
00000000
,
00010000
00000000
00000000
00001000
00010000
00001000
00010000
00001000
,
00000200
00000000
00000001
00000000
,
00000301
00000000
00000000
00000001
00000100
00001000
00010000
00000000
,
02000000
00000000
10000000
00000000
,
13000000
00000000
00000000
00000000
00000000
00100000
00010000
00001000
,
00011000
00000000
00001000
00010000
00000000
00001000
00000100
00000010
,
00000110
00000000
00000000
00000010
00000100
00001000
00010000
00001000
,
00011000
00000000
00000000
00010000
00001000
00000000
00000000
00000100
,
00001000
00000000
00000000
00010000
01000000
00000000
00100000
00000000
,
00000000
00000000
00000000
00000000
00100000
10000000
01000000
00000000
,
00010000
00002000
00000100
00013000
,
01000000
00000000
10000000
00100000
00000000
00010000
00001000
00000000
,
00010000
00000000
00001000
00010000
00000000
00001000
00000100
00000000
,
00000001
00000000
00000000
00000000
00000010
00000001
00000100
00000000
,
00001000
00020000
01000000
00031000
,
00000100
00000000
00000001
00000010
00000000
00000001
00000100
00000000
,
00001000
00000000
00010000
00100000
00000000
01000000
00100000
00000000
,
01100000
00000000
00100000
10000000
,
01000000
00010000
00001000
00000100
,
00000001
00000000
00000001
00000100
,
00001000
00000000
00000000
00010000
00000000
00000000
00000000
00000000
00000100
00000000
00000000
00000000
00001000
00000000
00000000
00000000
,
00100000
00000000
00000000
00001000
00000000
00000000
00000000
00000000
00000010
00000000
00000000
00000000
00001000
00000000
00000000
00000000
,
00000100
00000000
00010000
00001000
00010000
00000000
01000000
00000000
,
10000000
10000000
00100000
00010000
,
00001000
00000000
00000000
00001000
00000000
00000000
00000000
00000000
00000100
00000000
00000000
00000000
00000001
00000000
00000000
00000000
,
00001001
00000000
00000000
00000000
00000010
00000001
00000100
00000000
,
00001000
00020000
01000000
00031000
,
00000100
00000000
00000001
00000010
00000000
00001000
00010000
00000000
,
00001000
00000000
00010000
00001000
00000000
00010000
01000000
00000000
,
10000000
00000000
00000000
00000000
00100000
10000000
01000000
00000000
,
00010000
00002000
00000100
00013000
,
01000000
00000000
10000000
00100000
00000000
10000000
01000000
00000000
,
00010000
00000000
00001000
00000010
00000000
00000100
00000010
00000000
,
00000110
00000000
00000010
00000001
,
00000100
00001000
00010000
01000000
,
10000000
00000000
00010000
00100000
00000000
00000000
00000000
00000000
,
00000000
00000000
00000000
00000000
;
#NOTES:
     dance-double:
     :
     Hard:
     12:
     :
00000000
00000000
00000000
00000000
,
00000000
00000000
00000000
00000000
,
00000000
00000000
00000000
00000000
,
00000000
00000000
00000000
00000000
,
00000000
00000000
00000000
00000000
,
00000000
00000000
00000000
00000000
,
01000000
00000000
10000000
00000000
00100000
00000000
00000000
00010000
00000000
00000000
00001000
00000000
00000010
00000000
00000001
00000000
,
00000100
00000000
00001000
00000000
00010000
00000000
00000000
00100000
00000000
00000000
00010000
00000000
00001000
00000000
00010000
00000000
,
00001000
00000000
00000100
00000000
00000001
00000000
00000000
00000010
00000000
00000000
00001000
00000000
00010000
00000000
01000000
00000000
,
10000000
00100000
00010000
00000000
00001000
00000000
00011000
00000000
,
00000100
00000000
00000001
00000000
00000010
00000000
00000000
00001000
00000000
00000000
00010000
00000000
00100000
00000000
10000000
00000000
,
01000000
00000000
00010000
00000000
00001000
00000000
00000000
00000010
00000000
00000000
00001000
00000000
00010000
00000000
00001000
00000000
,
00010000
00000000
01000000
00000000
10000000
00000000
00000000
00100000
00000000
00000000
00010000
00000000
00001000
00000000
00000100
00000000
,
00000001
00000010
00000001
00000100
00001000
00010000
00001000
00000000
,
00010000
00100000
10000000
01000000
11000000
00000000
00010000
00001000
,
00000100
00000001
00000101
00000000
00000001
00000010
00001000
00010000
,
01000000
00000000
10000000
01000000
00000000
00010000
00000000
01100000
,
00000000
00000000
10000000
00100000
00000000
00010000
00000000
00000000
,
00001000
00000010
00000001
00000100
00000101
00000000
00001000
00010000
,
01000000
10000000
11000000
00000000
01000000
00010000
00001000
00000010
,
00000001
00000000
00000100
00000010
00000000
00000100
00000000
00001001
,
00000000
00000000
00001100
00011000
,
01000000
00000000
10000000
00000000
01000000
00000000
00010000
00000000
00001000
00000000
00000000
00010000
00000000
00000000
00001000
00000000
,
00000100
00000000
00000001
00000000
00000010
00000000
00000100
00000000
00010000
00000000
00000000
00001000
00000000
00000000
00010000
00000000
,
01000000
00000000
10000000
00000000
00100000
00000000
00010000
00000000
00001000
00000000
00010000
00001000
00000000
00000000
00000100
00000000
,
00000110
00000000
00000000
00000010
00000000
00000000
00000100
00000000
00001000
00000000
00000000
00000100
00000000
00000000
00000001
00000000
,
00000010
00000000
00000001
00000000
00000100
00000000
00000010
00000000
00010000
00000000
00000000
00001000
00000000
00000000
00010000
00000000
,
01000000
00000000
10000000
00000000
00100000
00000000
01000000
00000000
00010000
00000000
00000000
00100000
00000000
00000000
00001000
00000000
,
00000100
00000000
00000000
00000001
00000000
00000000
00000010
00000000
00001000
00000000
00000000
00020000
00000000
00000000
00001000
00000000
,
00031000
00000000
00000000
00100000
00010000
01000000
00010000
00100000
,
00002000
00000000
00000010
00000000
,
00013000
00000000
00000000
00000010
00010000
00000100
00001000
00000100
,
00020000
00000000
00100000
00000000
,
00031000
00000000
00000000
00000000
00000000
00010000
00001000
00010000
,
00011000
00000000
00001000
00010000
00000000
00001000
00010000
01000000
,
10000000
00000000
00000000
00100000
00010000
00001000
00010000
00001000
,
00000100
00000000
00000000
00000010
00000100
00000000
00000000
00000001
,
00000100
00000000
00000000
00001000
00000000
00000000
00010000
00001000
00010000
00000000
00000000
00000000
00011000
00000000
00000000
00000000
,
00000000
00000000
00011000
00110000
,
10100000
00000000
11000000
00000000
01000000
00010000
00001000
00000000
,
00000010
00000001
00000010
00001000
00000000
00010000
00100000
10000000
,
01000000
00010000
00001000
00010000
00000000
00001000
00000010
00001000
,
00010000
00000000
00011000
01010000
,
11000000
00000000
10100000
00000000
00010000
00001000
00010000
00000000
,
00001000
00000010
00000001
00000010
00000000
00001000
00010000
00000100
,
00000001
00000100
00001000
00000010
00000000
00000001
00000010
00001000
,
00010000
00000000
01010000
00000000
00100000
10000000
01000000
00010000
,
00001000
00000000
00010000
00001000
00010000
00000000
00001000
00000000
00020000
00000000
00000000
00000000
01030000
00000000
00000000
00000000
,
00002000
00003100
00000101
00001010
,
00000001
00000010
00001000
00010000
00100000
10000000
01000000
00010000
,
00001000
00000000
00000000
00000110
00000000
00000000
00000000
00000000
00000010
00000000
00000001
00000000
00000100
00000000
00001000
00000000
,
00010000
00000000
01000000
10000000
01000000
00000000
00000000
00000000
00200000
00000000
00000000
00000000
00310000
00000000
00000000
00000000
,
00002000
00013000
00011000
01010000
,
10000000
00100000
00010000
00001000
00010000
00001000
00000100
00001000
,
00011000
00000000
00100000
00011000
,
00000010
00000100
00000001
00000000
00000010
00001000
00010000
00000000
,
01000000
10000000
00100000
00010000
00000000
00001000
00000010
00000001
,
00000100
00001000
00010000
00001000
00000000
00010000
00100000
00010000
,
00011000
00000000
00001100
00000000
00000001
00000010
00001000
00010000
,
00100000
00010000
00001000
00000000
00100000
01000000
10000000
00000000
,
01000000
00010000
00001000
00000010
00000000
00001000
00010000
00100000
,
00010000
00001000
00000100
00000010
00000000
00000001
00000010
00001000
,
00010000
00000000
00000000
00000000
00000000
00000000
00000000
00000000
10000000
00000000
01000000
00000000
00010000
00000000
00000000
00001000
,
00000000
00000000
00000010
00000000
00000011
00000000
00000000
00000000
00000001
00000000
00000100
00000000
00001000
00000000
00000000
00010000
,
00000000
00000000
00100000
00000000
10000000
00010000
10000000
00000000
00000000
00000000
00000000
00000000
00000000
00000000
00000000
00000000
,
00000000
00000000
00000000
00000000
;
