
//----- song ID: grip -----//
#TITLE:Grip & Break down !!;
#ARTIST:SOUND HOLIC feat. Nana Takahashi;
#BANNER:Grip & Break down !!.png;
#BACKGROUND:Grip & Break down !!-bg.png;
#CDTITLE:./CDTitles/SOUND VOLTEX BOOTH.png;
#MUSIC:Grip & Break down !!.ogg;
#SAMPLESTART:51.052;
#SAMPLELENGTH:15;
#DISPLAYBPM:160;
#BPMS:0=157,4=160;
#BGSTAGE:2;
#NOTES:
     dance-single:
     :
     Beginner:
     3:
     :
0000
0000
0000
0000
,
0000
0000
0000
0000
,
0000
0000
0000
0000
,
0000
0000
0000
0000
,
0000
0000
0000
0000
,
0010
0000
0010
0000
,
0100
0000
0100
0000
,
0010
0000
0010
0000
,
0100
0000
0100
0000
,
0100
0000
0000
0000
,
0001
0000
1000
0000
,
0001
0000
1000
0000
,
0010
0000
0100
0000
,
0010
0000
0100
0000
,
0001
0000
1000
0000
,
0001
0000
1000
0000
,
0010
0000
0100
0000
,
0100
0000
0000
0000
,
0001
0000
0010
0000
,
0100
0000
0000
0000
,
1000
0000
0010
0000
,
0100
0000
0000
0000
,
0001
0000
0100
0000
,
0001
0000
0000
0000
,
1000
0000
0100
0000
,
1000
0000
0000
0000
,
0001
0000
1000
0000
,
0010
0010
0010
0000
,
1000
0000
0001
0000
,
0010
0010
0010
0000
,
0001
0000
1000
0000
,
0100
0100
0100
0000
,
1000
0000
0001
0000
,
0100
0100
0100
0000
,
0001
0000
1000
0000
,
0010
0000
0100
0100
,
0000
0001
0000
1000
,
0000
0010
0010
0000
,
1000
0000
0001
0000
,
0010
0000
0100
0100
,
0000
1000
0000
0001
,
0000
0100
0100
0000
,
0001
0000
1000
0000
,
0010
0000
0100
0100
,
0000
0001
0000
1000
,
0000
0010
0010
0000
,
1000
0000
0001
0000
,
0010
0000
0100
0100
,
0000
1000
0000
0001
,
0000
0100
0100
0000
,
0001
0000
0000
0000
,
1000
0000
0000
0000
,
0010
0000
0000
0000
,
0100
0000
0000
0000
,
0001
0000
1000
0000
,
0010
0000
0100
0000
,
0001
0000
1000
0000
,
0010
0000
0100
0000
,
0001
0000
1000
0000
,
0010
0000
0100
0100
,
0000
0001
0000
1000
,
0000
0010
0010
0000
,
1000
0000
0001
0000
,
0010
0000
0100
0100
,
0000
1000
0000
0001
,
0000
0100
0100
0000
,
0001
0000
1000
0000
,
0010
0000
0100
0100
,
0000
0001
0000
1000
,
0000
0010
0010
0000
,
1000
0000
0001
0000
,
0010
0000
0100
0100
,
0000
1000
0000
0001
,
0000
0100
0100
0000
,
0000
1001
0000
0000
,
0000
0000
0000
0000
;
#NOTES:
     dance-single:
     :
     Easy:
     6:
     :
0000
0000
0000
0000
,
0000
0000
0000
0000
,
0000
0000
0000
0000
,
0000
0000
0000
0000
,
0000
0000
0000
0000
,
0001
0000
0001
0100
,
0010
1000
0000
1000
,
0010
0100
0001
0000
,
0001
0100
0010
1000
,
0000
0000
0000
0000
,
0001
0000
1000
0000
,
0010
0100
0010
0000
,
1000
0000
0001
0000
,
0010
0100
0010
0000
,
0001
0000
1000
0000
,
0100
0010
0100
0000
,
1000
0000
0001
0000
,
0100
0010
0000
0100
,
0001
0000
1000
0001
,
1000
0000
0001
1000
,
0010
0000
0100
0010
,
0100
0000
0010
0100
,
0001
0000
0010
0100
,
1000
0000
0010
0100
,
0001
0000
0010
0100
,
1000
0010
0100
0000
,
0001
0000
0010
0000
,
0100
1000
0001
0000
,
1000
0000
0010
0000
,
0100
0001
1000
0000
,
0010
0000
0100
0000
,
0001
1000
0001
0000
,
0010
0000
0100
0000
,
1000
0001
1000
0000
,
0001
1000
0010
0100
,
0001
1000
0100
0000
,
1000
0001
0010
0100
,
1000
0001
0100
0000
,
0010
1000
0001
0100
,
0010
1000
0001
0000
,
0010
0001
1000
0100
,
0010
0001
1000
0000
,
0001
1000
0010
0100
,
0001
1000
0100
0000
,
1000
0001
0010
0100
,
1000
0001
0100
0000
,
0010
1000
0001
0100
,
0010
1000
0001
0000
,
0010
0001
1000
0100
,
0010
0001
1000
0000
,
0002
0000
0010
0000
,
1000
0000
0100
0000
,
1000
0000
0010
0000
,
1003
0000
0000
0000
,
2000
0000
0010
0000
,
0001
0000
0100
0000
,
0001
0000
0010
0000
,
3001
0000
0000
0000
,
0001
1000
0010
0100
,
0001
1000
0100
0000
,
1000
0001
0010
0100
,
1000
0001
0100
0000
,
0010
1000
0001
0100
,
0010
1000
0001
0000
,
0010
0001
1000
0100
,
0010
0001
1000
0000
,
0001
1000
0010
0100
,
0001
1000
0100
0000
,
1000
0001
0010
0100
,
1000
0001
0100
0000
,
0010
1000
0001
0100
,
0010
1000
0001
0000
,
0010
0001
1000
0100
,
0010
0001
1000
0000
,
0010
0100
0000
0000
,
0000
0000
0000
0000
;
#NOTES:
     dance-single:
     :
     Medium:
     9:
     :
0000
0000
0000
0000
,
0000
0000
0000
0000
,
0000
0000
0000
0000
,
0000
0000
0000
0000
,
0000
0000
0000
0000
,
0001
1000
0010
0100
0000
0001
0010
0000
,
0001
0000
1000
0001
0010
0100
0000
1000
,
0010
0000
1000
0000
0001
1000
0010
0100
,
0000
0001
0010
0000
0001
0000
1000
0001
,
0010
0100
0000
1000
0000
0000
0000
0000
,
0001
0000
1000
0000
0010
0100
0000
0001
,
1000
0000
0000
0010
0000
0100
0001
0000
,
0000
1000
0010
0000
1000
0100
0000
0010
,
0001
1000
0000
0100
1000
0001
0100
0000
,
0001
0000
1000
0000
0010
0100
0000
0001
,
1000
0000
0000
0010
0000
0100
0001
0000
,
0000
1000
0010
0000
1000
0100
0000
0010
,
0001
1000
0000
0100
0000
1000
0000
0000
,
0001
1000
0000
0000
1000
0001
0000
0000
,
0001
0010
0000
0000
0010
0100
0000
0000
,
0100
1000
0000
0000
1000
0001
0000
0100
,
0000
0100
0000
0100
0000
0100
0010
0100
,
0000
0001
0000
0001
1000
0010
0100
0001
,
0000
1000
0000
1000
0010
0100
0001
1000
,
0000
0010
0000
0010
1000
0001
0100
0010
,
0000
0010
0000
0010
0000
0010
0100
0000
,
0001
0000
1000
0010
0100
0000
0001
1000
,
0010
0000
1000
0001
0010
0000
0001
0000
,
1000
0000
0001
0010
0100
0000
1000
0001
,
0010
0000
0001
1000
0010
0000
1000
0000
,
0001
0000
1000
0010
0100
0000
0001
1000
,
0010
0000
1000
0001
0010
0000
0001
0000
,
1000
0000
0001
0010
0100
0000
1000
0001
,
0010
0000
0001
0000
1000
0000
0010
1000
,
0000
0001
1000
0010
0000
0100
0001
0100
,
0000
0010
1000
0010
0100
0000
0010
0000
,
1000
0001
0010
0100
,
1000
0001
0010
0100
1000
0000
0001
0000
,
0000
1000
0001
0010
0000
0100
1000
0100
,
0000
0010
0001
0010
0100
0000
0010
0000
,
0001
1000
0010
0100
,
0001
1000
0010
0100
0001
0000
1000
0000
,
0000
0001
1000
0010
0000
0100
0001
0100
,
0000
0010
1000
0010
0100
0000
0010
0000
,
1000
0001
0010
0100
,
1000
0001
0010
0100
1000
0000
0001
0000
,
0000
1000
0001
0010
0000
0100
1000
0100
,
0000
0010
0001
0010
0100
0000
0010
0000
,
0001
1000
0010
0100
,
0001
1000
0010
0100
0001
0000
1000
0000
,
0011
0001
1100
0100
,
1010
1000
0101
0100
,
0002
1000
0013
0100
,
2000
0001
3010
0100
,
0011
0001
1100
0100
,
1010
1000
0101
0100
,
0002
1000
0013
0100
,
2000
0001
3010
0100
,
0000
0001
1000
0010
0000
0100
0001
0100
,
0000
0010
1000
0010
0100
0000
0010
0000
,
1000
0001
0010
0100
,
1000
0001
0010
0100
1000
0000
0001
0000
,
0000
1000
0001
0010
0000
0100
1000
0100
,
0000
0010
0001
0010
0100
0000
0010
0000
,
0001
1000
0010
0100
,
0001
1000
0010
0100
0001
0000
1000
0000
,
0000
0001
1000
0010
0000
0100
0001
0100
,
0000
0010
1000
0010
0100
0000
0010
0000
,
1000
0001
0010
0100
,
1000
0001
0010
0100
1000
0000
0001
0000
,
0000
1000
0001
0010
0000
0100
1000
0100
,
0000
0010
0001
0010
0100
0000
0010
0000
,
0001
1000
0010
0100
,
0001
1000
0010
0100
0001
0000
1000
0000
,
0000
0010
1000
0001
0000
0000
0000
0000
,
0000
0000
0000
0000
;
#NOTES:
     dance-single:
     :
     Hard:
     12:
     :
0000
0000
0000
0000
,
0000
0000
0000
0000
,
0000
0000
0000
0000
,
0000
0000
0000
0000
,
0000
0000
0000
0000
,
0001
0000
0010
0000
0100
0000
1000
0000
0100
0000
0010
0000
0001
0000
0000
0001
,
0000
0001
1000
0010
0100
0001
0100
0010
,
1000
0000
0000
1000
0000
0000
1000
0000
0001
0000
0010
0000
0100
0000
1000
0000
,
0100
0000
0010
0000
0001
0000
0000
0001
0000
0000
0001
0000
1000
0000
0010
0000
,
0100
0000
0001
0000
0100
0000
0010
0000
1000
0000
0000
1000
0000
0000
0001
0000
,
0001
0000
0100
0000
0010
2000
0000
3001
,
0100
0000
0000
0100
0000
0001
1000
0010
,
0000
0100
0001
0000
1000
0010
0000
0100
,
0001
1000
0010
0100
0001
1000
0010
0000
,
1000
0000
0100
0000
0010
0002
0000
1003
,
0100
0000
1000
0100
0000
1000
0001
0010
,
0001
0100
0001
1000
0001
0010
0001
0100
,
0000
0000
0010
0100
0010
0000
0000
0000
0000
0000
1000
0000
0100
0000
1000
0000
,
0000
0001
1000
0010
1000
0001
0100
0010
,
0000
1000
0001
0010
0001
1000
0100
0010
,
0000
0100
1000
0001
0010
0100
1000
0001
,
0000
0001
0000
0001
0000
0001
0010
0100
,
0000
1000
0001
0010
0001
1000
0100
0010
,
0000
0001
1000
0010
1000
0001
0100
0010
,
0000
0100
0001
1000
0010
0100
0001
1000
,
0000
0000
1000
0100
0000
0000
0001
0100
0000
0000
1000
0100
1000
0000
0000
0000
,
0001
0000
0100
0010
0000
0000
0100
0000
0001
0000
1000
0010
0000
0000
0100
0000
,
0010
0000
1000
0001
0000
0000
0100
0000
0001
0000
1000
0000
0010
0000
0000
0000
,
0011
0000
0000
0000
1100
0000
0000
0000
0001
0000
1000
0010
0000
0000
0100
0000
,
0010
1000
0100
1000
0010
0100
0001
0000
,
1000
0000
0100
0010
0000
0000
0100
0000
1000
0000
0001
0010
0000
0000
0100
0000
,
0010
0000
0001
1000
0000
0000
0100
0000
1000
0000
0001
0000
0010
0000
0000
0000
,
1010
0000
0000
0000
0101
0000
0000
0000
1000
0000
0001
0010
0000
0000
0100
0000
,
0010
0001
0010
0100
1100
0000
1001
0000
,
1000
0001
1000
0010
0000
0100
0010
0100
,
0011
0000
1000
0010
0000
0100
0000
0100
,
1000
0001
0100
0010
1000
0100
0010
0001
,
0100
0001
1000
0010
1000
0000
0110
0000
,
0000
1000
0001
0010
0000
0100
0000
0000
,
0100
1000
0001
0010
0000
0100
0010
0100
,
0001
1000
0100
0010
0001
0100
0010
1000
,
1001
0000
0110
0000
1000
0100
1000
0001
,
0001
1000
0001
0010
0000
0100
0010
0100
,
1010
0000
0001
0010
0000
0100
0000
0100
,
0001
1000
0100
0010
0001
0100
0010
1000
,
0100
1000
0001
0010
0001
0000
0110
0000
,
0000
0001
1000
0010
0000
0100
0000
0000
,
0100
0001
1000
0010
0000
0100
0010
0100
,
1000
0001
0100
0010
1000
0100
0010
0001
,
1001
0000
0110
0000
1000
0100
1000
0001
,
0001
0100
0000
0000
0010
1000
0000
0000
0100
1000
0000
0000
0001
0010
0000
0000
,
0001
1000
0000
0000
0010
0100
0000
0000
0001
1000
0000
0000
0100
0010
0000
0000
,
0001
0100
0000
0000
0010
1000
0000
0000
0100
1000
0000
0000
0001
0010
0000
0000
,
0001
1000
0000
0000
0010
0100
0000
0000
0010
0000
0000
1000
0000
0000
0001
0000
,
1000
0100
0000
0000
0100
1000
0000
0000
1000
0100
0000
0000
0100
0001
0000
0000
,
0001
0010
0000
0000
0010
1000
0000
0000
1000
0001
0000
0000
0100
0010
0000
0000
,
1000
0100
0000
0000
0010
0001
0000
0000
0100
0001
0000
0000
1000
0010
0000
0000
,
1000
0001
0000
0000
0010
0100
0000
0000
0010
0000
0000
0001
0000
0000
1000
0000
,
0001
1000
0001
0010
0000
0100
0000
0100
,
0000
1000
0001
0010
0100
1000
0100
0010
,
0001
0100
1000
0100
0001
0100
0010
1000
,
0100
1000
0001
0010
0001
0000
0110
0000
,
0000
0001
1000
0010
0000
0100
0000
0100
,
0000
0001
1000
0010
0100
0000
0100
0000
,
1000
0000
0010
0000
0100
0000
0001
0000
0010
0000
0100
1000
0001
0000
1000
0000
,
1001
0000
0110
0000
0001
0100
0001
1000
,
1000
0001
1000
0010
0100
1000
0100
0010
,
1000
0001
1000
0010
0100
1000
0100
0001
,
1000
0001
0100
0010
1000
0100
0010
0001
,
0100
0001
1000
0010
1000
0000
0110
0000
,
0001
1000
0001
0010
0001
0100
0001
1000
,
0001
1000
0001
0010
0110
0000
1100
0000
,
0001
0000
1000
0000
0100
0000
0010
0000
0001
0000
0100
0010
0100
0000
0001
0000
,
0001
0010
0000
0000
0100
0010
0000
0000
0000
0000
1100
0000
0000
0000
0011
0000
,
0000
0010
1000
0202
0000
0000
0000
0303
,
0000
0000
0000
0000
;
#NOTES:
     dance-single:
     :
     Challenge:
     16:
     :
0000
0000
0000
0000
,
0000
0000
0000
0000
,
0000
0000
0000
0000
,
0000
0000
0000
0000
,
0000
0000
0000
0000
,
0001
0100
0001
1000
0100
1000
0001
0100
0001
1000
0100
1000
0001
0000
0000
0001
,
0000
0000
0001
0000
1000
0100
1000
0001
0100
0001
1000
0100
1000
0001
0100
0001
,
1000
0000
0000
1000
0000
0000
1000
0000
0001
0100
0001
1000
0100
1000
0001
0100
,
0001
1000
0100
1000
0010
0000
0000
0010
0000
0000
0010
0000
1000
0100
1000
0001
,
0100
0001
1000
0100
1000
0001
0100
0001
0010
0000
0000
0010
0000
0000
0010
0001
,
0100
0000
0001
0000
1000
0000
0000
0000
0010
0000
0200
0000
0000
0000
0301
1000
,
0010
0100
0010
2000
0000
3001
0010
0001
,
1000
0000
0001
0010
0100
0000
0000
0000
1000
0000
0001
0000
0000
0000
1001
0000
,
0001
0010
0001
0010
0100
1000
0100
1000
0001
0100
0001
0100
0010
1000
0010
1000
,
0010
0000
1000
0000
0001
0000
0000
0000
0010
0000
0200
0000
0000
0000
1300
0001
,
0010
0100
0010
0002
0000
1003
0010
1000
,
0001
0010
0100
0000
0010
0100
1000
0000
0001
0100
0010
0100
0001
1000
0010
0000
,
0000
0000
0100
0010
0100
0000
0000
0000
0000
0000
0001
0000
1000
0000
0010
0000
,
0110
0110
0000
0000
1010
1010
0000
0000
,
0101
0101
0000
0000
1001
1001
0100
0010
,
0110
0110
0000
0000
0011
0011
1000
1010
,
0000
0000
1100
0000
0000
0000
0101
0000
0000
0000
1001
0000
1000
0100
1000
0100
,
0010
0000
0100
0000
1000
0010
1000
0000
0001
0000
0010
0000
0100
0000
1000
0000
,
0001
0000
0100
0000
0001
0010
0001
0000
1000
0000
0100
0000
0010
0000
0001
0000
,
1000
0000
0010
0000
1000
0100
1000
0000
0001
0000
0100
0000
0010
0000
1000
0100
,
0000
0000
0001
0100
0000
0000
1000
0010
0000
0000
0100
0001
1000
0010
1000
0010
,
0100
0000
0001
0100
0000
0001
1000
0100
0010
0000
0100
0010
0000
0100
1000
0001
,
0100
0000
0001
0000
1000
0000
0010
0000
0100
0000
0001
0010
0100
0010
0001
0000
,
1000
0010
1000
0000
0010
0000
0100
0000
0001
0010
0001
0000
0010
0000
0100
0000
,
0010
0001
0100
0000
0010
0000
1000
0001
0100
0010
1000
0000
0010
0000
0100
0000
,
0001
0000
1000
0100
0000
1000
0001
0100
0010
0000
0100
0010
0000
0100
0001
1000
,
0100
0000
1000
0000
0001
0000
0010
0000
0100
0000
1000
0010
0100
0010
1000
0000
,
0001
0010
0001
0000
0010
0000
0100
0000
1000
0100
0000
0001
0100
0000
1000
0000
,
1100
1001
0011
1001
,
1000
0010
0100
0110
0000
0101
0000
1002
,
0000
0000
0103
0000
0010
0000
1000
0000
0001
0000
0100
0000
0001
0000
1000
0100
,
0010
0000
0001
0000
0100
0000
0010
0000
1000
0000
0010
1000
0100
0000
0010
0000
,
0001
0000
1000
0100
0001
0000
1000
0010
0001
0000
1000
0010
0001
0000
0000
0000
,
0010
1000
0001
0011
0000
1100
0000
2001
,
0000
0000
3100
0000
0010
0000
0001
0000
1000
0000
0100
0000
1000
0000
0001
0100
,
0010
0000
1000
0000
0100
0000
0010
0000
0001
0000
0010
0001
0100
0000
0010
0000
,
1000
0100
0000
0001
0100
0000
1000
0000
0001
0010
1000
0000
0010
0100
0010
0100
,
1000
0010
0100
0101
0000
1010
0000
1002
,
0000
0000
0013
0000
0100
0000
1000
0000
0001
0000
0010
0000
0001
0000
1000
0010
,
0100
0000
0001
0000
0010
0000
0100
0000
1000
0000
0010
1000
0100
0000
0010
0000
,
0001
0000
1000
0010
0001
0000
1000
0100
0001
0000
1000
0100
0001
0000
0000
0000
,
0100
1000
0001
0011
0000
1100
0000
2001
,
0000
0000
3010
0000
0100
0000
0001
0000
1000
0000
0010
0000
1000
0000
0001
0010
,
0100
0000
1000
0000
0010
0000
0100
0000
0001
0000
0100
0001
0010
0000
0100
0000
,
1100
0000
1100
0000
1000
0001
1000
0100
0010
0001
1000
0100
1000
0000
0000
0000
,
0001
0100
0000
0000
0010
1000
0000
0000
0100
1000
0000
0000
0001
0010
0000
0000
,
0001
0000
1000
0010
0100
0000
0001
0000
1000
0100
0010
0000
0001
0100
0010
0000
,
1000
0100
0000
0000
0010
0001
0000
0000
0100
0001
0000
0000
1000
0010
0000
0000
,
1000
0000
0001
0010
0100
0000
0010
0000
0011
0000
0000
1001
0000
0000
1100
0000
,
0100
0010
0100
0000
0010
0001
0010
0000
0001
0100
0001
0000
0100
0010
0100
0000
,
0010
1000
0010
0000
1000
0100
1000
0000
0100
0010
0100
0000
0010
0001
0010
0000
,
0001
0100
0001
0000
1000
0100
1000
0000
0001
0010
0001
0000
1000
0010
1000
0000
,
0110
0000
0000
0000
1001
0000
0000
0000
0001
0100
0001
0100
0010
1000
0010
0000
,
1000
0000
0001
0000
0010
0000
0100
0000
0010
0000
0001
0100
0010
0000
2000
0000
,
0001
0000
3001
0000
0010
0000
0100
0000
1000
0000
0010
1000
0100
0000
0010
0001
,
0100
0000
0001
0000
1000
0000
0010
0000
0100
0000
0001
0100
1000
0000
0100
0000
,
0010
0000
1000
0001
0100
0010
0100
0010
1000
0000
0001
0010
0100
0000
0010
0000
,
0001
0000
1000
0000
0100
0000
0010
0000
0100
0000
1000
0010
0100
0000
0002
0000
,
1000
0000
1003
0000
0100
0000
0010
0000
0001
0000
0100
0001
0010
0000
0100
1000
,
0010
0000
1000
0000
0001
0000
0100
0000
0010
0000
1000
0010
0001
0000
0010
0000
,
1000
0100
0000
0001
0100
0000
1000
0000
0010
0100
0001
0000
1000
0010
1000
0010
,
0100
0000
0001
0000
0010
0000
0100
0000
1000
0000
0010
0100
0001
0000
2000
0000
,
0010
0000
3010
0000
0100
0000
0001
0000
0010
0000
0001
1000
0100
0000
1000
0010
,
0100
0000
0001
0010
1000
0000
0001
0100
1000
0000
0010
1000
0100
0000
1000
0000
,
0001
0100
0001
0100
0010
1000
0010
0000
1000
0000
0001
0010
0100
0000
0010
0000
,
0001
0000
1000
0000
0100
0000
0010
0000
0001
0000
0100
0010
1000
0000
0002
0000
,
0100
0000
0103
0000
0010
0000
1000
0000
0100
0000
1000
0001
0010
0000
0001
0100
,
0010
0000
1000
0100
0001
0000
1000
0010
0001
0000
0100
0001
0010
0000
0001
0000
,
1000
0010
0100
0000
0010
1000
0010
1000
0001
0100
0010
0000
1000
0100
0010
0000
,
0100
0010
0001
0000
1000
0000
2002
0000
0000
0000
0000
0000
0000
0000
3003
0000
,
0000
0000
0000
0000
;
#NOTES:
     dance-double:
     :
     Easy:
     5:
     :
00000000
00000000
00000000
00000000
,
00000000
00000000
00000000
00000000
,
00000000
00000000
00000000
00000000
,
00000000
00000000
00000000
00000000
,
00000000
00000000
00000000
00000000
,
00000010
00000000
00001000
00010000
,
00000000
00100000
00000000
00010000
,
00001000
00000000
00000100
00000000
,
00001000
00010000
00000000
01000000
,
00000000
00010000
00001000
00000000
,
00000010
00000010
00000001
00000000
,
00000100
00001000
00010000
00000000
,
00100000
00000000
10000000
00000000
,
01000000
00010000
00001000
00000100
,
00000010
00001000
00000001
00000001
,
00000100
00001000
00010000
00000000
,
00001000
00010000
00100000
00000000
,
00001000
00010000
00001000
00000000
,
00000010
00000000
00000010
00000001
,
00000100
00000000
00001000
00010000
,
00010000
00000000
00100000
10000000
,
10000000
00000000
01000000
00000000
,
00100000
00100000
00010000
00010000
,
00001000
00001000
00000100
00000100
,
00000001
00000100
00001000
00000100
,
00000000
00000110
00000000
00001001
,
00000010
00000000
00000001
00000000
,
00000100
00001000
00010000
00000000
,
00100000
00100000
10000000
10000000
,
01000000
10000000
01000000
00100000
,
00001000
00000000
00010000
00000000
,
00001000
00000100
00000010
00000000
,
00001001
00001001
00000110
00000110
,
00001000
00000001
00001000
00000000
,
00000010
00000010
00000001
00000001
,
00000010
00001000
00010000
00000000
,
00100000
10000000
00010000
00100000
,
01000000
00010000
00001000
00000000
,
00000100
00000001
00000100
00001000
,
00000100
00001000
00010000
00000000
,
01000000
10000000
00010000
00100000
,
00001000
00010000
00000000
00000000
,
00100000
10000000
00010000
00100000
,
01000000
00010000
00001000
00000000
,
00000010
00000000
00000001
00000000
,
00000100
00001000
00010000
00000000
,
01000000
10000000
01000000
00010000
,
01000000
00010000
00001000
00000000
,
00000100
00000001
00001000
00000010
,
00000100
00001000
00010000
00000000
,
00011000
00000000
00000000
00000000
,
00001000
00000000
00000000
00000000
,
00000001
00000000
00000000
00000000
,
00000100
00001000
00010000
00001000
,
00010000
00000000
00000000
00000000
,
00001000
00000000
00000000
00000000
,
00010000
00000000
00000000
00000000
,
10000000
10000000
00000000
00000000
,
00100000
00100000
10000000
10000000
,
00100000
00010000
00001000
00000000
,
00000010
00000001
00001000
00000010
,
00000100
00001000
00010000
00000000
,
01000000
10000000
01000000
00010000
,
01000000
00010000
00001000
00000000
,
00000100
00000001
00001000
00000010
,
00010000
00001000
00000000
00000000
,
00000010
00000001
00001000
00000010
,
00000100
00001000
00010000
00000000
,
00100000
00100000
10000000
10000000
,
01000000
00010000
00001000
00000000
,
00000100
00000001
00000100
00001000
,
00000100
00001000
00001000
00010000
,
00001000
00010000
01000000
10000000
,
01000000
00010000
00010000
00010000
,
00001000
00010000
00002000
00000000
,
00000000
00003000
00000000
00000000
,
00000000
00000000
00000000
00000000
;
#NOTES:
     dance-double:
     :
     Medium:
     10:
     :
00000000
00000000
00000000
00000000
,
00000000
00000000
00000000
00000000
,
00000000
00000000
00000000
00000000
,
00000000
00000000
00000000
00000000
,
00000000
00000000
00000000
00000000
,
00000010
00000000
00000001
00000000
00000100
00000000
00001000
00010000
,
00001000
00010000
00100000
00000000
10000000
00000000
01000000
00000000
,
00010000
00001000
00010000
00001000
00000010
00000000
00000001
00000000
,
00000100
00000000
00000010
00010000
00000010
00010000
00001000
00000000
,
00010000
01000000
01010000
00011000
,
00000010
00000000
00000001
00000000
00000100
00000010
00000000
00000100
,
00000010
00000000
00000000
00000100
00000000
00001000
00010000
00000000
,
00000000
00100000
10000000
00000000
01000000
00100000
00000000
01000000
,
00100000
01000000
00000000
10000000
01000000
00010000
00001000
00000000
,
00000010
00000000
00000001
00000000
00000100
00000010
00000000
00000100
,
00000010
00000000
00000000
00000100
00000000
00001000
00010000
00000000
,
00001000
00010000
00100000
00000000
10000000
00010000
01000000
00000000
,
00100000
01000000
00001000
00000000
00010000
00001000
00010000
00001000
,
00000010
00000001
00000000
00000000
00001000
00000100
00000000
00000000
,
00000010
00000001
00000000
00000000
00000100
00000001
00000000
00000000
,
00001000
00000010
00000000
00000000
00000100
00000001
00000000
00000100
,
00000000
00000100
00000000
00000100
00000000
00000100
00001000
00010000
,
01000000
00110000
00100000
01000000
,
00100000
00000000
11000000
00000000
01000000
10000000
00100000
00000000
,
00010000
00001000
00010000
00000000
00001000
00010000
00000000
01000000
,
00000000
00010000
00001000
00000100
00000000
00000010
00010000
00001000
,
00000010
00000000
00000001
00000100
00000010
00000000
00001000
00000100
,
00000010
00000001
00001100
00011000
,
00100000
00000000
10000000
01000000
00100000
00000000
00010000
01000000
,
00100000
10000000
00100000
01000000
00010000
00000000
00100000
00000000
,
00001000
00000000
00010000
00000000
00000100
00000000
00001000
00000100
,
00000010
00000000
00000001
00000100
00001000
00000000
00010000
00000000
,
00100000
00000000
10000000
01000000
00100000
00000000
00010000
01000000
,
00110000
11000000
00110000
00011000
,
00000000
00000010
00000001
00000100
00000000
00000010
00001000
00000100
,
00000000
00000010
00000001
00000100
00001000
00000000
00010000
00000000
,
00100000
10000000
01000000
00010000
,
00100000
00000000
10000000
00000000
01000000
00010000
00001000
00000000
,
00000000
00000010
00000001
00000100
00000000
00000010
00001000
00000100
,
00000000
00000010
00000001
00000100
00001000
00000000
00011000
00000000
,
00001000
00010000
00100000
00010000
00100000
01000000
00100000
00000000
,
11000000
00000000
01100000
00000000
00011000
00000000
00000100
00000010
,
00001000
00000100
00010000
00001000
00000000
00100000
00010000
01000000
,
00000000
00100000
10000000
01000000
00010000
00000000
00001000
00000000
,
00000010
00000001
00000100
00001000
,
00000010
00000001
00001000
00000001
00000100
00000010
00000000
00010000
,
00000000
00001000
00010000
01000000
00000000
00100000
00010000
01000000
,
00000000
00100000
10000000
01000000
00010000
00000000
00011000
00000000
,
00010000
00001000
00000010
00001000
00010000
00001000
00011000
00000000
,
00001100
00000110
00001001
00000110
,
00000001
00000010
00000100
00001000
,
00010000
00100000
00010000
10000000
,
01000000
00010000
00001000
00000010
,
00000100
00000000
00000000
00000000
00001000
00000000
00000000
00000000
00010000
00000000
00000000
00100000
00000000
00000000
01000000
00000000
,
10000000
01000000
00010000
10000000
,
01000000
00100000
00010000
00001000
,
00000010
00000001
00000010
00010000
,
00001000
00000000
00002000
00000000
00000000
00000000
00000000
00003000
,
00000000
00000010
00000001
00000100
00000000
00000010
00001000
00000100
,
00000000
00000010
00000001
00000100
00001000
00000000
00010000
00000000
,
00100000
01000000
00010000
00000000
10000000
00100000
00010000
00000000
,
00010000
01000000
00001000
00010000
00001000
00000100
00000001
00000000
,
00000000
00000010
00000001
00000100
00000000
00000010
00001000
00000100
,
00000000
00000010
00000001
00000100
00001000
00000000
00010000
00000000
,
00100000
00001000
00100000
00000000
01000000
00100000
01000000
00000000
,
00100000
01000000
00000000
00001000
00000000
00010000
00001000
00000100
,
00000000
00000010
00000001
00000100
00000000
00000010
00001000
00000100
,
00000000
00000010
00000001
00000100
00001000
00000000
00010000
00000000
,
00100000
10000000
01000000
00100000
,
00010000
00100000
01000000
10000000
01000000
00010000
00001000
00000000
,
00000000
00000010
00000001
00000100
00000000
00000010
00001000
00000100
,
00000000
00000010
00000001
00000100
00001000
00000000
00000011
00000000
,
00000010
00000100
00001000
00010000
00100000
00010000
00100000
00010000
,
00000000
10000000
01000000
00010000
00000000
00011000
00000000
00001100
,
00000000
00000100
00000010
00000001
00000000
00000000
00000000
00000000
,
00000000
00000000
00000000
00000000
;
#NOTES:
     dance-double:
     :
     Hard:
     13:
     :
00000000
00000000
00000000
00000000
,
00000000
00000000
00000000
00000000
,
00000000
00000000
00000000
00000000
,
00000000
00000000
00000000
00000000
,
00000000
00000000
00000000
00000000
,
00010000
00001000
00000100
00001000
00000000
00010000
00001000
00000000
,
00001000
00000000
00000010
00000001
00000100
00001000
00000000
00010000
,
00001000
00000000
00010000
00000000
00100000
10000000
01000000
10000000
,
00000000
01000000
00010000
00000000
00001000
00000000
00010000
00001000
,
00010000
00000000
00001000
00000000
00010000
00000000
00000000
00000000
00001100
00000000
00000000
00000110
00000000
00000000
00000001
00000000
,
00000010
00000000
00000001
00000000
00000100
00000010
00000000
00000100
,
00000001
00000000
00000000
00000001
00000000
00000100
00001000
00010000
,
00000000
00001000
00010000
00000000
01000000
00100000
00000000
00010000
,
10000000
01000000
00100000
00010000
00001000
00000010
00001000
00000000
,
00000001
00000100
00000001
00000000
00000100
00000010
00000000
00000100
,
00000001
00000000
00000010
00000001
00000000
00000100
00001000
00010000
,
00100000
01000000
00010000
10000000
00010000
00100000
00010000
01000000
,
00000000
00100000
10000000
00010000
01000000
00001000
00010000
00000000
,
00001000
00001100
00000000
00000000
00000100
00000101
00000000
00000000
,
00000001
00000101
00000000
00000000
00000010
00000100
00001000
00010000
,
00000000
00100000
10000000
00010000
00100000
01000000
10000000
01000000
,
00000000
00000000
01100000
00000000
00000000
00000000
00110000
00000000
00000000
00000000
00010000
00000000
00001000
00010000
00001000
00000000
,
00010000
00001000
00000100
00000001
00001000
00000010
00000100
00000001
,
00000000
00000100
00000001
00001000
00000010
00000100
00001000
00010000
,
00000000
00100000
10000000
00010000
00100000
01000000
10000000
01100000
,
00000000
00110000
00000000
00011000
00000000
00001000
00010000
00001000
,
00000010
00000000
00000001
00000010
00000000
00000000
00000100
00000000
00000010
00000000
00000100
00000010
00000000
00000000
00000100
00000000
,
00001000
00000000
00000100
00001000
00000000
00000000
00001000
00000000
00000010
00000000
00000100
00000000
00001000
00000000
00010000
00000000
,
00100000
00000000
10000000
00100000
00000000
00000000
01000000
00000000
00100000
00000000
01000000
00100000
00000000
00000000
01000000
00000000
,
00001000
00000000
00010000
00000000
00011000
00000000
00000000
00000100
,
00000010
00000000
00000001
00000010
00000000
00000000
00000100
00000000
00000010
00000000
00000100
00000010
00000000
00000000
00000100
00000000
,
00001000
00000000
00000100
00001000
00000000
00000000
00001000
00000000
00000001
00000000
00000100
00000000
00001000
00000000
00010000
00000000
,
00100000
00000000
10000000
00100000
00000000
00000000
01000000
00000000
00100000
00000000
01000000
00100000
00000000
00000000
01000000
00000000
,
00110000
00000000
00011000
00000000
00001000
00010000
00000100
00000000
,
00001000
00000010
00000001
00000010
00000000
00001000
00000000
00000001
,
00000000
00000100
00000001
00000100
00001000
00000000
00010000
00000000
,
00100000
00000000
10000000
00000000
00010000
00000000
01000000
00000000
00100000
00000000
10000000
01000000
10000000
00000000
01000000
00000000
,
10000000
01000000
00010000
00001000
00010000
00000000
00011000
00000000
,
00000000
00100000
10000000
01000000
00000000
00100000
00000000
00010000
,
00000000
00001000
00000010
00001000
00000001
00000000
00001000
00000000
,
00000010
00000000
00000001
00000000
00001000
00000000
00000100
00000000
00000010
00000000
00000001
00001000
00000001
00000000
00000100
00000000
,
00000011
00000000
00000000
00000000
00000110
00000000
00000000
00000000
00001100
00000000
00000000
00000000
00011000
00000000
00010000
00001000
,
00010000
00100000
10000000
00100000
00000000
00010000
00000000
10000000
,
00000000
01000000
10000000
01000000
00010000
00000000
00001000
00000000
,
00000010
00000000
00000001
00000000
00001000
00000000
00000100
00000000
00000010
00000000
00000001
00000100
00000001
00000000
00000100
00000000
,
00000001
00000100
00001000
00010000
00001000
00000000
00011000
00000000
,
00000000
00000010
00000001
00000100
00000000
00000010
00000000
00001000
,
00000000
00010000
00100000
00010000
10000000
00000000
00010000
00000000
,
00100000
00000000
10000000
00000000
00010000
00000000
01000000
00000000
00100000
00000000
10000000
00010000
10000000
00000000
01000000
00000000
,
00010000
00000000
00000000
00000000
00000000
00000000
00000000
00000000
00000000
00000000
00000000
00000000
00001000
00000000
00010000
00001000
,
00000010
00000001
00000000
00000000
00000001
00000100
00000000
00000000
00000100
00001000
00000000
00000000
00001000
00010000
00000000
00000000
,
00010000
01000000
00000000
00000000
01000000
00010000
00000000
00000000
10000000
00000000
00000000
00000000
00010000
00000000
00000000
00000000
,
00100000
10000000
00000000
00000000
00010000
01000000
00000000
00000000
00010000
10000000
00000000
00000000
01000000
10000000
00000000
00000000
,
00010000
00100000
00000000
00000000
01000000
10000000
00000000
00000000
01000000
00000000
00000000
00010000
00000000
00000000
00001000
00000000
,
00000010
00000001
00000000
00000000
00000001
00000100
00000000
00000000
00000100
00001000
00000000
00000000
00001000
00010000
00000000
00000000
,
00010000
01000000
00000000
00000000
01000000
00010000
00000000
00000000
00100000
00000000
00000000
00000000
00010000
00000000
00000000
00000000
,
00100000
10000000
00000000
00000000
00010000
01000000
00000000
00000000
00001000
00010000
00000000
00000000
00100000
00010000
00000000
00000000
,
00110000
00000000
00011000
00000000
00000000
00000000
00000000
00001000
,
00000010
00001000
00000001
00000010
00000000
00000001
00000000
00000001
,
00000000
00000100
00000001
00000100
00001000
00000000
00010000
00000000
,
00100000
00000000
10000000
00000000
00010000
00000000
01000000
00000000
00100000
00000000
10000000
01000000
10000000
00000000
01000000
00000000
,
10000000
01000000
00010000
00001000
00010000
00000000
00011000
00000000
,
00000000
00100000
10000000
01000000
00000000
00100000
00000000
00010000
,
00000000
00001000
00000010
00001000
00000001
00000000
00001000
00000000
,
00000010
00000000
00000001
00000000
00001000
00000000
00000100
00000000
00000010
00000000
00000001
00001000
00000001
00000000
00000100
00000000
,
00000001
00000000
00000000
00000000
00000010
00000000
00000000
00000000
00000100
00000000
00000000
00000000
00011000
00000000
00010000
00001000
,
00010000
00100000
10000000
00100000
00000000
00010000
00000000
10000000
,
00000000
01000000
10000000
01000000
00010000
00000000
00001000
00000000
,
00000010
00000000
00000001
00000000
00001000
00000000
00000100
00000000
00000010
00000000
00000001
00000100
00000001
00000000
00000100
00000000
,
00000001
00000100
00001000
00010000
00001000
00000000
00011000
00000000
,
00000000
00000010
00000001
00000100
00000000
00000010
00000000
00001000
,
00000000
00010000
00100000
00010000
10000000
00000000
00010000
00000000
,
00100000
00000000
10000000
00000000
00010000
00000000
01000000
00000000
00100000
00000000
10000000
00010000
10000000
00000000
01000000
00000000
,
10100000
00000000
01100000
00000000
01010000
00000000
00011000
00001010
,
00000000
00000010
00000001
00002200
00000000
00000000
00000000
00003300
,
00000000
00000000
00000000
00000000
;
#NOTES:
     dance-double:
     :
     Challenge:
     16:
     :
00000000
00000000
00000000
00000000
,
00000000
00000000
00000000
00000000
,
00000000
00000000
00000000
00000000
,
00000000
00000000
00000000
00000000
,
00000000
00000000
00000000
00000000
,
10000000
01000000
10000000
00010000
00100000
00010000
00100000
00001000
00100000
00001000
00010000
00001000
00010000
00000000
00000000
00010000
,
00000000
00000000
00010000
00000000
00000100
00001000
00000100
00000010
00000001
00000010
00000001
00001000
00000001
00001000
00000010
00001000
,
00000010
00000000
00000000
00000010
00000000
00000000
00000010
00000000
00010000
00000010
00010000
00001000
01000000
00001000
01000000
00010000
,
01000000
00100000
10000000
00100000
10000000
00000000
00000000
10000000
00000000
00000000
10000000
00000000
01000000
00100000
01000000
00100000
,
00010000
00100000
00001000
00010000
00000100
00001000
00000001
00000010
00000001
00000000
00000000
00000001
00000000
00000000
00000001
00000000
,
00001000
00000000
00000010
00000000
00000100
00000000
00000000
00000000
00000001
00000000
00000020
00000000
00000000
00000000
00000130
00001000
,
00000100
00010000
00001000
00020000
00000000
00130000
10000000
00100000
,
10000000
00000000
01000000
00100000
00010000
00000000
00000000
00000000
00001000
00000000
00000100
00000000
00000000
00000000
00000010
00000000
,
00000001
00000100
00000001
00000100
00000010
00001000
00000010
00001000
00000100
00010000
00000100
00010000
00001000
00100000
00001000
00100000
,
00010000
00000000
10000000
00000000
00100000
00000000
00000000
00000000
10000000
00000000
02000000
00000000
00000000
00000000
03100000
00010000
,
00100000
00001000
00010000
00002000
00000000
00003100
00000001
00000010
,
00000001
00000100
00000001
00000000
00001000
00000100
00001000
00000000
00000100
00010000
00000100
00000000
00010000
00000000
00001000
00000000
,
00000000
00000000
00100000
01000000
00100000
00000000
00000000
00000000
00000000
00000000
00010000
00000000
10000000
00000000
00100000
00000000
,
01100000
01100000
00000000
00000000
00011000
00011000
00000000
00000000
,
00000110
00000110
00000000
00000000
00001001
00001001
00000100
00000010
,
00000110
00000110
00000000
00000000
00011000
00011000
00001000
00101000
,
00000000
00000000
00110000
00000000
00000000
00000000
11000000
00000000
00000000
00000000
10010000
00000000
10000000
01000000
10000000
01000000
,
00100000
00000000
01000000
00000000
10000000
01000000
10000000
00000000
01000000
00000000
00100000
00000000
00010000
00000000
00001000
00000000
,
00000100
00000000
00001000
00000000
00000001
00000010
00000001
00000000
00000010
00000000
00000100
00000000
00001000
00000000
00010000
00000000
,
00100000
00000000
00010000
00000000
10000000
00100000
10000000
00000000
01000000
00000000
00010000
00000000
00001000
00000000
00000100
00000001
,
00000000
00000000
00000100
00001000
00000000
00000000
00010000
00100000
00000000
00000000
10000000
01000000
00100000
00010000
00100000
00000000
,
00010000
00000000
00100000
00001000
00000000
00010000
00001000
00000000
00010000
00000000
00000010
00001000
00000000
00000010
00000100
00000000
,
00000001
00000000
00000010
00000000
00000100
00000000
00001000
00000000
00000100
00000000
00010000
00001000
00010000
00000000
00001000
00000000
,
01000000
00010000
01000000
00000000
00010000
00000000
00100000
00000000
01000000
10000000
01000000
00000000
10000000
00000000
00100000
00000000
,
10000000
00000000
00100000
00000000
00010000
00000000
00001000
00000000
00000100
00000000
00000001
00000010
00000100
00000000
00001000
00000000
,
00000100
00000000
00010000
00000010
00000000
00010000
00001000
00000000
01000000
00000000
00010000
00100000
00000000
01000000
00100000
00000000
,
00010000
00000000
10000000
00000000
01000000
00000000
00100000
00000000
00010000
00000000
00100000
00001000
00100000
00000000
00001000
00000000
,
00010000
00000100
00010000
00000000
00000100
00000000
00001000
00000000
00000001
00000010
00000000
00001000
00010000
00000000
01000000
00000000
,
11000000
00110000
00101000
00011000
,
00010000
00000010
00001000
00001010
00000000
00000110
00000000
00002001
,
00000000
00000000
00003100
00000000
00001000
00000000
00000010
00000000
00010000
00000000
00001000
00000000
01000000
00000000
00010000
00100000
,
01000000
00000000
10000000
00000000
00100000
00000000
10000000
00000000
00010000
00000000
01000000
00010000
01000000
00000000
00100000
00000000
,
10000000
00000000
00100000
00000000
00010000
00000000
00001000
00000000
00000100
00000000
00000001
00000100
00000010
00000000
00000000
00000000
,
00001000
00000100
00010000
00011000
00000000
00101000
00000000
01020000
,
00000000
00000000
10030000
00000000
00010000
00000000
10000000
00000000
01000000
00000000
00100000
00000000
00010000
00000000
01000000
00001000
,
00010000
00000000
00000100
00000000
00001000
00000000
00000001
00000000
00000010
00000000
00000100
00001000
00000100
00000000
00001000
00000000
,
00000001
00000100
00000000
00001000
00000100
00000000
00000010
00000000
00001000
00000100
00001000
00000000
00000100
00010000
00000100
00010000
,
00001000
01000000
00010000
01010000
00000000
01100000
00000000
10020000
,
00000000
00000000
00130000
00000000
00010000
00000000
01000000
00000000
00001000
00000000
00010000
00000000
00000010
00000000
00001000
00000100
,
00000010
00000000
00000001
00000000
00000100
00000000
00000001
00000000
00001000
00000000
00000010
00001000
00000010
00000000
00000100
00000000
,
00000001
00000000
00000100
00000000
00001000
00000000
00010000
00000000
00100000
00000000
10000000
01000000
00100000
00000000
00000000
00000000
,
00010000
00100000
00001000
00011000
00000000
00010100
00000000
00002010
,
00000000
00000000
00003001
00000000
00001000
00000000
00000001
00000000
00000010
00000000
00000100
00000000
00001000
00000000
00000010
00010000
,
00001000
00000000
00100000
00000000
00010000
00000000
10000000
00000000
01000000
00000000
00100000
00010000
00100000
00000000
00010000
00000000
,
10010000
00000000
10010000
00000000
10000000
00010000
10000000
00000000
00010000
00100000
00001000
00010000
00001000
00000000
00000000
00000000
,
00010000
00000100
00000000
00000000
00001000
00000010
00000000
00000000
00000100
00000001
00000000
00000000
00001000
00000100
00000000
00000000
,
00010000
00000000
00001000
00100000
00010000
00000000
00100000
00000000
01000000
00000000
10000000
00010000
00100000
00000000
00010000
00000000
,
10000000
01000000
00000000
00000000
00100000
00010000
00000000
00000000
00001000
00000100
00000000
00000000
00000010
00000001
00000000
00000000
,
00001000
00000000
00000001
00000010
00000100
00000000
00001000
00000000
00001100
00000000
00000000
00010100
00000000
00000000
00011000
00000000
,
00001000
00100000
00001000
00000000
00100000
00010000
00100000
00000000
00010000
10000000
00010000
00000000
10000000
01000000
10000000
00000000
,
00100000
01000000
00100000
00000000
01000000
00010000
01000000
00000000
00001000
00010000
00001000
00000000
00010000
00000100
00010000
00000000
,
00000010
00001000
00000010
00000000
00001000
00000001
00001000
00000000
00000001
00000100
00000001
00000000
00001000
00000100
00001000
00000000
,
00010100
00000000
00000000
00000000
00011000
00000000
00000000
00000000
00001000
01000000
00001000
01000000
00010000
00000000
01000000
00000000
,
00010000
00000000
10000000
00000000
01000000
00000000
00100000
00000000
01000000
00000000
10000000
01000000
10000000
00000000
00020000
00000000
,
00100000
00000000
00130000
00000000
00001000
00000000
00010000
00000000
00000010
00000000
00001000
00000000
00000100
00000000
00000010
00000001
,
00000100
00000000
00000001
00000000
00000010
00000000
00001000
00000000
00010000
00000000
00001000
00010000
01000000
00000000
10000000
00000000
,
00010000
00000000
10000000
00100000
00010000
00000000
00100000
00010000
00001000
00000000
00010000
00001000
00000100
00000000
00000001
00000000
,
00001000
00000000
00000001
00000000
00000010
00000000
00000100
00000000
00000010
00000000
00000001
00000010
00000001
00000000
00002000
00000000
,
00000100
00000000
00003100
00000000
00010000
00000000
00001000
00000000
01000000
00000000
00010000
00000000
00100000
00000000
01000000
10000000
,
00100000
00000000
10000000
00000000
01000000
00000000
00010000
00000000
01000000
00000000
10000000
00100000
01000000
00000000
00010000
00000000
,
10000000
01000000
00000000
00010000
00001000
00000000
00000100
00000000
00000001
00000010
00000100
00000000
00001000
00000010
00001000
00000010
,
00001000
00000000
00000001
00000000
00000100
00000000
00000010
00000000
00000100
00000000
00000001
00000100
00000001
00000000
00002000
00000000
,
00000010
00000000
00003010
00000000
00010000
00000000
00001000
00000000
00100000
00000000
00010000
00000000
01000000
00000000
00100000
10000000
,
01000000
00000000
10000000
01000000
00100000
00000000
00010000
00100000
00001000
00000000
00010000
00000100
00001000
00000000
00000001
00000000
,
00001000
00000000
00000001
00000010
00001000
00000000
00000010
00001000
00010000
00000000
00001000
00010000
01000000
00000000
10000000
00000000
,
00010000
00000000
10000000
00000000
00100000
00000000
01000000
00000000
00100000
00000000
10000000
00100000
10000000
00000000
00020000
00000000
,
01000000
00000000
01030000
00000000
00001000
00000000
00010000
00000000
00000100
00000000
00001000
00000000
00000010
00000000
00000100
00000001
,
00000010
00000000
00000001
00000010
00000100
00000000
00001000
00000100
00010000
00000000
00001000
00100000
00010000
00000000
10000000
00000000
,
01000000
00100000
01000000
00000000
00100000
00010000
00100000
00001000
00010000
00000100
00010000
00000000
00000100
00001000
00000100
00000000
,
00000010
00000001
00000100
00000000
00000010
00000000
00000220
00000000
00000000
00000000
00000000
00000000
00000000
00000000
00000330
00000000
,
00000000
00000000
00000000
00000000
;
