
//----- song ID: frin -----//
#TITLE:風鈴花火;
#ARTIST:BEMANI Sound Team "劇団レコード"feat.結良まり;
#TITLETRANSLIT:Fuurin hanabi;
#ARTISTTRANSLIT:BEMANI Sound Team "Gekidan Record" feat. Mari Yura;
#BANNER:Fuurin hanabi.png;
#BACKGROUND:Fuurin hanabi-bg.png;
#CDTITLE:./CDTitles/DDR A.png;
#MUSIC:Fuurin hanabi.ogg;
#SAMPLESTART:64.8;
#SAMPLELENGTH:15;
#BPMS:0=150;
#NOTES:
     dance-single:
     :
     Beginner:
     2:
     :
0000
0000
0000
0000
,
0000
0000
0000
0000
,
0000
0000
0000
0000
,
0000
0000
0000
0000
,
0000
0000
0000
0000
,
0000
0000
0000
0000
,
0000
0000
0000
0010
,
0000
0000
1000
0000
,
0000
1000
0000
0000
,
0001
0000
0000
0001
,
0000
0000
1000
0000
,
0000
1000
0000
0000
,
0001
0000
0000
0001
,
0000
0000
0100
0000
,
0000
0100
0000
0000
,
0010
0000
0000
0010
,
0000
0000
0100
0000
,
0000
0100
0000
0000
,
0010
0000
0000
0010
,
0000
0000
1000
0000
,
0000
0001
0000
0000
,
1000
0000
0000
0001
,
0000
0000
1000
0000
,
0000
0001
0000
0000
,
1000
0000
0000
0001
,
0000
0000
0100
0000
,
0000
0010
0000
0000
,
0100
0000
0000
0010
,
0000
0000
0100
0000
,
0000
0010
0000
0000
,
0100
0000
0000
0010
,
0000
0000
1000
0000
,
0000
0000
0000
0000
,
0001
0000
0000
0000
,
0000
0000
0100
0000
,
0000
0010
0000
0000
,
0100
0000
0000
0000
,
0000
0000
0001
0000
,
0000
1000
0000
0000
,
0010
0000
0000
0010
,
0000
0000
1000
0000
,
0001
0001
0000
0000
,
1000
0000
0001
0001
,
0000
0000
0100
0000
,
0000
0010
0000
0000
,
0100
0000
0000
0010
,
0000
0000
0001
0000
,
1000
1000
0000
0000
,
0001
0000
1000
1000
,
0000
0000
0010
0000
,
0000
0100
0000
0000
,
0010
0000
0000
0100
,
0000
0000
0001
0000
,
0000
0000
0000
0000
,
1000
0000
0000
0000
,
0000
0000
0001
0000
,
0000
0000
0000
0000
,
1000
0000
0000
0000
,
0000
0000
0001
0000
,
1000
1000
0000
0000
,
0001
0000
1000
1000
,
0000
0000
0010
0000
,
0000
0100
0000
0000
,
0010
0000
0000
0100
,
0000
0000
1000
0000
,
0001
0001
0000
0000
,
1000
0000
0001
0001
,
0000
0000
0100
0000
,
0000
0010
0000
0000
,
0100
0000
0000
0010
,
0000
0000
0100
0000
,
0000
0010
0000
0000
,
0000
0000
0000
0000
;
#NOTES:
     dance-single:
     :
     Easy:
     5:
     :
0000
0000
0000
0000
,
0000
0000
0000
0000
,
0000
0000
0000
0000
,
0000
0000
0000
0000
,
0000
0000
0000
0000
,
0000
0000
0000
0000
,
0000
0000
0000
0100
,
0000
0000
0001
0001
,
0010
1000
1000
0010
,
0001
0001
0010
1000
,
1000
0010
1000
0100
,
0010
0001
0100
0010
,
1000
0000
0001
0100
,
0000
0010
0001
0001
,
0010
1000
1000
0010
,
0001
0001
0010
1000
,
1000
0010
0001
0000
,
1001
0010
0000
0110
,
1000
0100
0010
0110
,
0000
0000
0001
0000
,
1000
1000
0000
0001
,
0001
0000
0100
0100
,
0000
0010
0010
0000
,
0100
0100
0000
0001
,
1000
0100
0010
0001
,
0000
0000
1000
0000
,
0001
0001
0000
0100
,
0100
0000
0010
0010
,
0000
1000
1000
0000
,
0001
0001
0000
0010
,
0001
0010
0100
1000
,
0000
0001
0200
0000
,
0310
2000
0000
3001
,
0200
0000
0310
1000
,
0001
0000
0001
0010
,
0100
1000
0010
0100
,
0001
0100
0010
1000
,
0001
0000
0200
0001
,
0301
0020
1000
1030
,
0001
1000
0001
1001
,
0000
0000
0001
1000
,
0010
1000
1000
0000
,
0010
1000
0001
0100
,
0000
0000
0010
1000
,
0001
0010
0001
1000
,
0020
0000
0030
0200
,
0000
0300
0010
1000
,
0001
0100
0100
0000
,
0001
1000
0010
0100
,
0000
0000
0001
0100
,
0100
1000
0100
0100
,
0010
0100
0100
2002
,
0000
3003
0010
0000
,
0000
0100
0000
0000
,
0001
0000
0000
1000
,
0000
0000
0010
0010
,
0010
0100
0100
0100
,
0001
0100
1000
0100
,
0100
0000
0001
0100
,
0010
1000
0100
0000
,
0010
1000
0001
0100
,
0000
0000
0010
0001
,
1000
0100
1000
0001
,
0010
0001
1000
0200
,
0000
0300
0010
0001
,
1000
0010
0001
0000
,
1000
0100
0010
0001
,
0000
0000
1000
0000
,
0001
0001
0000
0100
,
0010
0000
0000
0010
,
0000
0000
0010
0000
,
0000
0010
0000
0000
,
0000
0000
0000
0000
;
#NOTES:
     dance-single:
     :
     Medium:
     8:
     :
0000
0000
0000
0000
,
0000
0000
0000
0000
,
0000
0000
0000
0000
,
0000
0000
0000
0000
,
0000
0000
0000
0000
,
0000
0000
0000
0000
,
1000
0100
0010
0001
,
0000
0000
1000
0001
,
0100
0010
0100
0000
0001
0000
1000
0100
,
1000
0000
0001
0000
0100
0010
0100
0000
,
0001
0000
1000
0010
2000
0000
0100
0000
,
3010
0000
0002
0000
1000
0000
0103
0010
,
0100
0001
1000
0001
,
0100
0001
0010
0000
0001
0000
1000
0000
,
0010
0100
0010
0000
1000
0000
0001
0100
,
0001
0000
1000
0000
0010
1000
0010
0000
,
1000
0000
0001
0010
0002
0000
1000
0000
,
0013
2000
0001
3100
,
0010
0100
0001
0000
1000
0000
0001
1000
,
0000
0000
1000
0000
,
0001
0100
0000
0010
,
1000
0000
0001
0100
,
0000
0010
1000
0100
,
0001
1000
0100
0001
,
0010
0100
0001
1000
,
0000
0000
0001
0000
,
1000
0010
0000
0100
,
0001
0000
1000
0010
,
0000
0100
0001
0010
,
1000
0001
0010
1000
,
0001
0100
0010
1000
,
0000
0000
0010
0010
,
0100
1001
0100
0010
,
1000
0001
0100
1001
,
0010
0000
0010
0000
1000
0001
0010
0000
,
0100
0000
0001
1000
0010
0000
0100
0000
,
0001
0000
1000
0000
0010
0100
0001
0000
,
1000
0010
0001
0100
,
0110
1000
0100
0110
,
0011
0110
1100
2002
,
0000
0000
3003
0000
0001
0100
0010
0000
,
1000
0000
0001
0010
0001
0000
0000
0000
,
1000
0100
0010
0000
0001
0000
1000
0000
,
0000
0000
0001
0100
0001
0000
0001
0000
,
1000
0100
0100
0010
,
0001
0000
0010
0000
0100
0000
1000
0001
,
0100
0010
0000
0000
1000
0100
0010
0000
,
0001
0000
1000
0010
1000
0000
0000
0000
,
0001
0100
0010
0000
1000
0000
0010
0000
,
0000
1000
0001
0100
,
0010
0001
0100
0010
,
2000
0000
0000
3001
,
0000
0000
0010
1000
,
0001
0010
0001
0000
0000
0000
0000
0000
,
0010
0000
0001
0000
1000
0100
1000
0000
,
0000
0001
1000
0010
,
0100
0001
0010
0100
,
1000
0001
0100
0010
1000
0001
0100
0000
,
0000
0000
0000
0000
0010
1000
0001
0000
,
0100
0000
0010
0100
0010
0000
0000
0000
,
0100
0001
1000
0000
0100
0000
0010
0000
,
0000
0010
0001
1000
,
0100
0000
0001
0000
1000
0000
0100
0010
,
0002
1000
0100
0010
,
0103
0000
0000
0000
1000
0100
0010
0000
,
0001
0000
1000
0010
0100
0000
0000
0000
,
0001
0100
0010
0000
1000
0000
0100
0000
,
0000
0010
0001
1000
,
0010
0001
1000
0010
,
0200
0010
0000
0000
,
0010
0000
0000
0010
,
0000
0000
0000
0000
0010
0000
0000
0300
,
0000
0000
0000
0000
;
#NOTES:
     dance-single:
     :
     Hard:
     10:
     :
0000
0000
0000
0000
,
0000
0000
0000
0000
,
0000
0000
0000
0000
,
0000
0000
0000
0000
,
0000
0000
0000
0000
,
0000
0000
0000
0000
,
1000
0001
0100
0010
,
0000
0000
0000
0000
0001
0000
1000
0001
,
1000
0010
0100
0000
0001
0000
1000
0100
,
0010
0000
0001
0100
0010
1000
0001
0000
,
0100
0000
0001
0100
0010
0000
1000
0000
,
0010
1000
0100
0000
0010
0001
1000
0100
,
0010
0001
1100
0010
,
1000
0000
0101
0000
1000
0000
0001
0100
,
0010
1000
0100
0000
0010
0000
0001
0010
,
0100
0000
1000
0010
0100
0010
1000
0000
,
0001
0000
0100
0010
1000
0000
0001
0000
,
0100
0001
0010
0000
0001
1000
0010
0100
,
0001
1000
0100
0010
0001
0001
0100
0010
,
0000
0000
0001
1000
,
0101
1000
0001
1100
,
0010
0000
0100
0000
1000
0001
0010
0000
,
0001
0000
1000
0010
0100
0000
0001
0000
,
0100
0000
0100
0000
1000
0000
0100
0010
,
0002
1000
0100
0013
,
1000
1001
1000
0001
,
1100
0001
1000
0101
,
0010
0000
0100
0000
0001
1000
0010
0000
,
1000
0000
0001
0010
0100
0000
1000
0000
,
0100
0000
0100
0000
0001
0000
0100
0010
,
2000
0001
0100
3010
,
0001
0000
0000
0000
0100
0000
0010
0000
1000
0000
0000
0010
0000
0000
0110
0000
,
0000
0100
1000
0000
0101
0000
0000
0000
,
0001
0000
0000
1000
0000
0000
0110
0000
0000
0000
0010
0000
0001
0000
0000
0000
,
1000
0000
0010
0100
2000
0000
3002
0000
,
0203
0320
2030
3200
,
0310
0000
0000
0001
0000
0000
0010
0000
0100
0000
0010
0000
0001
0000
0000
0000
,
0200
0000
0310
0000
1000
0001
0100
0000
,
1000
0000
0001
1000
0100
0000
0001
0000
,
1000
0100
1000
0001
0100
0001
0020
0000
,
0030
0000
0110
0000
0001
0010
0001
0100
,
0010
1000
0100
0000
0010
0000
0001
0000
,
1000
0100
1000
0010
0100
0001
0010
0000
,
0001
0000
1000
0100
0020
0000
0001
0000
,
0130
0000
2000
0000
0000
3001
0100
0010
,
1000
0000
0001
0000
0011
0000
0100
0010
,
0001
1001
0000
0000
0001
0100
0001
0010
,
0100
1000
0100
0000
0010
0000
0001
0000
,
1000
0010
1000
0100
0010
0001
0010
0000
,
0100
0000
1000
0100
0020
0000
1000
0000
,
0100
0000
0031
0000
0100
0001
1000
0100
,
0010
0110
1010
0202
,
0303
0000
0110
0000
1000
0000
0001
0100
,
0010
1000
0200
0000
0000
0000
0310
0001
,
1000
0000
0010
0100
0001
1000
0020
0000
,
0000
0000
1030
0100
0010
0000
0001
0000
,
1000
0020
0000
0230
,
0301
0010
0001
0100
1000
0100
0001
0000
,
0000
0000
0010
0000
1000
0100
0010
0100
,
1000
0001
0010
0000
0100
0000
1000
0000
,
0001
0010
0100
0010
0001
1000
0100
0000
,
0010
0000
0001
0100
0020
0000
1000
0000
,
0001
0000
0130
0000
1000
0001
0010
0100
,
1000
0000
0001
0000
0100
0000
0010
1000
,
0100
0000
0011
0000
1000
0010
0001
0010
,
1000
0100
0010
0000
0001
0000
1000
0000
,
0001
0010
1000
0010
0001
1000
0100
0000
,
0010
0000
0001
0100
0020
0000
0000
0000
,
1030
0000
0200
0000
0000
0310
0001
1000
,
0100
0000
0002
0000
0000
0000
0103
1000
,
0010
0000
0100
0020
,
0000
0000
1030
0100
0010
0001
0010
0100
,
0000
0000
0000
0000
;
#NOTES:
     dance-double:
     :
     Easy:
     5:
     :
00000000
00000000
00000000
00000000
,
00000000
00000000
00000000
00000000
,
00000000
00000000
00000000
00000000
,
00000000
00000000
00000000
00000000
,
00000000
00000000
00000000
00000000
,
00000000
00000000
00000000
00000000
,
00000000
00000000
00000000
00000000
,
00000000
00000000
10000000
01000000
,
00010000
00001000
00000100
00000001
,
00001000
00000100
00010000
00001000
,
00100000
00010000
10000000
01000000
,
00010000
00001000
00000100
00000001
,
00001000
00000100
00000010
00000001
,
00000000
00001000
00000000
00000000
00000001
00000000
00000010
00000000
,
00001000
00010000
00100000
10000000
,
01000000
00010000
00001000
00000100
,
00000001
00001000
00000010
00000000
,
00001000
00000100
00000000
00010000
,
00001000
00000000
00000000
00000000
00000000
00000000
00100000
00100000
,
00000000
00000000
01000000
00000000
,
01000000
00010000
00000000
00010000
,
00100000
00000000
00100000
00001000
,
00000000
00001000
00010000
00000000
,
00010000
00000100
00000000
00000100
,
00000010
00000001
00000010
00000100
,
00000000
00001000
00000001
00000000
,
00000010
00000010
00000000
00001000
,
00001000
00000000
00010000
00010000
,
00000000
00100000
00100000
00000000
,
10000000
10000000
00000000
00010000
,
00010000
10000000
01000000
00100000
,
00000000
00000000
00020000
00000000
,
01030000
00002000
00000000
00013000
,
00000200
00000000
00001300
00000020
,
00000000
00000130
00000001
00000010
,
00000100
00010000
00001000
01000000
,
00100000
10000000
01000000
00010000
,
00001000
00010000
00200000
00001000
,
00301000
00020000
00000100
00030100
,
00010000
00001000
00010000
00011000
,
00000000
00000000
00100000
01000000
,
00010000
10000000
00100000
00000000
,
10000000
01000000
00100000
00001000
,
00000000
00010000
00001000
00000100
,
00000001
00000010
00000001
00001000
,
00000100
00010000
00001000
00100000
,
00000000
00010000
10000000
00010000
,
01000000
00010000
00100000
00000000
,
00001000
00000100
00000001
00000010
,
00000000
00000001
00001000
00000100
,
00010000
00001000
00100000
00010000
,
10000000
01000000
00100000
10010000
,
00000000
00000000
00100000
00000000
,
00000000
00010000
00000000
00000000
,
00001000
00000000
00000000
00000100
,
00000000
00000000
00000010
00000010
,
00000100
00010000
00010000
00001000
,
00100000
00010000
01000000
00100000
,
00100000
00000000
10000000
01000000
,
00010000
00001000
00000100
00000000
,
00000001
00000100
00001000
00010000
,
00000000
10000000
00010000
01000000
,
00100000
10000000
00010000
00100000
,
00001000
00010000
00000010
00001000
,
00000000
00000000
00000001
00000010
,
00001000
00010000
00100000
00000000
,
10000000
00100000
00010000
00001000
,
00000000
00000100
00000001
00001000
,
00000100
00010000
00001000
00100000
,
00010000
00000000
00000000
00010000
,
00000000
00000000
00001000
00000000
,
00000000
00001000
00000000
00000000
,
00000000
00000000
00000000
00000000
;
#NOTES:
     dance-double:
     :
     Medium:
     8:
     :
00000000
00000000
00000000
00000000
,
00000000
00000000
00000000
00000000
,
00000000
00000000
00000000
00000000
,
00000000
00000000
00000000
00000000
,
00000000
00000000
00000000
00000000
,
00000000
00000000
00000000
00000000
,
00001000
00010000
01000000
10000000
,
00000000
00000000
00010000
01000000
,
00100000
01000000
00100000
00000000
10000000
00000000
00010000
00100000
,
00010000
00000000
01000000
00000000
00001000
00010000
00001000
00000000
,
00010000
00000000
00000100
00001000
00000200
00000000
00000010
00000000
,
00001300
00000000
00000002
00000000
00001000
00000000
00000103
00000010
,
00000100
00000001
00001000
00000100
,
00010000
00001000
00100000
00010000
,
10000000
01000000
10000000
00000000
00010000
00000000
01000000
00100000
,
01000000
00000000
00001000
00000000
00010000
00001000
00010000
00000000
,
00000100
00000000
00001000
00000001
00001000
00000000
00000010
00000000
,
00000100
00000001
00001000
00000100
,
00010000
00000000
01000000
00000000
10000000
00000000
00100000
00100000
,
00000000
00000000
01000000
00000000
,
10000000
01000000
00000000
00010000
,
00001000
00000000
00000100
00000001
,
00000000
00001000
00000001
00000100
,
00000010
00010000
00001000
01000000
,
00100000
10000000
00010000
01000000
,
00000000
00000000
00100000
00000000
,
10000000
00010000
00000000
00100000
,
00001000
00000000
00010000
00000100
,
00000000
00001000
00000001
00000010
,
00001000
00010000
01000000
10000000
,
00100000
01000000
00010000
10000000
,
00000000
00000000
00100000
00100000
,
01000000
01001000
00010000
00000100
,
00001000
00001000
00000010
00001001
,
00000100
00000000
00001000
00000000
00000100
00010000
00001000
00000000
,
00100000
00000000
01000000
10000000
00010000
00000000
01000000
00000000
,
00100000
10000000
01000000
00010000
,
00001000
00000100
00000001
00001000
,
00001100
00010000
00001000
00011000
,
00110000
00110000
00011000
00022000
,
00000000
00000000
00033000
00000000
00001000
01000000
00100000
00000000
,
10000000
00010000
00100000
00000000
,
00001000
00010000
00000100
00000000
00001000
00000000
00000001
00000000
,
00000000
00000000
00001000
00000001
00000010
00000000
00001000
00000000
,
00010000
00000000
00001000
00000000
00100000
00000000
00010000
10000000
,
00100000
01100000
00001000
00011000
,
00000000
00000100
00000000
00000000
00001000
00000001
00000100
00000000
,
00000010
00010000
00001000
00000000
,
00100000
00001000
01000000
00000000
00010000
00000000
00100000
00000000
,
00000000
01000000
10000000
00010000
,
00100000
00001000
00010000
00000100
,
00001100
00011000
00110000
02200000
,
00000000
03300000
00010000
10000000
,
00100000
00010000
00000000
00001000
,
00000010
00000001
00001000
00000010
,
00000000
00000100
00001000
00010000
,
00010000
00001000
00010000
00100000
,
10000000
00010000
01000000
00001000
00100000
00001000
00010000
00000000
,
00000000
00000000
00100000
00000000
10000000
01000000
00010000
00000000
,
00001000
00000100
00000001
00000000
,
00000001
00000100
00001000
00000000
00010000
00000000
01000000
00000000
,
00000000
00000000
10000000
00010000
,
00100000
00000000
00001000
00000000
00010000
00000000
00000100
00001000
,
00000001
00000100
00000010
00001000
,
00000000
00000000
00000000
00000000
00000001
00000010
00001000
00000000
,
00010000
00100000
10000000
00000000
,
10000000
00100000
00010000
00000000
00001000
00000000
00000010
00000000
,
00000000
00000010
00000001
00000100
,
00001000
00010000
01000000
10000000
,
00200000
01000000
00000000
00000000
,
01000000
00000000
00000000
01000000
,
00000000
00000000
00000000
00000000
01000000
00000000
00000000
00300000
,
00000000
00000000
00000000
00000000
;
#NOTES:
     dance-double:
     :
     Hard:
     10:
     :
00000000
00000000
00000000
00000000
,
00000000
00000000
00000000
00000000
,
00000000
00000000
00000000
00000000
,
00000000
00000000
00000000
00000000
,
00000000
00000000
00000000
00000000
,
00000000
00000000
00000000
00000000
,
00010000
00001000
00000010
00000001
,
00000000
00000000
00000000
00000000
00000001
00000000
00001000
00000100
,
00010000
00001000
00100000
00000000
00010000
00000000
01000000
00100000
,
10000000
00000000
01000000
00100000
00001000
00010000
00000100
00000000
,
00001000
00000000
00000001
00001000
00000010
00000000
00001000
00000000
,
00000100
00010000
00001000
00000000
00010000
00001000
00100000
00010000
,
01000000
00100000
01010000
00100000
,
00001000
00000000
00010100
00000000
00001000
00000000
00000010
00001000
,
00000100
00010000
00001000
00000000
00100000
00000000
00010000
10000000
,
00100000
00000000
01000000
00010000
00100000
00001000
00010000
00000000
,
00001000
00000000
00000100
00000001
00001000
00000000
00000010
00000000
,
00001000
00000100
00000010
00000000
00001000
00010000
01000000
10000000
,
00010000
00100000
01000000
10000000
00010000
00010000
01000000
00100000
,
00000000
00000000
10000000
00010000
,
00110000
00001000
00010000
00010100
,
00000001
00000000
00001000
00000000
00000010
00001000
00000001
00000000
,
00001000
00000000
00000100
00010000
00001000
00000000
00100000
00000000
,
00010000
00000000
01000000
00000000
00100000
00000000
10000000
01000000
,
00200000
01000000
00010000
00301000
,
00000100
00000010
00000001
00001000
,
00001010
00010000
00001000
01001000
,
10000000
00000000
00010000
00000000
00100000
00010000
10000000
00000000
,
00010000
00000000
01000000
00001000
00010000
00000000
00000010
00000000
,
00001000
00000000
00000100
00000000
00000010
00000000
00000001
00000100
,
00000020
00000100
00001000
00010030
,
01000000
00000000
00000000
00000000
00100000
00000000
00000000
00000000
00010000
00000000
00000000
00100000
00000000
00000000
00001000
00000000
,
00000000
00010000
00001000
00000000
00010000
00000000
01000000
00000000
,
00100000
00000000
00000000
00001000
00000000
00000000
00010000
00000000
00000000
00000000
00001000
00000000
00000100
00000000
00000000
00000000
,
00000010
00000100
00000002
00000203
,
00002300
00023000
02030000
23000000
,
30200000
00010000
01000000
10300000
,
00010000
00000000
01000000
00000000
10100000
00000000
01000000
00010000
,
00100000
00001000
00000100
00000001
,
00000110
00001100
00011000
00110000
,
00000000
00000000
00010000
00000000
10000000
01000000
00010000
00001000
,
00000100
00000001
00000010
00000000
00000100
00000000
00001000
00000000
,
00000001
00000100
00001000
00010000
01000000
10000000
00100000
00000000
,
01000000
00000000
00010000
00100000
00010000
00000000
10000000
00000000
,
00110000
00001000
00010000
00001100
,
00000001
00000010
00000100
00001000
00000001
00000000
00001000
00000000
,
00000100
00000020
00000000
00000000
00000031
00000100
00001000
00010000
,
01000000
10000000
00100000
00000000
01000000
00000000
00010000
00000000
,
10000000
01000000
00010000
00001000
00000100
00000001
00000010
00000000
,
00000100
00000000
00001000
00000010
00000100
00000000
00000001
00000000
,
00001100
00010000
00001000
00110000
,
10000000
01000000
00100000
00010000
01000000
00100000
02000000
00000000
,
00000000
03010000
10000000
01000000
,
01000000
00010000
00001000
00001000
,
00000010
00000001
00000001
00001000
,
00000010
00000010
00001000
00010100
,
00011000
01000000
10100000
10010000
,
00100000
00010000
00100000
00001000
00010000
00001000
00100000
00000000
,
00000000
00000000
00010000
00000000
10000000
00100000
00010000
00001000
,
00000010
00000001
00000100
00000000
00000010
00000000
00001000
00000000
,
00000001
00000010
00001000
00010000
00100000
10000000
00010000
00000000
,
01000000
00000000
00100000
10000000
00010000
00000000
10000000
00000000
,
01000000
00000000
00010000
00000000
00001000
00000100
00000001
00000010
,
00000001
00000000
00001000
00000000
00000100
00000000
00010000
00001000
,
00100000
00000000
01000000
00000000
10000000
00100000
00010000
00001000
,
00000100
00000001
00000010
00000000
00000001
00000000
00001000
00000000
,
00000001
00000100
00001000
00010000
00100000
10000000
01000000
00000000
,
00100000
00010000
10000000
01000000
,
01000000
00000000
00010000
00000000
00001000
00000000
00001000
00000100
,
00000001
00000010
00000000
00001000
,
00000100
00000000
00010000
00001000
,
00000000
01000000
00100000
00000000
,
00000000
00000000
00000000
00000000
;
