
//----- song ID: firs -----//
#TITLE:First Time;
#ARTIST:BEMANI Sound Team "Metal Stepper";
#BANNER:First Time.png;
#BACKGROUND:First Time-bg.png;
#CDTITLE:./CDTitles/DDR A.png;
#MUSIC:First Time.ogg;
#SAMPLESTART:56.547;
#SAMPLELENGTH:15;
#DISPLAYBPM:70:140;
#BPMS:0=140,111.5=70,112.5=140,142=70,142.5=140,158.5=70,159=140,173.5=560,179.5=140,186=93.333,187=140,194=70,194.5=140;
#STOPS:66.4375=0.643,94.5=0.429,127.5=0.214;
#NOTES:
     dance-single:
     :
     Beginner:
     4:
     :
0000
0000
0000
0000
,
0000
0000
0000
0000
,
0000
0000
0000
0000
,
0000
0000
0000
0000
,
0000
0000
0000
0000
,
0001
0000
0000
0000
,
0000
0000
0000
0000
,
1000
0000
0000
0000
,
0000
0000
0000
0000
,
0010
0000
0000
0000
,
0010
0000
0000
0000
,
0001
0000
0000
0000
,
0001
0000
0000
0000
,
1000
0000
0000
0000
,
1000
0000
0000
0000
,
0001
0000
0001
0000
,
0002
0000
0000
0000
0000
0000
0000
0000
0000
0000
0000
0000
0000
0000
0000
0000
0000
0000
0000
0000
0000
0000
0000
0000
0000
0000
0000
0000
0000
0000
0000
0000
0000
0000
0000
0000
0000
0000
0000
0003
0000
0000
0000
0000
0000
0000
0000
0000
0000
0000
0000
0000
0000
0000
0000
0000
0000
0000
0000
0000
0000
0000
0000
0000
,
0000
0010
0000
0000
0000
1000
0000
0000
,
0000
0000
0000
0000
0000
0001
0000
0000
,
0000
0001
0000
0000
0000
0100
0000
0000
,
0000
0000
0000
0000
0000
1000
0000
0000
,
0000
1000
0000
0000
0000
0100
0000
0000
,
0000
0000
0000
0000
0000
0010
0000
0000
,
0000
0010
0000
0000
0000
0100
0000
0000
,
0000
0000
0000
0001
0000
0000
0000
0001
,
0000
0000
0000
0000
0000
0000
0000
0001
,
0000
0000
0000
1000
0000
0000
0000
1000
,
0000
0000
0000
0000
0000
0000
0000
1000
,
0000
0010
0000
0000
0000
0010
0000
0000
,
0000
0000
0000
0000
0000
0010
0000
0000
,
0000
0100
0000
0000
0000
0100
0000
0000
,
0000
0200
0000
0000
0000
0300
0000
0000
,
0001
0000
0001
0000
,
1000
0000
1000
0000
,
0001
0000
0001
0000
,
0002
0000
0000
0000
0000
0003
0000
1000
,
0000
0000
0000
1000
0000
0000
0000
0010
,
0000
0000
0000
0010
0000
0000
0000
1000
,
0000
0000
0000
1000
0000
0000
0000
0001
,
0000
0000
0000
0001
0000
0000
0000
0000
,
0000
1000
0000
0001
,
0000
1001
0000
0000
,
0000
0001
0000
1000
,
0000
1001
0000
0000
,
0000
0000
0000
0000
,
0000
0000
0000
0010
0000
0000
0000
0010
,
0000
0000
0000
1001
0000
0000
0000
0000
,
0000
0100
0000
0100
,
0000
0000
1001
0000
0000
1000
0000
0000
,
0000
1000
0000
0000
0000
0010
0000
0000
,
0000
0010
0000
0000
0000
0001
0000
0000
,
0000
0001
0000
0000
0000
0100
0000
0000
,
0000
0100
0000
0000
0000
1000
0000
1000
,
0000
1000
0000
0000
0000
0001
0000
0001
,
0000
0001
0000
0000
0000
1000
0000
1000
,
0000
1000
0000
0000
0000
0010
0000
0010
,
0000
0010
0000
0010
0000
0010
0000
0010
,
0000
0010
0000
0010
0000
0000
0000
0000
,
0000
0000
0000
0000
;
#NOTES:
     dance-single:
     :
     Easy:
     7:
     :
0000
0000
0000
0000
,
0000
0000
0000
0000
,
0000
0000
0000
0000
,
0000
0000
0000
0000
,
0000
0000
0000
0000
,
0001
0000
0000
0000
,
0000
0000
0000
0000
,
1000
0000
0000
0000
,
0000
0000
0000
0000
,
1000
1000
0010
0000
,
0001
0001
1001
0000
,
0001
0001
0010
0000
,
1000
1000
1001
0000
,
1000
1000
0100
0000
,
0001
0001
1001
0000
,
0001
0001
0100
0000
,
1001
0000
0000
0000
0000
0010
0000
0000
,
0000
1001
0000
0000
0000
0010
0000
0010
,
0000
1000
0000
1000
0000
0100
0000
0010
,
0000
1001
0000
0000
0000
0010
0000
0010
,
0000
0001
0000
0001
0000
0100
0000
0010
,
0000
1001
0000
0000
0000
0010
0000
0010
,
0000
0100
0000
0100
0000
0010
0000
1000
,
0000
0000
0000
0000
1001
0000
0000
0000
0000
0000
0000
0000
0000
0000
0000
0000
0000
0000
0000
0000
0200
0300
0000
0000
0000
0000
0000
0000
0001
0000
0000
0000
,
0000
0001
0000
0001
0000
0100
0000
1000
,
0000
0100
0000
1000
0000
0100
0000
0001
,
0000
0000
0000
0001
0000
0010
0000
1000
,
0000
0010
0000
1000
0000
0010
0000
0002
,
0003
0100
0000
0100
0000
0100
0000
0100
,
0000
0001
0000
0001
0000
0001
0000
0001
,
0000
1000
0000
1000
0000
0010
0000
0001
,
0000
0000
0000
0000
0001
0000
0000
0000
0000
0000
0000
0000
0100
0000
0000
0000
0000
0000
0000
0000
0001
0000
0000
0000
0000
0000
0000
0000
2002
3003
0000
0000
,
1000
0100
1000
0100
,
1000
0001
0100
1000
,
0100
0001
0100
0001
,
0100
0000
0010
0000
0200
0310
0000
0010
,
0000
1000
0000
0010
0000
1000
0000
0001
,
0000
0010
0000
1000
0000
0010
0000
0001
,
0000
1000
0000
0010
0000
1000
0000
0100
,
0000
1000
0000
0110
0000
0001
2000
0000
,
0000
3010
0010
0002
,
0000
0013
0000
2000
,
0000
3100
0100
0002
,
0000
0100
0000
0000
,
0000
0000
0003
0000
0000
0000
0000
0100
,
0000
0000
0100
0001
0000
0010
0000
0002
,
0000
0100
0000
0103
0000
0000
0001
0000
,
0000
0001
1000
0000
0010
0000
2000
0000
,
0100
0000
3100
0000
0100
0100
0000
1000
,
0000
0100
0000
1000
0000
0010
0000
0100
,
0000
1000
0000
0100
0000
0001
0000
0010
,
0000
0001
0000
0010
0000
0100
0000
0010
,
0000
1000
0000
0010
0000
0001
0000
1000
,
0000
0100
0000
0001
0000
0100
0000
1000
,
0000
0010
0000
0100
0000
0001
0000
0010
,
0000
1000
0000
0010
0000
0010
0000
0001
,
0000
0100
0000
1000
0000
0010
0000
0010
,
0000
0001
0000
0110
0000
0000
0000
0000
,
0000
0000
0000
0000
;
#NOTES:
     dance-single:
     :
     Medium:
     11:
     :
0000
0000
0000
0000
,
0000
0000
0000
0000
,
0000
0000
0000
0000
,
0000
0000
0000
0000
,
0000
0000
0000
0000
0000
0000
0000
0001
,
0001
0000
0000
0000
,
0000
0000
0000
0000
0000
0000
0000
1000
,
1000
0000
0000
0000
,
0000
0000
0000
0000
,
1001
0100
0010
1000
,
0001
0000
0110
0000
1001
0000
0000
0010
,
0010
0001
1000
0001
,
0110
0000
1001
0000
1100
0000
0000
0001
,
0001
1000
0010
1000
,
0011
0000
0101
0000
1100
0000
0000
0100
,
0100
0001
0010
0100
,
2000
0000
0000
0000
0000
0000
0000
0000
0000
0000
0000
0000
0000
0000
0000
0000
0000
0000
0000
0000
0000
0000
0000
0000
0000
0000
0000
0000
0000
0000
0000
0000
0000
0000
0000
0000
0000
0000
0000
3000
1001
0000
0000
0000
0000
0000
0000
0000
0000
0000
0000
0000
0000
0000
0000
0000
0001
0000
0000
0000
0000
0000
0000
0000
,
1000
0001
0000
1000
1000
0100
0010
0010
,
0100
1000
0000
0100
0000
1001
0000
1000
,
0001
1000
0000
0001
0001
0100
0010
0010
,
0100
0001
0000
0100
0000
0110
0000
1000
,
0010
1000
0000
0100
1000
0100
1000
0100
,
0001
0100
1000
0010
1000
0100
0110
0000
,
0001
0000
0000
0000
0100
0000
0000
0000
0001
0000
0000
0000
1000
0000
0000
0000
0010
0000
0000
0000
2000
3000
0000
0000
0001
0000
0000
0000
0010
0000
0000
0000
,
0010
0010
0000
1001
0000
0110
0000
1100
,
0000
0011
0000
1000
0001
0100
0010
0100
,
0000
0001
1000
1100
0000
0101
0000
0011
,
0000
0000
0110
0000
0000
0000
0001
0000
1000
0000
0100
0000
0010
0000
0001
0001
,
0001
0101
0000
1100
0000
0001
0100
0010
,
1000
1100
0000
0101
0000
1000
0010
0100
,
0001
0101
0000
1100
0000
1000
0010
0100
,
0001
0000
0000
0000
0100
0000
0000
0000
0010
0000
0000
0000
1000
0000
0000
0000
0100
0000
0000
0000
0001
0000
0000
0000
0100
0000
0000
0000
2100
3000
0000
0000
,
0001
0000
0100
0000
0010
0000
0100
0000
0001
0000
0000
1000
0010
0000
1000
0000
,
0100
0010
0100
1000
0001
0010
0110
0000
,
1000
0000
0010
0000
0100
0000
0010
0000
1000
0000
0000
0001
0100
0000
0001
0000
,
0010
0100
0010
0001
0020
0130
0000
0100
,
0010
0000
0001
0000
0100
0000
0010
0000
0000
1000
0100
0000
0010
0000
0001
0000
,
0101
0000
1100
0001
0100
1000
0100
0020
,
0000
0000
2000
0000
3030
0000
1010
0000
0000
1000
0001
0000
0010
0000
0001
0000
,
1000
0000
0100
0000
1000
0000
0001
0100
0001
0000
0101
0000
1001
0000
0000
0000
,
1000
0001
0011
0000
0001
0010
0100
0000
,
1000
0100
1100
0000
0000
0000
1001
0000
,
0001
1000
1010
0000
1000
0010
0100
0000
,
0001
0100
0102
0000
0000
0000
0000
0000
,
0000
0000
0000
0000
0000
0000
0000
0103
,
0000
0100
0001
0011
0000
0100
1000
0010
,
0000
0010
1000
0000
0001
0000
2001
0000
0000
0000
0000
0000
3010
0000
0000
0000
,
1000
0000
0100
0000
0110
0000
0000
0000
0100
0000
0010
0000
0001
0000
0000
1000
,
0001
0010
0011
0000
1001
0010
0100
1000
,
0000
0100
0001
0100
0010
1000
0100
0001
,
0000
0100
1000
0100
0010
0001
0010
1000
,
0000
0010
0001
0100
1000
0100
0001
0010
,
0000
0010
0001
1000
0100
1100
0001
1000
,
0001
1000
0010
0100
0001
0101
0010
0100
,
0010
1000
0001
0010
0100
1100
0001
0100
,
0001
0000
0010
0000
0001
0000
0100
0000
0010
0000
1000
0000
0100
0000
1000
0100
,
1000
0000
0001
0000
0100
0000
0001
0100
0001
0000
0010
0000
0100
0000
1000
0000
,
0010
0000
0001
0000
0010
0000
1000
0100
1000
0100
0000
0000
0000
0000
0000
0000
,
0000
0000
0000
0000
;
#NOTES:
     dance-single:
     :
     Hard:
     15:
     :
0000
0000
0000
0000
,
0000
0000
0000
0000
,
0000
0000
0000
0000
,
0000
0000
0000
0000
,
0000
0000
0000
0000
0000
0000
0000
1001
,
1100
0000
0000
0000
,
0000
0000
0000
0000
0000
0000
0000
1001
,
0101
0000
0000
0000
,
0000
0000
0000
0000
,
0110
0000
1000
0001
1000
0000
0001
0000
,
0010
0000
0000
0010
0100
0000
0010
0000
1001
0000
0000
0000
0001
0000
0010
0000
,
1100
0000
0010
0100
0101
0000
1000
0000
,
0001
0000
0000
0001
1000
0000
0001
0000
0110
0000
0000
0000
1000
0000
0010
0000
,
0101
0000
0010
0100
1100
0000
0001
0000
,
1000
0000
0000
1000
0001
0000
1000
0000
0110
0000
0000
0000
0100
0000
0001
0000
,
1010
0000
0100
0010
0011
0000
0110
0000
,
1200
0000
0000
0000
0000
0000
0000
0000
0000
0000
0000
0000
0000
0000
0000
0000
0000
0000
0000
0000
0000
0000
0000
0000
0000
0000
0000
0000
0000
0000
0000
0000
0000
0000
0000
0000
0000
0000
0000
0300
1001
0000
0000
0000
0000
0000
0000
0000
0000
0000
0000
0000
0000
0000
0000
0000
1000
0000
0000
0000
0000
0000
0000
0000
,
0010
0000
0101
0000
0000
0000
0100
0000
0001
0000
0011
0000
0000
1010
0000
0001
,
0100
0000
1100
0000
0000
0101
0000
0100
0001
0000
0011
0000
0000
0000
0001
0000
,
0100
0000
1010
0000
0000
0000
1001
0000
0000
0000
0011
0000
0000
1100
0000
1000
,
0010
0000
1010
0000
0000
0101
0000
0001
0010
0000
0011
0000
0000
0000
0001
0000
,
1000
0000
0011
0000
0000
0100
0000
0010
0100
0000
1001
0000
0000
0010
0000
0100
,
0010
0000
1001
0000
0000
0100
0000
0010
0100
0000
1001
0000
0102
0000
0000
0000
,
1003
0000
0001
0000
1000
0000
0001
0000
0010
0000
0001
0000
0010
0000
0100
0000
0010
0000
0100
0000
2000
3000
0100
0000
0010
0000
0001
0000
1000
0000
0010
0000
,
0100
0001
1000
0100
0010
0001
0100
0000
0000
0001
0100
0000
0010
0000
0100
0000
,
0010
0000
0100
0000
1000
0000
0100
0000
0000
0101
0000
0000
0110
0000
0101
0000
,
0000
0000
0010
0000
1000
0000
0100
0000
0000
0100
0010
0000
0001
0000
0010
0000
,
0100
0000
0000
0000
0010
0000
0000
0000
1000
0000
0000
0000
0010
0000
0000
0000
0000
0000
0110
0000
0000
0000
0000
0000
0011
0000
0000
0000
0010
0001
0100
0010
,
1000
0100
1100
0000
0000
0110
0000
0000
1100
0000
0001
0000
0100
0010
0100
0000
,
0100
1000
0100
0000
0000
0110
0000
0000
0011
0000
1000
0010
0100
0010
0100
0000
,
0001
0000
0100
0010
0100
0010
1000
0000
0001
0010
0001
0010
0100
1000
0100
0000
,
1000
0000
0000
0000
0001
0000
1000
0000
0001
0000
0100
0000
0010
0000
0100
0000
0001
0000
1000
0000
0001
0000
1000
0000
0100
0000
0010
0000
0210
0300
0000
0000
,
1000
0000
0100
0000
0001
0000
0100
0000
1000
0000
0001
0010
0100
0000
1000
0000
,
1001
0000
0110
0000
0101
0000
1000
0001
1000
0000
0010
0100
0010
0000
0100
0000
,
0001
0000
0100
0000
1000
0000
0100
0000
0001
0000
1000
0010
0100
0000
0001
0000
,
1001
0000
0110
0000
1100
0000
0001
1000
0010
0000
0011
0000
0000
0000
0010
0000
,
0100
0000
0001
0000
0100
0000
0010
0000
1000
0100
0010
0000
0001
0000
0101
0000
,
0110
0000
1001
0000
1000
0001
1000
0000
0010
0100
0010
0000
0100
0000
0102
0000
,
0000
0000
0020
0000
0033
0000
0110
0000
1000
0100
0010
0000
0001
0000
1100
0000
,
0110
0000
1001
0000
0010
1000
0100
0010
0001
0100
0001
0000
0011
0000
0000
0000
,
1000
0100
1000
0100
0010
0000
0000
0000
1100
0000
0010
0000
0001
0000
0000
0001
,
1000
0000
0001
0000
0101
0000
0000
0001
0100
1000
0100
0000
0001
0000
0000
0000
,
0001
0010
0001
0010
0100
0000
0000
0000
0011
0000
0100
0000
1000
0000
0000
0100
,
0001
0100
2002
0000
0000
0000
0000
0000
,
0000
0000
0000
0000
0000
3003
0000
0110
,
0000
0110
0000
0000
0110
0000
0010
0100
0001
1000
0100
0010
0001
0100
0101
0000
,
0000
0101
0000
0000
0101
0000
1001
0000
0200
0000
0000
0000
0310
0000
0000
1010
,
0000
0000
1010
0000
1000
0001
0100
0010
0100
0001
1000
0100
0110
0000
0000
0011
,
0000
0000
0000
0000
1010
0000
0000
0000
0110
0000
0000
0000
0000
0000
0000
0000
1001
0001
0010
0100
1000
0000
0000
0000
1000
0000
0100
0000
0010
0000
0000
0000
,
0100
0000
1000
0000
0001
0100
0010
0000
0100
0000
0001
0000
1000
0100
0010
0000
,
0100
0000
1000
0000
0001
0100
0010
0000
0100
0000
0001
0000
1000
0100
0001
0000
,
0100
0000
1000
0000
0001
0100
1000
0000
0100
0000
0001
0000
1000
0100
0001
0000
,
0100
0000
0010
0000
0001
1000
0010
0100
0001
0000
0100
0010
0100
0010
1000
0001
,
1000
0001
0010
0100
1000
0001
1000
0000
0110
0000
0100
0010
0100
0010
0001
1000
,
0001
1000
0010
0100
0001
1000
0001
0000
0110
0000
0001
1000
0001
1000
0010
0100
,
0010
0100
0001
0010
0001
0010
0100
1000
0100
1000
0001
0100
0010
1000
0001
0010
,
0100
1000
0010
0100
0001
0010
0100
1000
0001
1000
0100
0010
0001
0100
0010
1000
,
0001
0010
0100
1000
0010
0100
1000
0100
0001
0010
0000
0000
0000
0000
0000
0000
,
0000
0000
0000
0000
;
#NOTES:
     dance-single:
     :
     Challenge:
     18:
     :
0000
0000
0000
0000
,
0000
0000
0000
0000
,
0000
0000
0000
0000
,
0000
0000
0000
0000
,
0000
0000
0000
0000
0000
0000
0000
0110
,
1001
0000
0000
0000
,
0000
0000
0000
0000
0000
0000
0000
0110
,
1001
0000
0000
0000
,
0000
0000
0000
0000
,
1010
0000
0001
0010
0110
0000
1000
0100
,
0110
0000
0001
0010
0000
0001
1000
0000
0110
0000
0000
0000
0010
0000
1000
0000
,
0011
0000
1000
0010
0110
0000
0001
0100
,
0110
0000
0000
0000
0000
0000
1000
0000
0000
0010
0000
0000
0000
0000
0000
1000
0000
0000
0001
0000
0000
0000
0000
0000
0110
0000
0000
0000
0000
0000
0000
0000
0000
0000
0000
0000
1000
0000
0100
0000
0010
0000
0001
0000
0010
0000
0100
0000
,
1000
0000
0001
0100
0110
0000
1000
0010
,
0110
0000
0001
0100
0000
0001
1000
0000
1010
0000
0000
0000
0100
0000
1000
0000
,
0101
0000
1000
0100
0110
0000
0001
0010
,
0210
0000
0000
0000
0000
0000
0000
0000
0000
0000
0000
0000
0000
0000
0000
0000
0000
0000
0000
0000
0000
0000
0000
0000
0000
0000
0000
0000
0000
0000
0000
0000
0000
0000
0000
0000
0000
0000
0000
0300
1001
0000
0000
0000
0000
0000
0000
0000
0000
0000
0000
0000
0000
0000
0000
0000
0100
0000
0000
0000
0000
0000
0000
0000
,
0010
1000
0001
0000
1000
0100
0000
1000
0010
0000
1000
0100
1000
0100
0010
0001
,
0100
0010
1000
0100
1000
0100
0010
0001
0100
0010
1000
0000
0000
0000
0100
0000
,
0010
0001
1000
0000
0001
0100
0000
0001
0010
0000
0001
0100
0001
0100
0010
1000
,
0100
0000
0000
0010
0000
0000
0001
0000
0000
0100
0000
0000
0001
0000
0000
0100
0000
0000
0010
0000
1000
0000
0010
0000
1000
0000
0010
0000
1000
0000
0001
0000
0000
0000
0000
0000
0000
0000
0000
0000
0000
0000
1000
0000
0000
0000
0000
0000
,
0100
0010
0001
0000
0010
0100
0000
0010
1000
0000
0010
0001
0010
0001
1000
0010
,
0100
0001
1000
0100
0010
0001
1000
0001
0010
0100
1000
0001
0100
1000
0100
0001
,
1000
0000
0000
0000
0000
0000
0000
0000
0000
0000
0000
0000
0100
0000
0000
0000
0000
0000
0000
0000
0000
0000
0000
0000
0010
0000
0000
0000
0000
0000
0000
0000
0000
0000
0000
0000
1000
0000
0000
0000
0000
0000
0000
0000
0000
0000
0000
0000
0010
0000
0000
0000
0000
0000
0000
0000
0000
0000
0000
0000
0001
0000
0000
0000
0000
0000
0000
0000
0000
0000
0000
0000
0100
0000
0000
0000
0000
0000
0000
0000
0001
0000
0000
0000
0000
0000
0000
0000
0100
0000
0000
0000
0000
0000
0000
0000
0001
0000
0000
0000
0000
0000
0000
0000
0100
0000
0000
0000
0000
0000
0000
0000
0001
0000
0000
0000
0000
0000
0000
0000
2000
0000
0000
3000
0000
0000
0000
0000
0000
0000
0000
0000
0010
0000
0000
0000
0000
0000
0000
0000
0000
0000
0000
0000
1000
0000
0000
0000
0000
0000
0000
0000
0000
0000
0000
0000
0100
0000
0000
0000
0000
0000
0000
0000
0000
0000
0000
0000
0010
0000
0000
0000
0000
0000
0000
0000
0000
0000
0000
0000
0001
0000
0000
0000
0000
0000
0000
0000
0000
0000
0000
0000
,
0100
0010
0001
0010
1000
0001
1000
0000
0100
0000
0001
0000
0100
0000
1000
0000
,
1100
0000
0110
0000
0011
0000
0120
0000
0000
0100
0000
0000
0130
0000
2000
0000
,
0000
0000
0000
3001
0000
0000
1000
0100
0010
0001
0000
0000
0100
0000
0000
1000
0000
0000
0100
0000
0000
0001
0000
0000
,
0101
0000
0000
0000
0110
0000
0000
0000
1010
0000
0000
0000
0120
0000
0000
0000
0000
0000
0100
0000
0000
0000
0000
0000
0130
0000
0000
0000
0001
0100
0010
0100
,
0001
1000
0001
0010
0001
0010
0100
1000
0100
1000
0001
0100
0001
0100
0010
1000
,
0010
1000
0001
0100
0010
1000
0001
0010
0100
1000
0001
0100
0010
1000
0001
0010
,
0100
1000
0001
0100
1000
0100
0010
1000
0100
0010
0001
0010
1000
0010
0001
1000
,
0100
0000
0000
0000
0000
0000
0000
0000
0000
0000
0000
0000
0010
0000
0000
0000
0000
0000
0000
0000
0000
0000
0000
0000
0001
0000
0000
0000
0000
0000
0000
0000
0010
0000
0000
0000
0000
0000
0000
0000
0100
0000
0000
0000
0000
0000
0000
0000
1000
0000
0000
0000
0000
0000
0000
0000
0001
0000
0000
0000
0000
0000
0000
0000
0100
0000
0000
0000
0000
0000
0000
0000
0010
0000
0000
0000
0000
0000
0000
0000
1000
0000
0000
0000
0000
0000
0000
0000
0001
0000
0000
0000
0000
0000
0000
0000
0010
0000
0000
0000
0000
0000
0000
0000
0100
0000
0000
0000
0000
0000
0000
0000
1000
0000
0000
0000
0000
0000
0000
0000
0001
0000
0000
0000
0000
0000
0000
0000
0100
0000
0000
0000
0000
0000
0000
0000
0010
0000
0000
0000
0000
0000
0000
0000
1000
0000
0000
0000
0000
0000
0000
0000
0001
0000
0000
0000
0000
0000
0000
0000
0010
0000
0000
0000
0000
0000
0000
0000
0200
0000
0000
0300
0000
0000
0000
0000
0000
0000
0000
0000
0000
0000
0000
0000
0000
0000
0000
0000
0000
0000
0000
0000
,
1000
0100
0001
0010
0011
0110
1100
1001
,
0010
0000
0000
0000
0000
0000
1000
0000
0000
0001
0000
0000
0010
0000
0000
0000
0000
0000
0001
0000
0000
1000
0000
0000
0010
0000
0000
0100
0000
0000
0010
0000
0000
1000
0000
0000
0001
0000
0000
0000
0000
0000
0010
0000
0001
0000
0010
0000
,
0100
1000
0010
0001
1010
0110
0101
1001
,
0100
0000
0000
0000
1000
0000
0001
0000
0100
0000
0000
0000
0001
0000
1000
0000
0100
0010
0100
0010
0001
0000
0000
0000
1000
0000
0000
0000
0010
0000
0000
0000
,
0001
0010
1000
0101
0110
1010
1001
0010
,
0010
0000
0000
0000
0000
0000
0010
0000
0000
0000
0000
0000
1000
0000
0000
0100
0000
0000
0001
0000
0000
0000
0000
0000
0000
0000
0000
0100
0000
0000
1000
0000
0000
0000
0000
0000
0001
0000
0100
0000
0001
0000
2000
0000
0000
0000
0000
0000
,
0000
0000
0002
0000
3003
0000
0110
0000
1000
0100
0010
0000
0011
0000
1001
0000
,
0110
0000
0000
0000
0000
0000
1001
0000
0000
0000
0000
0000
0010
0000
1000
0000
0010
0000
0100
0000
0000
0001
0000
0000
0100
0000
0000
0001
0000
0000
1000
0000
0000
0000
0000
0000
0110
0000
0000
0000
0000
0000
0000
0000
0000
0000
0000
0000
,
0000
0000
0001
0100
1000
0000
0000
0000
0000
0000
0100
0001
1000
0000
0000
0100
,
0000
0000
0000
0000
0000
0000
0001
0000
0000
0000
0000
0000
0100
0000
0000
0000
0000
0000
1000
0000
0001
0000
1000
0000
0001
0000
0000
0100
0000
0000
0010
0000
0000
1000
0000
0000
0001
0000
0000
0000
0000
0000
0000
0000
0000
0000
0000
0000
,
0000
0000
1000
0010
0001
0000
0000
0000
0000
0000
0010
1000
0001
0000
0000
0010
,
0000
1000
0010
2002
0000
0000
0000
0000
,
0000
0000
0000
0000
0000
3003
0000
0110
,
1000
0100
0010
0000
0001
0000
0110
0000
0001
0100
0010
0000
1000
0000
0110
0000
,
1000
0100
0010
0000
0001
0000
0110
0000
2000
0000
0000
0000
3001
0000
0010
0001
,
1000
0000
1010
0000
0101
0000
0010
1000
0001
0000
0011
0000
1100
0000
0010
0001
,
1000
0000
0000
0000
1010
0000
0000
0000
0101
0000
0000
0000
0010
0000
0000
0000
1000
0010
0100
0001
1000
0000
0000
0000
0100
0000
0010
0000
0001
0000
0000
0000
,
0100
0010
1000
0000
0001
0100
0010
0100
1000
0100
0001
0000
1000
0100
0010
0000
,
0001
0000
0000
0100
0000
0000
0010
0000
0000
0000
0000
0000
1000
0000
0000
0100
0000
0000
0010
0000
0001
0000
0010
0000
0100
0000
1000
0000
0001
0000
0100
0000
0000
0000
0000
0000
0010
0000
0000
1000
0000
0000
0100
0000
0000
0000
0000
0000
,
0010
0001
0100
0000
0010
1000
0100
0010
1000
0010
0001
0000
1000
0100
0010
0001
,
0100
0000
1001
0000
0220
0000
0000
0000
0330
0000
0010
1000
0010
1000
0001
0100
,
0010
1000
0100
1000
0100
1000
0001
0010
0100
1000
0001
0100
0001
0100
0010
1000
,
0001
0010
0100
1000
0100
1000
0001
0100
0010
1000
0100
0010
0001
0100
0010
0001
,
0010
0000
0000
1000
0000
0000
0001
0000
0000
0100
0000
0000
0010
0000
0000
1000
0000
0000
0100
0000
0000
0001
0000
0000
0100
0000
0000
1000
0000
0000
0010
0000
1000
0000
0001
0000
0100
0000
0001
0000
1000
0000
0100
0000
0010
0000
0001
0000
,
1000
0010
0100
0001
1000
0100
0010
0001
1000
0010
0100
0001
1000
0100
0010
0001
0100
0010
1000
0100
0010
0001
0100
0010
,
1000
0100
0010
0001
0100
0010
1000
0100
0010
0001
0100
0010
1000
0100
0010
0000
0000
0000
0000
0000
0000
0000
0000
0000
,
0000
0000
0000
0000
;
#NOTES:
     dance-double:
     :
     Easy:
     7:
     :
00000000
00000000
00000000
00000000
,
00000000
00000000
00000000
00000000
,
00000000
00000000
00000000
00000000
,
00000000
00000000
00000000
00000000
,
00000000
00000000
00000000
00000000
,
00001000
00000000
00000000
00000000
,
00000000
00000000
00000000
00000000
,
00010000
00000000
00000000
00000000
,
00000000
00000000
00000000
00000000
,
00000010
00000010
00001000
00000000
,
00010000
00010000
00001000
00000000
,
00000100
00000100
00001000
00000000
,
00010000
00010000
00001000
00000000
,
00100000
00100000
00010000
00000000
,
00001000
00001000
00010000
00000000
,
01000000
01000000
00010000
00000000
,
00011000
00000000
00000000
00000000
00000000
00000010
00000000
00000000
,
00000000
00001001
00000000
00000000
00000000
00000100
00000000
00000100
,
00000000
00010000
00000000
00010000
00000000
01000000
00000000
00100000
,
00000000
10010000
00000000
00000000
00000000
00100000
00000000
00100000
,
00000000
00001000
00000000
00001000
00000000
00000010
00000000
00000100
,
00000000
00001001
00000000
00000000
00000000
00000100
00000000
00000100
,
00000000
00010000
00000000
00010000
00000000
00000010
00000000
00001000
,
00000000
00000000
00000000
00000000
00011000
00000000
00000000
00000000
00000000
00000000
00000000
00000000
00000000
00000000
00000000
00000000
00000000
00000000
00000000
00000000
00200000
00300000
00000000
00000000
00000000
00000000
00000000
00000000
00010000
00000000
00000000
00000000
,
00000000
00010000
00000000
00010000
00000000
01000000
00000000
10000000
,
00000000
01000000
00000000
10000000
00000000
01000000
00000000
00010000
,
00000000
00000000
00000000
00100000
00000000
00001000
00000000
00010000
,
00000000
00001000
00000000
00001000
00000000
00000010
00000000
00000002
,
00000003
00000100
00000000
00000100
00000000
00000100
00000000
00000100
,
00000000
00001000
00000000
00001000
00000000
00001000
00000000
00001000
,
00000000
00010000
00000000
00010000
00000000
00100000
00000000
00100000
,
00000000
00000000
00000000
00000000
10000000
00000000
00000000
00000000
00000000
00000000
00000000
00000000
01000000
00000000
00000000
00000000
00000000
00000000
00000000
00000000
10000000
00000000
00000000
00000000
00000000
00000000
00000000
00000000
20020000
30030000
00000000
00000000
,
10000000
00100000
10000000
00100000
,
01000000
00010000
01000000
10000000
,
01000000
00010000
00100000
00001000
,
00010000
00000000
00000100
00000000
00020000
00031000
00000000
00000010
,
00000000
00001000
00000000
00000010
00000000
00001000
00000000
00000001
,
00000000
00000100
00000000
00001000
00000000
00000100
00000000
00000010
,
00000000
00001000
00000000
00010000
00000000
01000000
00000000
00010000
,
00000000
00100000
00000000
01100000
00000000
00010000
00002000
00000000
,
00000000
01003000
01000000
00020000
,
00000000
00030100
00000000
00002000
,
00000000
00103000
00100000
00020000
,
00000000
00000010
00000000
00000000
,
00000000
00000000
00030000
00000000
00000000
00000000
00000000
00000010
,
00000000
00000000
00000010
00010000
00000000
00001000
00000000
02000000
,
00000000
00000000
00000000
03001000
00000000
00000000
00010000
00000000
,
00000000
00010000
00000010
00000000
00001000
00000000
00000200
00000000
,
00000000
00000000
00010300
00000000
00001000
00001000
00000000
00010000
,
00000000
00000100
00000000
00000010
00000000
00000100
00000000
00001000
,
00000000
00000001
00000000
00000100
00000000
00001000
00000000
00010000
,
00000000
00100000
00000000
01000000
00000000
00001000
00000000
00010000
,
00000000
01000000
00000000
10000000
00000000
00010000
00000000
10000000
,
00000000
01000000
00000000
00010000
00000000
01000000
00000000
00100000
,
00000000
00001000
00000000
00010000
00000000
00000010
00000000
00001000
,
00000000
00000001
00000000
00000100
00000000
00000001
00000000
00000010
,
00000000
00001000
00000000
00010000
00000000
00100000
00000000
10000000
,
00000000
01000000
00000000
01100000
00000000
00000000
00000000
00000000
,
00000000
00000000
00000000
00000000
;
#NOTES:
     dance-double:
     :
     Medium:
     11:
     :
00000000
00000000
00000000
00000000
,
00000000
00000000
00000000
00000000
,
00000000
00000000
00000000
00000000
,
00000000
00000000
00000000
00000000
,
00000000
00000000
00000000
00000000
00000000
00000000
00000000
00001000
,
00000100
00000000
00000000
00000000
,
00000000
00000000
00000000
00000000
00000000
00000000
00000000
00010000
,
01000000
00000000
00000000
00000000
,
00000000
00000000
00000000
00000000
,
00011000
00000010
00001000
00000001
,
00000100
00000000
00000110
00000000
00001010
00000000
00000000
00000100
,
00000100
00010000
00001000
00010000
,
01100000
00000000
10010000
00000000
11000000
00000000
00000000
00100000
,
00100000
00001000
00010000
00000100
,
00000011
00000000
00000101
00000000
00001100
00000000
00000000
00010000
,
00010000
00001000
00100000
00010000
,
20000000
00000000
00000000
00000000
00000000
00000000
00000000
00000000
00000000
00000000
00000000
00000000
00000000
00000000
00000000
00000000
00000000
00000000
00000000
00000000
00000000
00000000
00000000
00000000
00000000
00000000
00000000
00000000
00000000
00000000
00000000
00000000
00000000
00000000
00000000
00000000
00000000
00000000
00000000
30000000
10010000
00000000
00000000
00000000
00000000
00000000
00000000
00000000
00000000
00000000
00000000
00000000
00000000
00000000
00000000
00000000
00001000
00000000
00000000
00000000
00000000
00000000
00000000
00000000
,
00100000
01000000
00000000
10000000
10000000
01000000
00010000
00001000
,
00010000
00000010
00000000
00000010
00000000
00001001
00000000
00010000
,
00000010
00000100
00000000
00000001
00000001
00000100
00001000
00010000
,
00001000
00100000
00000000
00100000
00000000
01100000
00000000
10000000
,
01000000
10000000
00000000
01000000
00100000
00010000
00100000
00010000
,
00001000
00000100
00000000
00001000
00000010
00001000
00001001
00000000
,
00000001
00000000
00000000
00000000
00000100
00000000
00000000
00000000
00000010
00000000
00000000
00000000
00001000
00000000
00000000
00000000
00000100
00000000
00000000
00000000
00020000
00030000
00000000
00000000
01000000
00000000
00000000
00000000
10000000
00000000
00000000
00000000
,
10000000
00010000
00000000
00110000
00000000
00011000
00000000
00110000
,
00000000
01100000
00000000
10000000
01000000
00100000
01000000
10000000
,
00000000
00010000
01000000
01010000
00000000
00110000
00000000
00011000
,
00000000
00000000
00110000
00000000
00000000
00000000
00001000
00000000
00010000
00000000
00001000
00000000
00000100
00000000
00000010
00000010
,
00000010
00000101
00000000
00001100
00000000
00001000
00000100
00010000
,
00000000
00110000
00000000
10100000
00000000
10000000
00100000
01000000
,
00000000
01010000
00000000
00110000
00000000
00001000
00010000
00001000
,
00000010
00000000
00000000
00000000
00000100
00000000
00000000
00000000
00000010
00000000
00000000
00000000
00000001
00000000
00000000
00000000
00001000
00000000
00000000
00000000
00000001
00000000
00000000
00000000
00001000
00000000
00000000
00000000
00001200
00000300
00000000
00000000
,
00010000
00000000
00000100
00000000
00001000
00000000
00000010
00000000
00000100
00000000
00000000
00000001
00000100
00000000
00000001
00000000
,
00001000
00000100
00010000
00001000
00100000
00010000
00110000
00000000
,
00010000
00000000
01000000
00000000
00001000
00000000
01000000
00000000
00010000
00000000
00000000
10000000
01000000
00000000
10000000
00000000
,
00010000
01000000
00001000
00010000
00000010
00000010
00000000
00000100
,
00000001
00000100
00000001
00001000
00000100
00000000
00011000
00000000
,
00001000
00010000
00100000
10000000
01000000
00010000
00001000
00020000
,
00000000
00000000
00002000
00000000
00033000
00000000
00011000
00000000
00000000
00001000
00010000
00000000
00100000
00000000
00010000
00000000
,
00001000
00000100
00000010
00000100
00001000
00011000
01100000
00000000
,
00100000
10000000
10010000
00000000
00010000
01000000
00001000
00000000
,
00010000
00001000
00011000
00000000
00000000
00000000
00000110
00000000
,
00000010
00000001
00001001
00000000
00001000
00000100
00010000
00000000
,
00001000
00010000
00012000
00000000
00000000
00000000
00000000
00000000
,
00000000
00000000
00000000
00000000
00000000
00000000
00000000
00013000
,
00000000
00010000
01000000
11000000
00000000
01000000
10000000
00100000
,
00000000
00100000
10000000
00000000
00100000
00000000
02100000
00000000
00000000
00000000
00000000
00000000
03001000
00000000
00000000
00000000
,
00010000
00000000
00000100
00000000
00001100
00000000
00000000
00000000
00000010
00000000
00000001
00000000
00000100
00000000
00000000
00000100
,
00000001
00000010
00000110
00000000
00001001
00000100
00001000
00000001
,
00000000
00000010
00000001
00000010
00000100
00010000
00001000
00100000
,
00000000
01000000
10000000
00100000
01000000
00001000
00010000
00000100
,
00000000
00001000
00000100
00000010
00000100
00010000
00000010
00001000
,
00000000
00000001
00001000
00000010
00000100
00000110
00001000
00000010
,
00001000
00000100
00010000
00001000
00100000
00110000
01000000
00010000
,
01000000
00100000
10000000
01000000
10000000
10100000
01000000
00010000
,
00100000
00000000
00001000
00000000
00010000
00000000
00000010
00000000
00001000
00000000
00000001
00000000
00000100
00000000
00001000
00010000
,
00001000
00000000
00010000
00000000
01000000
00000000
10000000
01000000
10000000
00000000
01000000
00000000
00010000
00000000
00001000
00000000
,
00000010
00000001
00000100
00001000
00011000
00000000
00000000
00000000
,
00000000
00000000
00000000
00000000
;
#NOTES:
     dance-double:
     :
     Hard:
     15:
     :
00000000
00000000
00000000
00000000
,
00000000
00000000
00000000
00000000
,
00000000
00000000
00000000
00000000
,
00000000
00000000
00000000
00000000
,
00000000
00000000
00000000
00000000
00000000
00000000
00000000
00101000
,
00011000
00000000
00000000
00000000
,
00000000
00000000
00000000
00000000
00000000
00000000
00000000
00010010
,
00011000
00000000
00000000
00000000
,
00000000
00000000
00000000
00000000
,
00011000
00000000
01000000
00100000
01000000
00000000
00011000
00000000
,
00000100
00000000
00000000
00000100
00000010
00000000
00000100
00000000
00001001
00000000
00000000
00000000
00000001
00000000
00000100
00000000
,
00001000
00000000
00010000
01000000
10000000
00000000
10010000
00000000
,
00100000
00000000
00000000
00100000
01000000
00000000
00100000
00000000
01100000
00000000
00000000
00000000
10000000
00000000
01000000
00000000
,
00010000
00000000
00001000
00000100
00000001
00000000
00001100
00000000
,
00000110
00000000
00000000
00000100
00010000
00000000
00001000
00000000
00011000
00000000
00000000
00000000
00000010
00000000
00001000
00000000
,
00010000
00000000
00100000
00010000
00001000
00000000
00000110
00000000
,
00022000
00000000
00000000
00000000
00000000
00000000
00000000
00000000
00000000
00000000
00000000
00000000
00000000
00000000
00000000
00000000
00000000
00000000
00000000
00000000
00000000
00000000
00000000
00000000
00000000
00000000
00000000
00000000
00000000
00000000
00000000
00000000
00000000
00000000
00000000
00000000
00000000
00000000
00000000
00033000
00000110
00000000
00000000
00000000
00000000
00000000
00000000
00000000
00000000
00000000
00000000
00000000
00000000
00000000
00000000
00000000
00001000
00000000
00000000
00000000
00000000
00000000
00000000
00000000
,
00000010
00000000
00000101
00000000
00000000
00000000
00000001
00000000
00000100
00000000
00001100
00000000
00000000
00001000
00010000
00000000
,
01000000
00000000
01010000
00000000
00000000
00010000
00001000
00000000
00000100
00000000
00000001
00000000
00000000
00000000
00000001
00000000
,
00000010
00000000
00001100
00000000
00000000
00000000
00011000
00000000
00000000
00000000
01100000
00000000
00000000
00010000
00001000
00000000
,
00001000
00000000
00000110
00000000
00000000
00001000
00010000
00000000
00010000
00000000
00001000
00000000
00000000
00000000
00100000
00000000
,
00010000
00000000
01010000
00000000
00000000
00100000
10000000
00000000
00100000
00000000
01100000
00000000
00000000
00100000
00010000
00000000
,
00001000
00000000
00011000
00000000
00000000
00000100
00000001
00000000
00001000
00000000
00000001
00000000
00001200
00000000
00000000
00000000
,
00001300
00000001
00001000
00000001
00000010
00000001
00001000
00000001
00001000
00000100
00000010
01000000
00100000
00010000
10000000
01000000
,
10000000
00100000
01000000
00010000
00100000
00010000
01000000
00000000
00000000
00001000
01000000
00000000
00100000
00000000
01000000
00000000
,
00100000
00000000
01000000
00000000
10000000
00000000
01000000
00000000
00000000
01001000
00000000
00000000
00011000
00000000
00101000
00000000
,
00000000
00000000
01000000
00000000
00010000
00000000
00001000
00000000
00000000
00000010
00001000
00000000
00010000
00000000
00001000
00000000
,
00000100
00000000
00000000
00000000
00001000
00000000
00000000
00000000
00010000
00000000
00000000
00000000
00001000
00000000
00000000
00000000
00000000
00000000
01100000
00000000
00000000
00000000
00000000
00000000
00110000
00000000
00000000
00000000
00100000
00010000
00100000
00001000
,
00010000
00001000
00011000
00000000
00000000
00000110
00000000
00000000
00000101
00000000
00000010
00000000
00001000
00000100
00001000
00000000
,
00000010
00001000
00000010
00000000
00000000
00011000
00000000
00000000
00001100
00000000
00010000
00001000
00010000
00001000
00100000
00000000
,
00010000
00000000
01000000
00010000
01000000
00001000
00010000
00000000
00000100
00001000
00000100
00010000
00001000
01000000
00010000
00000000
,
10000000
00000000
00000000
00000000
00010000
00000000
10000000
00000000
00100000
00000000
01000000
00000000
00010000
00000000
01000000
00000000
00001000
00000000
00010000
00000000
00000010
00000000
00001000
00000000
00000001
00000000
00000100
00000000
00000002
00000003
00000000
00000000
,
00000100
00000000
00001000
00000000
00010000
00000000
00100000
00000000
10000000
00000000
00100000
01000000
00010000
00000000
00100000
00000000
,
00011000
00000000
00101000
00000000
00011000
00000000
00010000
00001000
00010000
00000000
01000000
00100000
01000000
00000000
10000000
00000000
,
01000000
00000000
00010000
00000000
00001000
00000000
00000010
00000000
00000001
00000000
00000010
00000100
00001000
00000000
00000100
00000000
,
00011000
00000000
00010100
00000000
00000110
00000000
00000010
00000001
00002000
00000000
00013000
00000000
00000000
00000000
00000010
00000000
,
00001000
00000000
00000100
00000000
00010000
00000000
01000000
00000000
00100000
00001000
00010000
00000000
00000100
00000000
00010100
00000000
,
00011000
00000000
00010100
00000000
00000100
00010000
00001000
00000000
00100000
00010000
00100000
00000000
00001000
00000000
00020000
00000000
,
00000000
00000000
00200000
00000000
00330000
00000000
01100000
00000000
00010000
01000000
00100000
00000000
10000000
00000000
11000000
00000000
,
01100000
00000000
10010000
00000000
00100000
10000000
01000000
00100000
00010000
00001000
00000100
00000000
00011000
00000000
00000000
00000000
,
00001000
00010000
00001000
00100000
00010000
00000000
00000000
00000000
11000000
00000000
00100000
00000000
00010000
00000000
00000000
00010000
,
00001000
00000000
00000100
00000000
00000101
00000000
00000000
00001000
00000001
00001000
00000100
00000000
00010000
00000000
00000000
00000000
,
00010000
01000000
00001000
00010000
00001000
00000000
00000000
00000000
00000110
00000000
00000010
00000000
00001000
00000000
00000000
00001000
,
00100000
00010000
20020000
00000000
00000000
00000000
00000000
00000000
,
00000000
00000000
00000000
00000000
00000000
30030000
00000000
01100000
,
00000000
01100000
00000000
00000000
01100000
00000000
00010000
00100000
00001000
00010000
00000010
00001000
00000100
00000000
00000110
00000000
,
00000000
00000110
00000000
00000000
00000110
00000000
00001001
00000000
00000200
00000000
00000000
00000000
00000301
00000000
00000000
00000110
,
00000000
00000000
00000110
00000000
00001000
00000100
00010000
00001000
00100000
00010000
01000000
00000000
01100000
00000000
00000000
01100000
,
00000000
00000000
00000000
00000000
00011000
00000000
00000000
00000000
00011000
00000000
00000000
00000000
00000000
00000000
00000000
00000000
00010000
00001000
00100000
01000000
10000000
00000000
00000000
00000000
01000000
00000000
00100000
00000000
01000000
00000000
00000000
00000000
,
00010000
00000000
00001000
00000000
00010000
00001000
00010000
00000000
00000010
00000000
00000100
00000000
00000001
00000100
00000010
00000000
,
00001000
00000000
00000100
00000000
00010000
00001000
00010000
00000000
01000000
00000000
10000000
00000000
01000000
00100000
00010000
00000000
,
00001000
00000000
00000010
00000000
00000100
00001000
00010000
00000000
00001000
00000000
00100000
00000000
01000000
00010000
00001000
00000000
,
00000010
00000000
00001000
00000000
00100000
00001000
00010000
00000010
00001000
00000000
00000010
00001000
00000010
00010000
00001000
01000000
,
00010000
01000000
00100000
10000000
00100000
10000000
01000000
00000000
00010000
00000000
00001000
00010000
00001000
00010000
00000100
00001000
,
00000001
00000010
00000001
00000010
00000100
00001000
00000100
00000000
00001100
00000000
00010000
00001000
00010000
00001000
00100000
00010000
,
00100000
00010000
10000000
00100000
10000000
00100000
01000000
00100000
01000000
00010000
00100000
00001000
00010000
00001000
01000000
00001000
,
00010000
00000100
00010000
00001000
00010000
00000010
00001000
00000001
00000100
00000010
00001000
00000001
00000010
00000100
00010000
00001000
,
00100000
00010000
01000000
00001000
00010000
00000010
00001000
00000100
00000010
00000001
00000000
00000000
00000000
00000000
00000000
00000000
,
00000000
00000000
00000000
00000000
;
#NOTES:
     dance-double:
     :
     Challenge:
     18:
     :
00000000
00000000
00000000
00000000
,
00000000
00000000
00000000
00000000
,
00000000
00000000
00000000
00000000
,
00000000
00000000
00000000
00000000
,
00000000
00000000
00000000
00000000
00000000
00000000
00000000
00000011
,
00001100
00000000
00000000
00000000
,
00000000
00000000
00000000
00000000
00000000
00000000
00000000
10100000
,
01010000
00000000
00000000
00000000
,
00000000
00000000
00000000
00000000
,
00000011
00000000
00001000
00000010
00000110
00000000
00000001
00000100
,
00001100
00000000
00010000
00001000
00000000
00100000
00010000
00000000
01100000
00000000
00000000
00000000
00010000
00000000
01000000
00000000
,
10100000
00000000
00010000
00100000
01100000
00000000
10000000
01000000
,
01010000
00000000
00000000
00000000
00000000
00000000
00001000
00000000
00000000
00010000
00000000
00000000
00000000
00000000
00000000
00000010
00000000
00000000
00001000
00000000
00000000
00000000
00000000
00000000
00000110
00000000
00000000
00000000
00000000
00000000
00000000
00000000
00000000
00000000
00000000
00000000
00000001
00000000
00000000
00000000
00000000
00000000
00001000
00000000
00000010
00000000
00000100
00000000
,
00000001
00000000
00001000
00000100
00000110
00000000
00000001
00000010
,
00001010
00000000
00010000
00001000
00000000
01000000
00010000
00000000
01100000
00000000
00000000
00000000
00010000
00000000
00100000
00000000
,
11000000
00000000
00010000
01000000
01100000
00000000
00100000
00010000
,
00022000
00000000
00000000
00000000
00000000
00000000
00000000
00000000
00000000
00000000
00000000
00000000
00000000
00000000
00000000
00000000
00000000
00000000
00000000
00000000
00000000
00000000
00000000
00000000
00000000
00000000
00000000
00000000
00000000
00000000
00000000
00000000
00000000
00000000
00000000
00000000
00000000
00000000
00000000
00033000
00000110
00000000
00000000
00000000
00000000
00000000
00000000
00000000
00000000
00000000
00000000
00000000
00000000
00000000
00000000
00000000
00001000
00000000
00000000
00000000
00000000
00000000
00000000
00000000
,
00000010
00000100
00000001
00000000
00000010
00000001
00000000
00001000
00000001
00000000
00000100
00000010
00000100
00000010
00010000
00001000
,
00100000
00010000
10000000
01000000
10000000
01000000
00100000
00001000
00010000
00000100
00000010
00000000
00000000
00000000
00000100
00000000
,
00000010
00000001
00000100
00000000
00000010
00000100
00000000
00000001
00001000
00000000
00000100
00000010
00000100
00000010
00001000
00010000
,
01000000
00000000
00000000
00100000
00000000
00000000
00010000
00000000
00000000
01000000
00000000
00000000
00010000
00000000
00000000
01000000
00000000
00000000
00100000
00000000
10000000
00000000
00100000
00000000
10000000
00000000
00100000
00000000
10000000
00000000
00010000
00000000
00000000
00000000
00000000
00000000
00000000
00000000
00000000
00000000
00000000
00000000
10000000
00000000
00000000
00000000
00000000
00000000
,
00100000
01000000
00010000
00000000
10000000
01000000
00000000
00100000
00010000
00000000
00001000
00010000
00001000
00010000
00001000
00000100
,
00000010
00000001
00000100
00000010
00000100
00000010
00010000
00001000
00100000
00010000
10000000
00100000
01000000
00001000
00010000
00000010
,
00001000
00000000
00000000
00000000
00000000
00000000
00000000
00000000
00000000
00000000
00000000
00000000
00000001
00000000
00000000
00000000
00000000
00000000
00000000
00000000
00000000
00000000
00000000
00000000
00000100
00000000
00000000
00000000
00000000
00000000
00000000
00000000
00000000
00000000
00000000
00000000
00000010
00000000
00000000
00000000
00000000
00000000
00000000
00000000
00000000
00000000
00000000
00000000
00001000
00000000
00000000
00000000
00000000
00000000
00000000
00000000
00000000
00000000
00000000
00000000
00000100
00000000
00000000
00000000
00000000
00000000
00000000
00000000
00000000
00000000
00000000
00000000
00000010
00000000
00000000
00000000
00000000
00000000
00000000
00000000
00000001
00000000
00000000
00000000
00000000
00000000
00000000
00000000
00000010
00000000
00000000
00000000
00000000
00000000
00000000
00000000
00000001
00000000
00000000
00000000
00000000
00000000
00000000
00000000
00000010
00000000
00000000
00000000
00000000
00000000
00000000
00000000
00000001
00000000
00000000
00000000
00000000
00000000
00000000
00000000
00002000
00000000
00000000
00003000
00000000
00000000
00000000
00000000
00000000
00000000
00000000
00000000
00000001
00000000
00000000
00000000
00000000
00000000
00000000
00000000
00000000
00000000
00000000
00000000
00000100
00000000
00000000
00000000
00000000
00000000
00000000
00000000
00000000
00000000
00000000
00000000
00000010
00000000
00000000
00000000
00000000
00000000
00000000
00000000
00000000
00000000
00000000
00000000
00000100
00000000
00000000
00000000
00000000
00000000
00000000
00000000
00000000
00000000
00000000
00000000
00001000
00000000
00000000
00000000
00000000
00000000
00000000
00000000
00000000
00000000
00000000
00000000
,
00010000
01000000
10000000
00010000
01000000
00100000
10000000
00000000
00100000
00000000
01000000
00000000
00100000
00000000
10010000
00000000
,
00001000
00000000
00011000
00000000
00000001
00000000
00000021
00000000
00000000
00001000
00000000
00000000
00000031
00000000
00001000
00000000
,
00000000
00000000
00000000
00000010
00000000
00000000
00010000
00001000
00010000
00001000
00000000
00000000
00000100
00000000
00000000
00000001
00000000
00000000
00000100
00000000
00000000
00001001
00000000
00000000
,
00010000
00000000
00000000
00000000
00011000
00000000
00000000
00000000
10000000
00000000
00000000
00000000
10200000
00000000
00000000
00000000
00000000
00000000
00010000
00000000
00000000
00000000
00000000
00000000
10300000
00000000
00000000
00000000
00010000
01000000
00010000
01000000
,
00100000
10000000
00010000
00100000
00010000
00100000
00001000
00010000
00000010
00001000
00000001
00000010
00000001
00000010
00000001
00000100
,
00000010
00001000
00000100
00010000
00000100
00010000
00001000
00100000
00010000
10000000
00010000
01000000
00010000
01000000
00100000
10000000
,
01000000
00100000
01000000
00010000
00001000
00000010
00000001
00001000
00000001
00000100
00001000
00010000
00100000
10000000
00010000
10000000
,
01000000
00000000
00000000
00000000
00000000
00000000
00000000
00000000
00000000
00000000
00000000
00000000
00100000
00000000
00000000
00000000
00000000
00000000
00000000
00000000
00000000
00000000
00000000
00000000
01000000
00000000
00000000
00000000
00000000
00000000
00000000
00000000
00100000
00000000
00000000
00000000
00000000
00000000
00000000
00000000
01000000
00000000
00000000
00000000
00000000
00000000
00000000
00000000
00100000
00000000
00000000
00000000
00000000
00000000
00000000
00000000
00010000
00000000
00000000
00000000
00000000
00000000
00000000
00000000
00100000
00000000
00000000
00000000
00000000
00000000
00000000
00000000
00001000
00000000
00000000
00000000
00000000
00000000
00000000
00000000
00010000
00000000
00000000
00000000
00000000
00000000
00000000
00000000
00001000
00000000
00000000
00000000
00000000
00000000
00000000
00000000
00010000
00000000
00000000
00000000
00000000
00000000
00000000
00000000
00000010
00000000
00000000
00000000
00000000
00000000
00000000
00000000
00001000
00000000
00000000
00000000
00000000
00000000
00000000
00000000
00000001
00000000
00000000
00000000
00000000
00000000
00000000
00000000
00000100
00000000
00000000
00000000
00000000
00000000
00000000
00000000
00000001
00000000
00000000
00000000
00000000
00000000
00000000
00000000
00000100
00000000
00000000
00000000
00000000
00000000
00000000
00000000
00000001
00000000
00000000
00000000
00000000
00000000
00000000
00000000
00000100
00000000
00000000
00000000
00000000
00000000
00000000
00000000
00000020
00000000
00000000
00000030
00000000
00000000
00000000
00000000
00000000
00000000
00000000
00000000
00000000
00000000
00000000
00000000
00000000
00000000
00000000
00000000
00000000
00000000
00000000
00000000
,
00000100
00000001
00000010
00000100
00001100
00011000
00110000
10010000
,
00100000
00000000
00000000
00000000
00000000
00000000
01000000
00000000
00000000
00010000
00000000
00000000
10000000
00000000
00000000
00000000
00000000
00000000
01000000
00000000
00000000
00100000
00000000
00000000
00010000
00000000
00000000
00001000
00000000
00000000
00010000
00000000
00000000
00100000
00000000
00000000
01000000
00000000
00000000
00000000
00000000
00000000
10000000
00000000
00010000
00000000
10000000
00000000
,
01000000
10000000
00100000
01000000
01010000
00011000
00001010
00001001
,
00000010
00000000
00000000
00000000
00000100
00000000
00001000
00000000
00000001
00000000
00000000
00000000
00001000
00000000
00000001
00000000
00000100
00000010
00000100
00000010
00001000
00000000
00000000
00000000
00000001
00000000
00000000
00000000
00000010
00000000
00000000
00000000
,
00001000
00010000
00001000
00101000
00011000
00010010
00011000
00010000
,
01000000
00000000
00000000
00000000
00000000
00000000
10000000
00000000
00000000
00000000
00000000
00000000
00010000
00000000
00000000
01000000
00000000
00000000
00100000
00000000
00000000
00000000
00000000
00000000
00000000
00000000
00000000
10000000
00000000
00000000
00010000
00000000
00000000
00000000
00000000
00000000
00100000
00000000
01000000
00000000
00100000
00000000
00002000
00000000
00000000
00000000
00000000
00000000
,
00000000
00000000
00020000
00000000
00033000
00000000
00001010
00000000
00000001
00000100
00000010
00000000
00001001
00000000
00001100
00000000
,
00011000
00000000
00000000
00000000
00000000
00000000
00110000
00000000
00000000
00000000
00000000
00000000
10000000
00000000
00010000
00000000
10000000
00000000
00100000
00000000
00000000
01000000
00000000
00000000
00100000
00000000
00000000
01000000
00000000
00000000
00010000
00000000
00000000
00000000
00000000
00000000
11000000
00000000
00000000
00000000
00000000
00000000
00000000
00000000
00000000
00000000
00000000
00000000
,
00000000
00000000
00010000
00001000
00000100
00000000
00000000
00000000
00000000
00000000
00000001
00001000
00000100
00000000
00000000
00000010
,
00000000
00000000
00000000
00000000
00000000
00000000
00000001
00000000
00000000
00000000
00000000
00000000
00001000
00000000
00000000
00000000
00000000
00000000
00000001
00000000
00000100
00000000
00000001
00000000
00001000
00000000
00000000
00000010
00000000
00000000
00010000
00000000
00000000
00001000
00000000
00000000
00100000
00000000
00000000
00000000
00000000
00000000
00000000
00000000
00000000
00000000
00000000
00000000
,
00000000
00000000
00001000
00010000
01000000
00000000
00000000
00000000
00000000
00000000
10000000
00010000
01000000
00000000
00000000
00100000
,
00000000
00010000
00001000
00022000
00000000
00000000
00000000
00000000
,
00000000
00000000
00000000
00000000
00000000
00033000
00000000
00011000
,
00001000
00000010
00000001
00000000
00001000
00000000
00000110
00000000
00000001
00000100
00001000
00000000
00010000
00000000
00011000
00000000
,
00010000
00100000
10000000
00000000
00010000
00000000
10010000
00000000
00200000
00000000
00000000
00000000
01300000
00000000
10000000
01000000
,
00010000
00000000
00001000
00000000
00000110
00000000
00000001
00000100
00001000
00000000
00010000
00000000
01100000
00000000
10000000
01000000
,
00010000
00000000
00000000
00000000
00001000
00000000
00000000
00000000
00000110
00000000
00000000
00000000
00000001
00000000
00000000
00000000
00001000
00000100
00000010
00000001
00001000
00000000
00000000
00000000
00000010
00000000
00001000
00000000
00000100
00000000
00000000
00000000
,
00000010
00000001
00000100
00000000
00000010
00001000
00010000
01000000
00100000
10000000
01000000
00000000
00100000
01000000
10000000
00000000
,
00100000
00000000
00000000
01000000
00000000
00000000
00010000
00000000
00000000
00000000
00000000
00000000
00100000
00000000
00000000
01000000
00000000
00000000
10000000
00000000
01000000
00000000
00100000
00000000
00010000
00000000
00100000
00000000
01000000
00000000
10000000
00000000
00000000
00000000
00000000
00000000
01000000
00000000
00000000
10000000
00000000
00000000
00100000
00000000
00000000
00000000
00000000
00000000
,
01000000
00010000
00100000
00000000
01000000
10000000
00100000
00010000
00001000
00000100
00000010
00000000
00001000
00000100
00000010
00000100
,
00001000
00000000
00001001
00000000
00000220
00000000
00000000
00000000
00000330
00000000
00001000
00000100
00000010
00000001
00000100
00000010
,
00000100
00000010
00010000
00001000
00100000
00010000
10000000
00100000
10000000
00100000
01000000
00010000
10000000
01000000
00010000
00001000
,
00010000
00001000
00000010
00000001
00001000
00000010
00000100
00000001
00000100
00000001
00000010
00001000
00010000
01000000
10000000
00010000
,
10000000
00000000
00000000
00100000
00000000
00000000
00010000
00000000
00000000
00001000
00000000
00000000
00000100
00000000
00000000
00000001
00000000
00000000
00001000
00000000
00000000
00000001
00000000
00000000
00000010
00000000
00000000
00001000
00000000
00000000
00010000
00000000
00001000
00000000
00010000
00000000
00001000
00000000
00010000
00000000
00001000
00000000
00100000
00000000
00010000
00000000
00100000
00000000
,
00010000
00100000
00010000
10000000
00010000
10000000
00010000
10000000
00010000
01000000
00100000
01000000
00100000
01000000
00100000
10000000
01000000
10000000
01000000
00100000
00010000
00100000
00010000
00001000
,
00010000
00001000
00010000
00001000
00000100
00001000
00000100
00000010
00000001
00000010
00000001
00001000
00000001
00001000
00000001
00000000
00000000
00000000
00000000
00000000
00000000
00000000
00000000
00000000
,
00000000
00000000
00000000
00000000
;
