
//----- song ID: exmo -----//
#TITLE:エキサイティング!!も・ちゃ・ちゃ☆;
#ARTIST:日向美ビタースイーツ♪;
#TITLETRANSLIT:Exciting!! Mo-cha-cha;
#ARTISTTRANSLIT:Hinatabi Bitter Sweets♪;
#BANNER:Exciting!! Mo-cha-cha.png;
#BACKGROUND:Exciting!! Mo-cha-cha-bg.png;
#CDTITLE:./CDTitles/DDR A.png;
#MUSIC:Exciting!! Mo-cha-cha.ogg;
#SAMPLESTART:72.726;
#SAMPLELENGTH:15;
#BPMS:0=187;
#NOTES:
     dance-single:
     :
     Beginner:
     4:
     :
0000
0000
0000
0000
,
0000
0000
0000
0000
,
0000
0000
0000
0000
,
0000
0000
0000
0000
,
0000
0000
0000
0000
,
0000
0000
0000
0000
,
0001
0001
0001
0000
,
1000
0000
1000
0000
,
1000
1000
1000
0000
,
0001
0000
0001
0000
,
1000
0000
0001
0000
,
1000
1000
1000
0000
,
0002
0000
0003
0000
,
1000
1000
1000
0000
,
1001
0000
1001
0000
,
0010
0010
0010
0000
,
1001
0000
1001
0000
,
0100
0100
0100
0000
,
1001
0000
1001
0000
,
0010
0010
0010
0000
,
1000
0000
0001
0000
,
2002
0000
3003
0000
,
0001
0001
0001
0000
,
0010
0000
0001
0000
,
1000
1000
1000
0000
,
0010
0000
1000
0000
,
1000
1000
0010
0000
,
0001
0001
0010
0000
,
1000
0000
0001
0000
,
1000
0000
0000
0000
,
0000
0000
0000
0000
,
1000
1000
0010
0010
,
0100
0100
0100
0000
,
0001
0001
0010
0010
,
0100
0100
0100
0000
,
0001
0001
0001
0000
,
1000
1000
1000
0000
,
0001
0000
1000
0000
,
1001
0000
1001
0000
,
0000
0000
0000
0000
,
0000
0000
0000
0000
,
0000
0000
0000
0000
,
0000
0000
0000
0000
,
0000
0000
0000
0000
,
0000
0000
0000
0000
,
0000
0000
0000
0000
,
0000
0000
0000
0000
,
0000
0000
0000
0000
,
0000
0000
0000
0000
,
0000
0000
0000
0000
,
1001
0000
0000
0000
,
0020
0000
0000
0000
0000
0000
0000
0000
0030
0000
0000
0000
0000
0000
0000
0002
,
0000
0000
0000
0000
0000
0000
0000
0003
0000
0000
0000
0000
0000
0000
2000
0000
,
0000
0000
0000
0000
0000
0000
3000
0000
0000
0000
0000
0000
0000
0200
0000
0000
,
0000
0000
0000
0000
0000
0300
0000
0000
0000
0000
0000
0000
1000
0000
0000
0000
,
0000
0001
0000
1001
,
0000
0000
0000
1000
,
1000
0000
0000
0001
,
0001
0010
0010
0001
,
0001
0000
0000
1000
,
1000
0100
0000
0001
,
0001
0010
0010
0001
,
0000
1000
0000
1000
,
1000
0010
0010
0100
,
0100
0000
0000
0002
,
0000
0003
0000
0000
0000
0000
0001
0000
,
0001
0001
0000
2000
,
0000
3000
0000
0000
0000
0000
1000
0000
,
1000
1000
0000
1000
,
1000
0100
0100
1000
,
0000
0001
0000
1001
,
0000
0010
0000
1001
,
0000
0001
0001
0002
,
0000
0000
0003
0000
,
0000
1000
2000
0000
,
0000
3000
0000
0000
,
1000
1000
1000
0000
,
0000
0000
0001
0001
,
0001
0000
0020
0000
,
0030
0000
0000
0000
0000
0000
0000
0002
0000
0000
0000
0000
0000
0000
0000
0003
,
0000
0000
0000
2000
0000
0000
0000
3000
,
0000
0000
0000
0000
0000
0200
0000
0000
0000
0000
0000
0000
0000
0300
0000
0000
,
0000
0020
0000
0030
,
0000
2000
0000
0000
0000
3000
0000
0000
,
0002
0000
0000
0000
0003
0000
0000
0020
,
0000
0000
0000
0000
0000
0000
0030
0000
0000
0000
0000
0000
0000
0000
0000
2002
,
0000
0000
0000
0000
0000
0000
0000
0000
0000
0000
0000
0000
0000
0000
0000
3003
,
0000
0000
0000
0000
,
0000
0000
0000
0000
,
0000
0000
0000
0000
,
0000
0000
0000
0000
0000
0000
0000
0000
0000
0000
0000
0000
0000
0000
0000
0001
,
0000
0000
0000
0000
0000
0000
0000
0001
0000
0000
0000
0000
0000
0000
0000
1000
,
0000
0000
0000
0000
0000
0000
0000
1001
0000
0000
0000
0000
0000
0000
0000
0000
,
0000
0000
0000
0000
;
#NOTES:
     dance-single:
     :
     Easy:
     8:
     :
0000
0000
0000
0000
,
0000
0000
0000
0000
,
0000
0000
0000
0000
,
0000
0000
0000
0000
,
0000
0000
0000
0000
,
0000
0000
0000
0000
,
0001
0001
1000
1000
,
0001
0100
0010
0000
,
1000
1000
0001
0001
,
0010
0100
0010
0000
,
1000
1000
0001
0001
,
1000
0100
0010
0000
,
0002
1000
1000
1003
,
0010
0100
1001
0000
,
1010
0000
0101
0000
,
0001
1000
0001
0000
,
0011
0000
1100
0000
,
1001
0110
1001
0000
,
1100
0000
0011
0000
,
1000
0100
0010
0001
,
1000
0010
0100
0001
,
2002
0000
0000
3003
,
0001
0100
0001
0100
,
0010
1000
0100
0000
,
0010
0010
0100
0100
,
1000
0001
1001
0000
,
1000
0100
0001
0010
,
1000
0100
0001
0010
,
2000
0000
3002
0000
,
1003
0000
0000
0000
,
2000
3200
0320
0032
,
1003
1000
0001
0001
,
0010
0100
0110
0000
,
1000
1000
0001
0001
,
0100
0010
0100
0000
,
0001
0100
0001
0000
,
1000
0100
1000
0000
,
0001
0010
0001
1000
,
0010
1000
0001
1001
,
0000
0100
0100
0000
,
0002
1000
1000
1003
,
0000
0000
0100
0200
,
0000
0000
0000
0000
,
0310
0000
0100
1001
,
0000
0000
0000
0000
,
1000
0100
0010
0001
,
0000
0002
0000
0103
,
0000
0000
0000
0000
,
2000
0000
3002
0000
,
1003
0000
0000
0000
,
1001
0000
0000
0000
,
0010
0000
0000
0000
0010
0000
0000
0000
0010
0000
0000
0000
0000
0000
0000
0100
,
0000
0000
0000
0100
0000
0000
0000
0100
0000
0000
0000
0000
0000
0000
0001
0000
,
0000
0000
0001
0000
0000
0000
0001
0000
0000
0000
0000
0000
0000
1000
0000
0000
,
0000
1000
0000
0000
0000
1000
0000
0000
0000
0000
0000
0000
0200
0000
0000
0000
,
0000
0320
0000
0130
,
0000
1001
0000
0000
0000
0000
1000
0000
,
1001
0000
0000
0001
,
0100
0010
1000
0001
,
1001
0000
0000
0010
,
1000
0001
0100
0010
,
0010
1000
1000
0100
,
0100
0010
0010
0001
,
1000
0001
1000
0100
,
0110
0000
0000
0002
,
0000
1003
0000
0001
,
0100
0010
1000
2000
,
0000
3001
0000
0010
,
0100
1000
0001
0010
,
0010
0100
0100
1000
,
1000
0001
0001
1000
,
0001
1000
0010
0100
,
0000
0001
0001
0100
,
0000
0001
0000
0000
0100
0000
0000
0001
,
0000
0000
0010
0000
0100
0000
0000
1000
,
0000
0000
0100
0000
0000
1000
0000
0000
,
0100
0100
1000
0001
,
1001
0000
0001
1000
,
1001
0000
0010
0010
,
0010
0000
0000
0000
0000
0000
0000
0100
0000
0000
0000
0100
0000
0000
0000
0100
,
0000
0000
0000
0001
0000
0001
0000
0001
,
0000
0000
0000
0000
0000
1000
0000
0000
0000
1000
0000
0000
0000
1000
0000
0000
,
0000
0100
0100
0100
,
0000
0010
0000
0010
0000
0010
0000
0000
,
0001
0000
0001
0000
0001
0000
0000
1000
,
0000
0000
1000
0000
0000
0000
1000
0000
0000
0000
0000
0000
0000
0000
0000
2002
,
0000
0000
0000
0000
0000
0000
0000
0000
0000
0000
0000
0000
0000
0000
0000
3003
,
0000
0000
0000
0000
,
0000
0000
0000
0000
,
0000
0000
0000
0000
,
0000
0000
0000
0000
0000
0000
0000
0000
0000
0000
0000
0000
0000
0000
0000
0001
,
0000
0000
0000
0001
0000
0000
0000
1000
0000
0000
0000
1000
0000
0000
0000
0010
,
0000
0000
0000
0100
0000
0000
0000
1001
0000
0000
0000
0000
0000
0000
0000
0000
,
0000
0000
0000
0000
;
#NOTES:
     dance-single:
     :
     Medium:
     11:
     :
0000
0000
0000
0000
,
0000
0000
0000
0000
,
0000
0000
0000
0000
,
0000
0000
0000
0000
,
0000
0000
0000
0000
,
0000
0000
0000
0000
,
0001
1000
0001
0000
1000
0001
1000
0000
,
0001
0100
1000
0100
0001
0000
0000
0000
,
1000
0001
1000
0000
0001
1000
0001
0000
,
1000
0000
0000
0100
0000
0000
0001
0000
0000
0100
0000
0000
1000
0000
0000
0000
,
0001
1000
0001
0000
1000
0001
1000
0000
,
0001
0100
1000
0100
0001
0000
0000
0000
,
1000
0001
1000
0001
1000
0001
1000
0000
,
0110
1001
1001
0000
,
0001
0001
0000
0000
1000
1000
0000
0000
,
0001
0000
1000
0001
0000
0000
0000
0000
,
1000
1000
0000
0000
0001
0001
0000
0000
,
0010
0100
1001
0000
,
1000
1000
0000
0000
0001
0001
0000
0000
,
1000
0000
0001
1000
0000
0000
0000
0000
,
0002
1003
0200
0310
,
0001
0100
0010
1001
,
1000
1000
0001
0001
,
1000
0000
0001
1000
0000
0000
0000
0000
,
1000
1000
0001
0001
,
0100
0010
0100
0000
1001
0000
0000
0000
,
0010
0010
0100
0100
,
0001
0000
1000
0001
0000
0000
0000
0000
,
2000
3010
0200
0301
,
0020
0030
0200
0300
,
0110
0110
1001
1001
,
1000
0100
0010
0001
,
0100
0000
0001
1000
0100
0000
0000
0000
,
1000
0001
0100
0010
,
1001
1100
1001
0101
,
2000
0100
3100
0000
,
0002
0100
0103
0000
,
0002
1003
2000
3001
,
1000
0010
0100
1001
,
0000
0000
0010
0100
0010
0000
0000
0000
,
0001
0000
0001
0000
1000
0001
1000
0000
,
0000
0000
0010
0200
,
0000
0000
0000
0300
,
0110
0000
0000
0000
0000
0000
0000
0000
1001
0000
0000
0010
0000
0000
0000
0000
,
0000
0000
0000
0000
,
1000
0100
0010
0000
0001
1000
0100
0000
,
0000
0000
0000
0000
0000
0000
0000
0000
0000
0000
0000
0000
0010
0000
0000
0000
0000
0000
0000
0000
0001
0000
0000
0000
0000
0000
0000
0000
0010
0000
0000
0000
0000
0000
0000
0000
0100
0000
0000
0000
0000
0000
0000
0000
0000
1000
0000
0000
,
0000
0000
0000
0000
0000
0000
0000
0000
0001
0100
0000
0000
0000
0000
0000
0000
,
0000
0000
0000
0000
,
1001
0000
0000
0000
0000
0110
0000
0000
0000
0000
0000
0000
0000
0000
0000
0000
,
1001
0000
0000
0000
,
0001
0000
0100
0000
0001
0000
0100
0000
0000
0000
0010
0000
0000
0000
0000
1000
,
0000
0100
0000
1000
0000
0100
0000
0000
0000
0010
0000
0000
0000
0000
0001
0000
,
0010
0000
0100
0000
1000
0000
0000
0000
0010
0000
0000
0000
0000
1000
0000
0010
,
0000
0000
0000
0100
0000
0000
0000
0000
0000
0001
0000
0000
0000
0000
0000
0000
0000
0000
0000
0000
0000
0100
0000
0000
0000
0000
0000
0000
0000
0000
0000
0000
0000
0000
0000
0000
0001
0000
0000
0000
0000
0000
0000
0000
0010
0000
0000
0000
,
0000
0100
0000
1000
0000
0010
0000
0100
0000
0010
0000
0000
,
0000
1001
0000
0000
0000
0000
0001
1000
,
0001
0000
1001
0000
0000
0000
0001
1000
,
0100
0000
0010
0001
1000
0000
1000
0001
,
1000
0000
1001
0000
0000
1001
0000
1001
,
0000
0110
0000
1001
0000
0110
0000
1000
,
0001
0000
0000
1000
0100
0000
0010
0000
,
0001
0000
1000
0000
0100
0000
0010
0001
,
1000
0000
0010
0000
0100
0000
0001
1000
,
0001
0000
0000
0000
0000
0000
0001
1000
,
0001
1000
0000
0000
0000
0000
0001
0000
,
0010
0000
0100
0000
1000
0000
1000
0001
,
1000
0001
0000
0000
0000
1010
0000
1010
,
0000
0101
0000
0101
0000
1001
0000
0001
,
1000
0000
0000
0001
0100
0000
0010
0000
,
1000
0000
0010
0000
0100
0000
0001
1000
,
0001
0000
0010
0000
0100
1000
0000
0000
,
0000
0001
0001
0101
,
0000
1100
0000
0000
0101
0000
0000
1100
,
0000
0000
0110
0000
1010
0000
0000
0011
,
0000
0000
1010
0000
0000
0011
0000
0000
,
0110
1000
0010
0001
,
0010
0000
1000
0001
,
0100
0000
0000
0000
1000
0100
1000
0100
,
0000
0000
0010
0000
0000
0000
0000
0001
0000
0100
0000
0001
0000
0100
0000
0000
,
0000
0010
0000
0000
0000
0000
1000
0000
0010
0000
0100
0000
0001
0000
0000
0000
,
0010
0000
0000
0000
0000
0001
0000
0010
0000
0100
0000
1000
0000
0000
0000
0100
,
0000
0000
0010
0001
0010
0000
0100
1000
,
0000
0100
0010
0100
0000
1000
0001
0000
,
0100
0010
0100
0000
0001
1000
0000
0010
,
0100
0000
0001
0000
1000
0000
0100
0000
0010
0000
0001
0000
0000
0000
0000
1001
,
0000
0000
0000
0000
,
0000
0000
0000
0000
,
0000
0000
0000
0000
,
0000
0000
0000
0000
,
0000
0000
0000
0000
0000
0000
0000
0000
0000
0000
0000
0000
0000
0000
0000
2000
,
0000
0000
0000
0000
0000
3002
0000
0000
0000
0000
0000
0103
0000
0000
0000
0020
,
0000
0000
1030
0000
0000
1001
0000
0000
0000
0000
0000
0000
0000
0000
0000
0000
,
0000
0000
0000
0000
;
#NOTES:
     dance-single:
     :
     Hard:
     13:
     :
0000
0000
0000
0000
,
0000
0000
0000
0000
,
0000
0000
0000
0000
,
0000
0000
0000
0000
,
0000
0000
0000
0000
,
0100
0100
0100
1001
,
0001
0100
1000
0000
0001
0010
1000
0000
,
1010
0000
0101
0000
0001
0010
0100
0000
,
1000
0100
0001
0000
1000
0010
0001
0000
,
0010
0000
0000
0100
0000
0000
0010
0000
0000
0001
0000
0000
1000
0000
0000
0000
,
0001
0100
1000
0000
0001
0010
1000
0000
,
0010
0100
0001
1000
0100
0010
0001
0000
,
1000
0001
1000
0001
0100
0010
1000
0000
,
0110
0000
1001
0000
1001
0000
0000
1000
,
0100
1000
0000
0001
0100
0001
0000
1000
,
0100
0010
0001
1000
0000
0000
0000
0010
,
1000
0010
0000
0100
0001
0100
0000
0001
,
0010
0000
0110
0000
1001
0000
0000
0010
,
0100
0010
0000
1000
0001
1000
0000
0100
,
0010
0001
1000
0100
0000
0000
0000
0010
,
0001
0000
0000
0000
1000
0000
0000
0000
0010
0000
0000
0100
0010
0000
0000
2000
,
0002
0000
0000
0000
3003
0000
0000
0001
,
0100
0100
0000
0010
1000
1000
0000
0001
,
0100
1000
0100
0001
0000
0000
0000
0001
,
0010
0010
0000
0100
1000
1000
0000
0010
,
1010
0000
1001
0000
0101
0000
0000
0010
,
0001
0001
0000
1000
0100
0100
0000
0010
,
0001
0010
0100
1000
0000
0000
0000
0001
,
0010
0000
0000
0100
0000
0000
1000
0000
0010
0000
0000
0100
0000
0000
0010
0000
,
2002
0000
0000
3003
,
0000
0000
0000
0000
0000
0000
0000
0001
,
1000
0000
1000
0001
0000
0010
0100
0010
,
0000
0100
1000
0001
1001
0000
0000
1000
,
0010
0000
0010
0001
0010
1000
0001
1000
,
0100
0000
0110
0000
1001
0000
0110
0001
,
0100
0000
0000
0100
0000
0000
0010
0000
1000
0000
0000
0000
0000
0000
0001
0000
,
0100
0000
0000
0100
0000
0000
0001
0000
0010
0000
0000
0000
0000
0000
0100
0000
,
1000
0000
0000
0100
0000
0000
0001
0000
1000
0000
0000
0010
0000
0000
0001
0000
,
0100
0010
0110
1001
,
0000
0010
0000
0000
0001
0000
0000
0010
0000
0000
0100
0000
0000
0000
1000
0000
,
0001
0100
0010
1000
0001
0010
0100
1000
,
0000
0000
0000
0000
0001
1000
0200
0000
,
0000
0000
0000
0300
,
0110
0000
0000
0000
1001
0000
0000
0000
0110
0000
0000
1001
0000
0000
0000
0000
,
0000
0000
1000
0010
1000
0000
,
0001
0100
0001
1000
0010
1000
0100
0000
,
0000
0000
0000
0000
0000
0000
0000
0000
0000
0000
0000
0000
0011
0000
0000
0000
0000
0000
0000
0000
0011
0000
0000
0000
0000
0000
0000
0000
1100
0000
0000
0000
0000
0000
0000
0000
1100
0000
0000
0000
0000
0000
0000
0000
0000
1001
0000
0000
,
0000
0000
0000
0000
0000
0000
0000
0000
0010
0100
0000
0000
0000
0000
0000
0000
,
0000
0000
0001
0000
1000
0000
0100
0000
0010
0000
0000
0001
0000
0000
1000
0000
,
0100
0000
0000
0000
0000
0110
0000
0000
0000
0000
0000
0000
0000
0000
0000
0000
,
1001
0000
0000
0000
,
1000
0000
0100
0000
1000
0000
0100
0000
0010
0000
0001
1000
0000
0000
0000
0010
,
0000
0100
0000
0010
0000
0100
0000
0001
0000
1000
0010
0000
0000
0000
0100
0000
,
0001
0000
0100
0000
0001
0000
1000
0000
0010
0100
0000
0000
0000
0001
0000
0010
,
0000
0000
0000
0001
0000
0000
0000
0000
0000
0010
0000
0000
0000
0000
0000
0100
0000
0000
0000
0000
0000
1000
0000
0000
0001
0000
0000
0000
0000
0000
0000
0000
0000
0000
0000
0000
1000
0000
0000
0000
0000
0000
0000
0000
0100
0000
0000
0000
,
0000
0000
0000
0000
0010
0000
0000
0000
0000
0000
0000
0000
0001
0000
0000
0000
0000
0000
0000
0000
0100
0000
0000
0000
0000
0000
0000
0000
0010
0000
0000
0000
0000
0000
0000
0000
1001
0000
0000
0000
0000
0000
0000
0000
0000
0110
0000
0000
,
0000
1001
0000
0000
0000
0000
0001
1000
,
0001
0000
0110
0000
0000
0010
0000
0100
,
0010
0100
1001
0000
0110
0000
1000
0001
,
1000
0000
0110
0000
0000
0011
0000
0110
,
0000
0101
0000
1100
0000
0110
0000
0001
,
1000
0000
0000
0001
0100
0001
0000
1000
,
0010
1000
0001
0100
0010
1000
0200
0000
,
0320
0000
0032
0000
1003
0010
0000
0100
,
0001
0000
0000
0000
0000
0000
0001
0100
,
0001
1001
0000
0000
0000
0010
0000
0100
,
0010
0100
1001
0000
0110
0000
1000
0100
,
1000
1001
0000
0000
0000
0011
0000
1010
,
0000
0110
0000
0101
0000
0110
0000
1000
,
0001
0000
0000
0001
0010
0100
1000
0100
,
0001
0100
0010
0100
1000
0100
0020
0000
,
0032
0000
0203
0000
0310
1000
0000
0000
,
0000
0011
0110
1000
,
1000
0001
0000
0001
0100
0000
0100
0010
,
0000
0010
1000
0000
0001
0000
0001
1000
,
0000
1000
0100
0000
0100
0010
0000
0010
,
0001
0000
0000
0000
1001
0000
0000
0000
0001
0000
0000
0010
0000
0000
0100
0000
,
1000
0000
0000
0000
0000
0000
0001
0000
0100
0000
0000
0010
0000
0000
1000
0000
,
0010
0000
0110
0000
0001
0100
0001
0100
,
0010
0000
1000
0001
0000
0000
0000
0010
0000
0100
0000
0010
0000
0100
0000
1000
,
0000
0001
0010
0000
0000
0000
0100
0000
1000
0000
0100
0000
1000
0000
0001
0000
,
0010
0100
0000
0000
0000
1000
0000
0010
0000
1000
0000
0010
0000
0100
0000
0001
,
1000
0000
0010
1000
0010
1000
0010
0100
,
0000
0001
0010
0001
0010
0001
1000
0000
,
0100
0010
0100
0010
0100
1000
0000
0001
,
1000
0000
0100
0000
0001
0000
1000
0000
0100
0000
0001
0000
0000
0000
0000
1001
,
0000
0000
0000
0000
,
0000
0000
0000
0000
,
0000
0000
0000
0000
,
0000
0000
0000
0000
,
0000
0000
0000
0000
0000
0000
0000
0000
0000
0000
0000
0000
0000
0000
0000
0001
,
0000
0000
0100
0000
0000
0010
0000
0000
1000
0000
0000
0001
0000
1000
0000
0100
,
0000
0000
0110
0000
0000
1001
0000
0000
0000
0000
0000
0000
0000
0000
0000
0000
,
0000
0000
0000
0000
;
#NOTES:
     dance-double:
     :
     Easy:
     8:
     :
00000000
00000000
00000000
00000000
,
00000000
00000000
00000000
00000000
,
00000000
00000000
00000000
00000000
,
00000000
00000000
00000000
00000000
,
00000000
00000000
00000000
00000000
,
00000000
00000000
00000000
00000000
,
00000001
00000001
00001000
00001000
,
00000001
00000100
00001000
00010000
,
00001000
00001000
00010000
00010000
,
00100000
01000000
00100000
00000000
,
10000000
10000000
00010000
00010000
,
10000000
01000000
00010000
00001000
,
00020000
00001000
00001000
00031000
,
00000010
00000100
00001001
00000000
,
00000011
00000000
00001100
00000000
,
00010000
00001000
00010000
00000000
,
00110000
00000000
11000000
00000000
,
10010000
01100000
10010000
00000000
,
11000000
00000000
00110000
00000000
,
10000000
01000000
00010000
00001000
,
00010000
00001000
00000010
00000001
,
00002002
00000000
00000000
00003003
,
00000001
00000100
00001000
00010000
,
00001000
00010000
00100000
10000000
,
00100000
00100000
01000000
01000000
,
00010000
10000000
10010000
00000000
,
10000000
01000000
00010000
00001000
,
00010000
00001000
00000010
00000001
,
00002000
00000000
00003002
00000000
,
00001003
00000000
00000000
00000000
,
00000002
00000203
00002300
00023000
,
00031000
00001000
00010000
00010000
,
00100000
00100000
00010000
00000000
,
00001000
00001000
00000010
00000010
,
00001000
00010000
00001000
00000000
,
00010000
01000000
00010000
00000000
,
00001000
00000100
00001000
00000000
,
00010000
00100000
00010000
00001000
,
00000010
00001000
00010000
00011000
,
00000000
00100000
10000000
00000000
,
00020000
10000000
10000000
10030000
,
00000000
00000000
01000000
02000000
,
00000000
00000000
00000000
00000000
,
03010000
00000000
01000000
10010000
,
00000000
00000000
00000000
00000000
,
10000000
01000000
00010000
00001000
,
00000010
00000002
00000000
00000103
,
00000000
00000000
00000000
00000000
,
00002000
00000000
00023000
00000000
,
00031000
00000000
00000000
00000000
,
00011000
00000000
00000000
00000000
,
00100000
00000000
00000000
00000000
10000000
00000000
00000000
00000000
00100000
00000000
00000000
00000000
00000000
00000000
00000000
01000000
,
00000000
00000000
00000000
00010000
00000000
00000000
00000000
01000000
00000000
00000000
00000000
00000000
00000000
00000000
00001000
00000000
,
00000000
00000000
00010000
00000000
00000000
00000000
00001000
00000000
00000000
00000000
00000000
00000000
00000000
00000010
00000000
00000000
,
00000000
00000001
00000000
00000000
00000000
00000010
00000000
00000000
00000000
00000000
00000000
00000000
00000020
00000000
00000000
00000000
,
00000000
00000230
00000000
00000310
,
00000000
00001001
00000000
00000000
00000000
00000000
00001000
00000000
,
00001001
00000000
00000000
00000001
,
00000100
00001000
00010000
00001000
,
00011000
00000000
00000000
00100000
,
10000000
00010000
01000000
00100000
,
00100000
10000000
10000000
01000000
,
01000000
00010000
00010000
00001000
,
00010000
00001000
00000010
00000001
,
00001001
00000000
00000000
00000002
,
00000000
00001003
00000000
00000000
00000000
00000000
00000001
00000000
,
00000100
00001000
00010000
00002000
,
00000000
00013000
00000000
00000000
00000000
00000000
00100000
00000000
,
10000000
00010000
01000000
00100000
,
00100000
10000000
10000000
01000000
,
01000000
00010000
00010000
00001000
,
00010000
00001000
00000010
00001001
,
00000000
00000001
00000001
00000100
,
00000000
00000100
00000000
00000000
00000100
00000000
00000000
00000100
,
00000000
00000000
00001000
00000000
00010000
00000000
00000000
00010000
,
00000000
00000000
00010000
00000000
00000000
00010000
00000000
00000000
,
00100000
00100000
10000000
00010000
,
10010000
00000000
00010000
10000000
,
10010000
00000000
00100000
10000000
,
00100000
00000000
00000000
00000000
00000000
00000000
00000000
01000000
00000000
00000000
00000000
00010000
00000000
00000000
00000000
01000000
,
00000000
00000000
00000000
00001000
00000000
00010000
00000000
00001000
,
00000000
00000000
00000000
00000000
00000000
00000010
00000000
00000000
00000000
00000001
00000000
00000000
00000000
00000010
00000000
00000000
,
00000000
00000100
00000100
00000100
,
00000000
00001000
00000000
00001000
00000000
00001000
00000000
00000000
,
00000001
00000000
00000001
00000000
00000001
00000000
00000000
00000100
,
00000000
00000000
00000100
00000000
00000000
00000000
00000100
00000000
00000000
00000000
00000000
00000000
00000000
00000000
00000000
00002002
,
00000000
00000000
00000000
00000000
00000000
00000000
00000000
00000000
00000000
00000000
00000000
00000000
00000000
00000000
00000000
00003003
,
00000000
00000000
00000000
00000000
,
00000000
00000000
00000000
00000000
,
00000000
00000000
00000000
00000000
,
00000000
00000000
00000000
00000000
00000000
00000000
00000000
00000000
00000000
00000000
00000000
00000000
00000000
00000000
00000000
00000001
,
00000000
00000000
00000000
00000001
00000000
00000000
00000000
00001000
00000000
00000000
00000000
00001000
00000000
00000000
00000000
00000010
,
00000000
00000000
00000000
00000100
00000000
00000000
00000000
00001001
00000000
00000000
00000000
00000000
00000000
00000000
00000000
00000000
,
00000000
00000000
00000000
00000000
;
#NOTES:
     dance-double:
     :
     Medium:
     11:
     :
00000000
00000000
00000000
00000000
,
00000000
00000000
00000000
00000000
,
00000000
00000000
00000000
00000000
,
00000000
00000000
00000000
00000000
,
00000000
00000000
00000000
00000000
,
00000000
00000000
00000000
00000000
,
00000001
00001000
00000001
00000000
00001000
00000001
00001000
00000000
,
00000001
00000100
00001000
00000000
00010000
00000000
00011000
00000000
,
00001000
00010000
00001000
00000000
00010000
00001000
00010000
00000000
,
00100000
00000000
00000000
01000000
00000000
00000000
00100000
00000000
00000000
01000000
00000000
00000000
00010000
00000000
00000000
00000000
,
10000000
00010000
10000000
00000000
00010000
10000000
00010000
00000000
,
10000000
01000000
00010000
00000000
01000000
00010000
00001000
00000000
,
00010000
00001000
00010000
00001000
00010000
00001000
00010000
00000000
,
00000100
00000010
00001001
00000000
,
00000001
00000001
00000000
00000000
00001000
00001000
00000000
00000000
,
00000001
00000100
00001000
00000100
00000000
00000000
00000000
00000000
,
00001000
00001000
00000000
00000000
00010000
00010000
00000000
00000000
,
00100000
01000000
10010000
00000000
,
10000000
10000000
00000000
00000000
00010000
00010000
00000000
00000000
,
10000000
01000000
00010000
01000000
00000000
00000000
00000000
00000000
,
00020000
00031000
00002000
00013000
,
00001000
00000010
00000001
00001001
,
00001000
00001000
00000001
00000001
,
00000001
00001000
00000010
00000100
00000000
00000000
00000000
00000000
,
00001000
00001000
00010000
00010000
,
00001000
00010000
00001000
00000000
00011000
00000000
00000000
00000000
,
00100000
00100000
10000000
10000000
,
00010000
10000000
00100000
01000000
00000000
00000000
00000000
00000000
,
20000000
30100000
00200000
00310000
,
00020000
00031000
00002000
00003100
,
00000001
00000010
00000100
00000010
00000001
00000010
00000100
00000000
,
00002000
00003100
00000020
00000031
,
00000100
00000000
00000001
00000100
00001000
00000000
00000000
00000000
,
00002000
00013000
00020000
00031000
,
00010000
00100000
10010000
00000000
,
20000000
01000000
31000000
00000000
,
02000000
00010000
03010000
00000000
,
00020000
00031000
00002000
00013000
,
00001000
00000010
00000001
00001001
,
00000000
00000000
00000001
00001000
00000001
00000000
00000000
00000000
,
00000001
00000000
00000100
00000000
00001000
00010000
00001000
00010000
,
00000000
00000000
00100000
02000000
,
00000000
00000000
00000000
03000000
,
01100000
00000000
00000000
00000000
00000000
00000000
00000000
00000000
10010000
00000000
00000000
00100000
00000000
00000000
00000000
00000000
,
00000000
00000000
00000000
00000000
,
10000000
01000000
00010000
00000000
01000000
00010000
00001000
00000000
,
00000000
00000000
00000000
00000000
00000000
00000000
00000000
00000000
00000000
00000000
00000000
00000000
00000010
00000000
00000000
00000000
00000000
00000000
00000000
00000000
00000001
00000000
00000000
00000000
00000000
00000000
00000000
00000000
00000010
00000000
00000000
00000000
00000000
00000000
00000000
00000000
00000100
00000000
00000000
00000000
00000000
00000000
00000000
00000000
00000000
00001001
00000000
00000000
,
00000000
00000000
00000000
00000000
00000000
00000000
00000000
00000000
00000010
00000100
00000000
00000000
00000000
00000000
00000000
00000000
,
00000000
00000000
00000000
00000000
,
00001001
00000000
00000000
00000000
00000000
00000110
00000000
00000000
00000000
00000000
00000000
00000000
00000000
00000000
00000000
00000000
,
00001001
00000000
00000000
00000000
,
00000001
00000000
00000100
00000000
00000001
00000000
00000100
00000000
00000000
00000000
00000010
00000000
00000000
00000000
00000000
00001000
,
00000000
00000100
00000000
00001000
00000000
00000100
00000000
00000000
00000000
00010000
00000000
00000000
00000000
00000000
00001000
00000000
,
00010000
00000000
00001000
00000000
00010000
00000000
00000000
00000000
00100000
00000000
00000000
00000000
00000000
01000000
00000000
00010000
,
00000000
00000000
00000000
01000000
00000000
00000000
00000000
00000000
00000000
00010000
00000000
00000000
00000000
00000000
00000000
00000000
00000000
00000000
00000000
00000000
00000000
10000000
00000000
00000000
00000000
00000000
00000000
00000000
00000000
00000000
00000000
00000000
00000000
00000000
00000000
00000000
10000000
00000000
00000000
00000000
00000000
00000000
00000000
00000000
01000000
00000000
00000000
00000000
,
00000000
00000000
00000000
00000000
00010000
00000000
00000000
00000000
00000000
00000000
00000000
00000000
01000000
00000000
00000000
00000000
00000000
00000000
00000000
00000000
00010000
00000000
00000000
00000000
00000000
00000000
00000000
00000000
00001000
00000000
00000000
00000000
00000000
00000000
00000000
00000000
00000010
00000000
00000000
00000000
00000000
00000000
00000000
00000000
00000000
00000001
00000000
00000000
,
00000000
00001001
00000000
00000000
00000000
00000000
00000001
00001000
,
00000001
00000000
00001001
00000000
00000000
00000000
00000001
00001000
,
00000100
00000000
00001000
00000100
00010000
00000000
00001000
00010000
,
00001000
00000000
00011000
00000000
00000000
00001000
00000000
00010000
,
00000000
00100000
00000000
10000000
00000000
01000000
00000000
10000000
,
00010000
00000000
00000000
10000000
01000000
00010000
00000000
00001000
,
00010000
00001000
00010000
00000000
00001000
00000000
00000010
00000000
,
00000001
00000000
00000010
00000000
00000100
00001000
00000000
00000001
,
00001000
00000000
00000000
00000000
00000000
00000000
00000001
00001000
,
00000001
00001000
00000000
00000000
00000000
00000000
00000001
00000100
,
00000010
00000000
00001000
00000100
00010000
00000000
00001000
00010000
,
00001000
00010000
00000000
00000000
00000000
00100000
00000000
10000000
,
00000000
00010000
00000000
01000000
00000000
00100000
00000000
10000000
,
00010000
00000000
00000000
10000000
01000000
10000000
01000000
00000000
,
01000000
00000000
00010000
00000000
00010000
00000000
00001000
00010000
,
00001000
00010000
00001000
00010000
00001000
00000010
00000000
00000000
,
00000000
00000001
00000001
00000101
,
00000000
00001100
00000000
00000000
00000110
00000000
00000000
00001100
,
00000000
00000000
00011000
00000000
00110000
00000000
00000000
10100000
,
00000000
00000000
11000000
00000000
00000000
01100000
00000000
00000000
,
01010000
00001000
00000010
00000001
,
00000010
00000000
00001000
00010000
,
01000000
00000000
00000000
00000000
10000000
01000000
10000000
01000000
,
00000000
00000000
00100000
00000000
00000000
00000000
00000000
00010000
00000000
01000000
00000000
00010000
00000000
01000000
00000000
00000000
,
00000000
00001000
00000000
00000000
00000000
00000000
00010000
00000000
00001000
00000000
00010000
00000000
00001000
00000000
00000000
00000000
,
00000010
00000000
00000000
00000000
00000000
00000100
00000000
00001000
00000000
00000100
00000000
00001000
00000000
00000000
00000000
00000001
,
00000000
00000000
00000010
00000001
00000010
00000000
00000100
00001000
,
00000000
00000100
00000010
00000100
00000000
00001000
00000100
00000000
,
00000010
00000001
00000010
00000000
00000001
00000100
00000000
00001000
,
00010000
00000000
00001000
00000000
00010000
00000000
00001000
00000000
00010000
00000000
00001000
00000000
00000000
00000000
00000000
00011000
,
00000000
00000000
00000000
00000000
,
00000000
00000000
00000000
00000000
,
00000000
00000000
00000000
00000000
,
00000000
00000000
00000000
00000000
,
00000000
00000000
00000000
00000000
00000000
00000000
00000000
00000000
00000000
00000000
00000000
00000000
00000000
00000000
00000000
20000000
,
00000000
00000000
30010000
00000000
00000000
00020000
00000000
00000000
10030000
00000000
00000000
01000000
00000000
00010000
00000000
00002000
,
00000000
00000000
00013000
00000000
00000000
00011000
00000000
00000000
00000000
00000000
00000000
00000000
00000000
00000000
00000000
00000000
,
00000000
00000000
00000000
00000000
;
#NOTES:
     dance-double:
     :
     Hard:
     13:
     :
00000000
00000000
00000000
00000000
,
00000000
00000000
00000000
00000000
,
00000000
00000000
00000000
00000000
,
00000000
00000000
00000000
00000000
,
00000000
00000000
00000000
00000000
,
00000100
00000100
00000100
00001001
,
00000001
00000100
00001000
00000000
00010000
00100000
10000000
00000000
,
11000000
00000000
00110000
00000000
00010000
00100000
01000000
00000000
,
10000000
01000000
00010000
00000000
00001000
00000010
00000001
00000000
,
00000001
00000000
00000000
00000100
00000000
00000000
00000010
00000000
00000000
00001000
00000000
00000000
00001010
00000000
00000000
00000000
,
00000001
00000010
00001000
00000000
00010000
01000000
10000000
00000000
,
10100000
00000000
01010000
00000000
00001000
00010000
00100000
01000000
,
00010000
10000000
00010000
10000000
01000000
00010000
00001000
00000000
,
00001001
00000000
00011000
00000000
10010000
00000000
00000000
10000000
,
01000000
10000000
00000000
00010000
01000000
00010000
00000000
10000000
,
01000000
00010000
00001000
00010000
00000000
00000000
00000000
00000010
,
00001000
00000010
00000000
00000100
00000001
00000100
00000000
00000001
,
00000010
00000000
00001010
00000000
00011000
00000000
00000000
00100000
,
01000000
00100000
00000000
10000000
00010000
10000000
00000000
01000000
,
00100000
00010000
00001000
00000100
00000000
00000000
00000000
00000010
,
00000001
00000000
00000000
00000000
00001000
00000000
00000000
00000000
00000010
00000000
00000000
00000001
00000010
00000000
00000000
00002000
,
00000002
00000000
00000000
00000000
00003003
00000000
00000000
00000001
,
00000100
00000100
00000000
00000010
00001000
00001000
00000000
00000001
,
00000100
00001000
00010000
00001000
00000000
00000000
00000000
00010000
,
00100000
00100000
00000000
10000000
01000000
01000000
00000000
00100000
,
00010000
00000000
00011000
00000000
00001100
00000000
00000000
00000010
,
00000001
00000001
00000000
00001000
00000100
00000100
00000000
00000010
,
00000001
00000100
00000010
00001000
00000000
00000000
00000000
00000001
,
00000010
00000000
00000000
00001000
00000000
00000000
00010000
00000000
00100000
00000000
00000000
00010000
00000000
00000000
00001000
00000000
,
00022000
00000000
00000000
00033000
,
00020000
00000000
00230000
00000000
20300000
00000000
31000000
00010000
,
00001000
00000000
00001000
00010000
00000000
01000000
10000000
01000000
,
00000000
00100000
00001000
00010000
00011000
00000000
00000000
00001000
,
00000010
00000000
00000010
00000001
00000010
00001000
00010000
00001000
,
00000100
00000000
00000110
00000000
00001001
00000000
00000110
00000001
,
00000010
00000000
00000000
00000010
00000000
00000000
00001000
00000000
00000010
00000000
00000000
00000000
00000000
00000000
00000001
00000000
,
00000100
00000000
00000000
00000100
00000000
00000000
00000001
00000000
00000100
00000000
00000000
00000000
00000000
00000000
00001000
00000000
,
00010000
00000000
00000000
00100000
00000000
00000000
00010000
00000000
00001000
00000000
00000000
00010000
00000000
00000000
01000000
00000000
,
10000000
01000000
00010000
00011000
,
00000000
00000010
00000000
00000000
00000001
00000000
00000000
00000010
00000000
00000000
00000100
00000000
00000000
00000000
00001000
00000000
,
00000001
00000010
00001000
00010000
00001000
00010000
00100000
10000000
,
00000000
00000000
00000000
00000000
00010000
10000000
02000000
00000000
,
00000000
00000000
00000000
03000000
,
01100000
00000000
00000000
00000000
10010000
00000000
00000000
00000000
01100000
00000000
00000000
10010000
00000000
00000000
00000000
00000000
,
00000000
00000000
10000000
00100000
10000000
00000000
,
01000000
00010000
00001000
00010000
00001000
00000010
00000000
00000000
,
00000000
00000000
00000000
00000000
00000000
00000000
00000000
00000000
00000000
00000000
00000000
00000000
00000011
00000000
00000000
00000000
00000000
00000000
00000000
00000000
00000011
00000000
00000000
00000000
00000000
00000000
00000000
00000000
00001100
00000000
00000000
00000000
00000000
00000000
00000000
00000000
00001100
00000000
00000000
00000000
00000000
00000000
00000000
00000000
00000000
00011000
00000000
00000000
,
00000000
00000000
00000000
00000000
00000000
00000000
00000000
00000000
00100000
01000000
00000000
00000000
00000000
00000000
00000000
00000000
,
00000000
00000000
00010000
00000000
10000000
00000000
01000000
00000000
00010000
00000000
00000000
00001000
00000000
00000000
00000010
00000000
,
00000001
00000000
00000000
00000000
00000000
00001001
00000000
00000000
00000000
00000000
00000000
00000000
00000000
00000000
00000000
00000000
,
10010000
00000000
00000000
00000000
,
10000000
00000000
01000000
00000000
10000000
00000000
01000000
00000000
00010000
00000000
00001000
00010000
00000000
00000000
00000000
00000100
,
00000000
00000010
00000000
00000100
00000000
00000010
00000000
00000001
00000000
00001000
00000100
00000000
00000000
00000000
00010000
00000000
,
00001000
00000000
00010000
00000000
00001000
00000000
01000000
00000000
00100000
10000000
00000000
00000000
00000000
00100000
00000000
01000000
,
00000000
00000000
00000000
00100000
00000000
00000000
00000000
00000000
00000000
01000000
00000000
00000000
00000000
00000000
00000000
00001000
00000000
00000000
00000000
00000000
00000000
00010000
00000000
00000000
00001000
00000000
00000000
00000000
00000000
00000000
00000000
00000000
00000000
00000000
00000000
00000000
00100000
00000000
00000000
00000000
00000000
00000000
00000000
00000000
00001000
00000000
00000000
00000000
,
00000000
00000000
00000000
00000000
00010000
00000000
00000000
00000000
00000000
00000000
00000000
00000000
00001000
00000000
00000000
00000000
00000000
00000000
00000000
00000000
00000100
00000000
00000000
00000000
00000000
00000000
00000000
00000000
00000010
00000000
00000000
00000000
00000000
00000000
00000000
00000000
00001001
00000000
00000000
00000000
00000000
00000000
00000000
00000000
00000000
00000110
00000000
00000000
,
00000000
00001001
00000000
00000000
00000000
00000000
00000001
00000100
,
00001000
00000000
01100000
00000000
00000000
00100000
00000000
01000000
,
00100000
01000000
10010000
00000000
01100000
00000000
10000000
01000000
,
00010000
00000000
00000110
00000000
00000000
00000011
00000000
00000110
,
00000000
00001010
00000000
00011000
00000000
01010000
00000000
00100000
,
10000000
00000000
00000000
00010000
01000000
00010000
00000000
10000000
,
00100000
10000000
00010000
01000000
00100000
10000000
02000000
00000000
,
03020000
00000000
00032000
00000000
00003010
00000001
00000000
00000100
,
00000010
00000000
00000000
00000000
00000000
00000000
00000001
00000100
,
00001000
00011000
00000000
00000000
00000000
00100000
00000000
01000000
,
00100000
01000000
10010000
00000000
01100000
00000000
10000000
01000000
,
00010000
00011000
00000000
00000000
00000000
00000011
00000000
00000110
,
00000000
00001100
00000000
00001001
00000000
00000110
00000000
00001000
,
00000001
00000000
00000000
00000001
00000100
00001000
00010000
00100000
,
00010000
00001000
00010000
01000000
00010000
00001000
00020000
00000000
,
00032000
00000000
00003200
00000000
00000301
00001000
00000000
00000000
,
00000000
00000011
00001010
00010000
,
00010000
00001000
00000000
00001000
00010000
00000000
00010000
01000000
,
00000000
01000000
10000000
00000000
00100000
00000000
00100000
00010000
,
00000000
00010000
00001000
00000000
00001000
00000100
00000000
00000100
,
00000001
00000000
00000000
00000000
00001001
00000000
00000000
00000000
00000001
00000000
00000000
00000010
00000000
00000000
00000100
00000000
,
00001000
00000000
00000000
00000000
00000000
00000000
00000001
00000000
00000100
00000000
00000000
00000010
00000000
00000000
00001000
00000000
,
00000010
00000000
00000110
00000000
00000001
00000100
00000001
00000100
,
00001000
00000000
00010000
00001000
00000000
00000000
00000000
01000000
00000000
00100000
00000000
01000000
00000000
00100000
00000000
10000000
,
00000000
00010000
01000000
00000000
00000000
00000000
00001000
00000000
00010000
00000000
00001000
00000000
00010000
00000000
00000100
00000000
,
00000010
00000001
00000000
00000000
00000000
00000010
00000000
00000100
00000000
00000010
00000000
00000100
00000000
00010000
00000000
00001000
,
00010000
00000000
01000000
10000000
01000000
10000000
01000000
00100000
,
00000000
00010000
00100000
00010000
00100000
00010000
00001000
00000000
,
00000100
00001000
00000100
00001000
00000100
00000010
00000000
00000001
,
00001000
00000000
00000100
00000000
00000001
00000000
00001000
00000000
00000100
00000000
00000001
00000000
00000000
00000000
00000000
00001001
,
00000000
00000000
00000000
00000000
,
00000000
00000000
00000000
00000000
,
00000000
00000000
00000000
00000000
,
00000000
00000000
00000000
00000000
,
00000000
00000000
00000000
00000000
00000000
00000000
00000000
00000000
00000000
00000000
00000000
00000000
00000000
00000000
00000000
00000001
,
00000000
00000000
00000010
00000000
00000000
00001000
00000000
00000000
00010000
00000000
00000000
00001000
00000000
00010000
00000000
00100000
,
00000000
00000000
01100000
00000000
00000000
10010000
00000000
00000000
00000000
00000000
00000000
00000000
00000000
00000000
00000000
00000000
,
00000000
00000000
00000000
00000000
;
