
//----- song ID: etsu -----//
#TITLE:Eternal Summer;
#ARTIST:北沢綾香;
#ARTISTTRANSLIT:Ayaka Kitazawa;
#BANNER:Eternal Summer.png;
#BACKGROUND:Eternal Summer-bg.png;
#CDTITLE:./CDTitles/DDR A.png;
#MUSIC:Eternal Summer.ogg;
#SAMPLESTART:103.227;
#SAMPLELENGTH:15;
#BPMS:0=145;
#NOTES:
     dance-single:
     :
     Beginner:
     2:
     :
0000
0000
0000
0000
,
0000
0000
0000
0000
,
0000
0000
0000
0000
,
0000
0000
0000
0000
,
0000
0000
0000
0000
,
0000
0000
0000
0000
,
0001
0000
0000
0000
,
1000
0000
0000
0000
,
0001
0000
0000
0000
,
1000
0000
0000
0000
,
0010
0000
0010
0000
,
0010
0000
0000
0000
,
1000
0000
1000
0000
,
1000
0000
0000
0000
,
0001
0000
0001
0000
,
0001
0000
0000
0000
,
0100
0000
0100
0000
,
0100
0000
0000
0000
,
0001
0000
0001
0000
,
1000
0000
1000
0000
,
0001
0000
1000
0000
,
0001
0000
1000
0000
,
0001
0001
0001
0000
,
1000
1000
1000
0000
,
0001
0001
0001
0001
,
0000
0000
0000
0000
,
0010
0000
0000
0000
,
1000
0000
0000
0000
,
0001
0000
0010
0000
,
0001
0000
0000
0000
,
1000
1000
1000
0000
,
0001
0001
0001
0000
,
1000
0000
0010
0000
,
0100
0000
0001
0000
,
0010
0000
0000
0000
,
0001
0000
0000
0000
,
1000
0000
0010
0000
,
1000
0000
0000
0000
,
0001
0001
0001
0000
,
1000
1000
1000
0000
,
0001
0000
0010
0000
,
0100
0000
1000
0000
,
0001
0001
0001
0000
,
0020
0000
0030
0000
,
1000
1000
1000
0000
,
0020
0000
0030
0000
,
0001
0000
0010
0000
,
0001
0000
0010
0000
,
1000
0000
0010
0000
,
1000
0000
0010
0000
,
1001
0000
0000
0000
,
0000
0000
0000
0000
,
0000
0000
0000
0000
,
0000
0000
0000
0000
,
2000
0000
3000
0000
,
0020
0000
0030
0000
,
0002
0000
0003
0000
,
0200
0000
0300
0000
,
1000
0000
0001
0000
,
1000
0000
0001
0000
,
1000
1000
1000
0000
,
0001
0001
0001
0001
,
0000
0000
0000
0000
,
0010
0000
0010
0000
,
0100
0000
0100
0000
,
0001
0001
0001
0000
,
1000
1000
1000
0000
,
0010
0000
0010
0000
,
0100
0000
0100
0000
,
0001
0001
0001
0000
,
1000
1000
1000
0000
,
0010
0000
0010
0000
,
0100
0000
0100
0000
,
0001
0001
0001
0000
,
1000
1000
1000
0000
,
0010
0000
0000
0000
,
0100
0000
0000
0000
,
1000
0000
0001
0000
,
1000
1000
1000
0000
,
1001
0000
0000
0000
,
0000
0000
0000
0000
;
#NOTES:
     dance-single:
     :
     Easy:
     6:
     :
0000
0000
0000
0000
,
0000
0000
0000
0000
,
0000
0000
0000
0000
,
0000
0000
0000
0000
,
0000
0000
0000
0000
,
0000
0000
0000
0000
,
0002
0000
0000
0003
,
0020
0000
0000
0030
,
2000
0000
0000
3000
,
0200
0000
0000
0300
,
0010
0001
0100
0000
,
0010
1000
0100
0000
,
1000
0010
0001
0000
,
0001
0010
1000
0000
,
0001
0001
0010
0000
,
1000
1000
0010
0000
,
0100
0100
0010
0000
,
1000
0001
1000
0000
,
0002
0010
0010
0013
,
2000
0010
0010
3010
,
0002
0013
2000
3010
,
0002
0013
2000
3010
,
0001
0100
1000
0010
,
0001
0100
1000
0010
,
0001
0100
1000
0010
,
0000
0000
0100
0100
,
1000
0100
0010
0001
,
1000
0100
0010
0010
,
0001
0100
1000
0100
,
0002
0003
1000
1000
,
0010
1000
0100
0100
,
0010
0001
0100
0100
,
1000
0010
0001
0100
,
0110
1001
0010
1000
,
0001
0010
0100
1000
,
0001
0100
0010
1000
,
0001
0100
1000
0100
,
0002
0003
1000
1000
,
0001
0010
0100
0100
,
1000
0010
0100
0100
,
0001
0010
1000
0010
,
1001
0110
0001
0100
,
0010
0010
0010
0000
0100
0000
0000
0000
,
1000
0100
0010
0001
,
1000
1000
1000
1000
1000
0000
0000
0000
,
0001
0100
0010
0000
,
0001
0010
1000
0100
,
1000
0010
0001
0100
,
0001
0010
1000
0010
,
0001
0010
0100
0100
,
0002
0000
0013
0000
,
2000
0000
3010
0000
,
0200
0000
0310
0000
,
0001
0010
0010
0010
,
0002
0000
0103
0000
,
2000
0000
3100
0000
,
0020
0000
0130
0000
,
2000
0000
3100
0000
,
0002
0013
2000
3010
,
0002
0013
2000
3010
,
0001
0100
1000
0010
,
0001
0100
1000
0010
,
0000
0000
0100
0100
,
0110
1001
0100
0100
,
0110
1001
0100
0100
,
0001
0010
1000
0010
,
0001
0100
1000
0100
,
0110
1001
0010
0010
,
0110
1001
0010
0010
,
0001
0010
0100
1000
,
0200
0300
1000
1000
,
0110
1001
0100
0100
,
0110
1001
0100
0100
,
1000
0010
0001
0010
,
1000
0100
0001
0100
,
0220
0330
0001
0001
,
0220
0330
1000
1000
,
0110
0000
1001
0000
,
0110
1001
0110
1001
,
0110
0000
0000
0000
,
0000
0000
0000
0000
;
#NOTES:
     dance-single:
     :
     Medium:
     9:
     :
0000
0000
0000
0000
,
0000
0000
0000
0000
,
0000
0000
0000
0000
,
0000
0000
0000
0000
,
0000
0000
0000
0000
,
0000
0000
0000
0000
,
1000
0000
0000
0100
0000
0000
0000
0010
,
0000
0002
0003
0000
,
0001
0000
0000
0100
0000
0000
0000
0010
,
0000
2000
3000
0000
,
0010
0000
0000
1000
0100
0000
0000
0010
,
0000
0001
1000
0001
0100
0000
0000
0000
,
0010
0000
0000
0100
0001
0000
0000
1000
,
0000
0100
0010
0001
1000
0000
1000
0000
,
0010
0000
0000
1000
0001
0000
0000
1000
,
0000
0100
0010
0001
1000
0000
0000
0000
,
0010
0000
0000
0100
0010
0000
0000
1000
,
0000
0001
0010
0001
1000
0000
1000
0000
,
0110
0000
0001
0100
0001
0100
0001
0000
,
0110
0000
1000
0100
1000
0100
1000
0000
,
0110
0000
0001
0010
0001
0000
1000
0010
,
1000
0000
0001
0100
0001
0000
1000
0100
,
1000
0010
0001
0100
,
1000
0010
0001
0100
,
1000
0001
1000
0001
1000
0001
1000
0001
,
0000
0000
0010
0010
,
0001
0000
0100
0000
0001
1000
0100
0010
,
0001
0000
0100
0000
0010
1000
0001
0010
,
0001
1000
0100
0000
1000
0001
0100
0000
,
0002
0003
1000
1000
,
0010
1000
0010
1000
0001
0100
0001
0000
,
0010
0001
0010
0001
1000
0100
1000
0000
,
0001
0010
1000
0100
,
0011
0000
1100
0000
0001
1000
0100
0000
,
1000
0000
0010
0000
1000
0001
0100
0010
,
1000
0000
0100
0000
0010
0001
1000
0010
,
1000
0001
0100
0000
0001
1000
0100
0000
,
2000
3000
0001
0001
,
0010
0001
0010
0001
1000
0100
1000
0000
,
0010
1000
0010
1000
0001
0100
0001
0000
,
1000
0010
0001
0100
,
1010
0000
0101
0000
1000
0001
0100
0000
,
0010
0010
0010
0000
1000
0010
1000
0001
,
0000
0020
0000
0000
0030
0000
0100
0000
,
1000
0100
1000
0100
1000
0100
0000
0010
,
0000
0001
0000
0000
1001
0000
0000
0000
,
1000
0000
0010
0000
0001
0010
0100
0000
,
0001
0000
0010
0000
1000
0010
0100
0000
,
1200
0310
0201
0310
,
1200
0310
0011
1100
,
0010
0000
0001
0100
0001
0000
0000
1000
,
0000
0100
0010
0001
1000
0000
0000
0000
,
0010
0000
1000
0100
1000
0000
0000
0001
,
0000
0100
0100
0000
0010
0000
0010
0000
,
0100
0000
0010
1000
0100
0000
0000
0010
,
0000
0100
1000
0100
0010
0000
0010
0000
,
0001
0000
1000
0001
0100
0000
0000
0010
,
0000
0100
0001
1000
0010
0000
0010
0000
,
0110
0000
1000
0100
0010
0000
0001
0100
,
0010
0000
1000
0100
0010
0000
0001
0100
,
0010
1000
0100
0001
,
1000
0001
1000
0001
1000
0001
1000
0001
,
0000
0000
0010
0010
,
0011
0000
1100
0000
0001
1000
0100
0000
,
1010
0000
0101
0000
1000
0001
0100
0000
,
0010
0100
0010
0100
0001
1000
0100
0000
,
0010
0100
0010
0100
1000
0001
0100
0000
,
0101
0000
1100
0000
0010
0001
0100
0000
,
1100
0000
0101
0000
0010
1000
0100
0000
,
0010
0100
1000
0000
0010
0100
0010
0000
,
1000
0100
0010
0000
0001
0000
0001
0000
,
0011
0000
1100
0000
0001
1000
0100
0000
,
1010
0000
0101
0000
1000
0001
0100
0000
,
0001
1000
0001
1000
0100
0010
0001
0000
,
1000
0001
1000
0001
0100
0010
1000
0000
,
2020
0000
3030
0000
1000
0001
0100
0000
,
0022
0000
0033
0000
0001
1000
0100
0000
,
0110
0000
0000
0001
0001
0000
0000
1000
,
1000
0000
0010
0000
1000
0100
0010
0001
,
1000
0000
0000
0000
,
0000
0000
0000
0000
;
#NOTES:
     dance-single:
     :
     Hard:
     13:
     :
0000
0000
0000
0000
,
0000
0000
0000
0000
,
0000
0000
0000
0000
,
0000
0000
0000
0000
,
0000
0000
0000
0000
,
0000
0000
0000
0000
,
0010
0000
1000
0100
0000
1000
0010
2000
,
0000
0001
0002
0000
3003
0000
0000
0000
,
0010
0000
0001
0100
0000
0010
1000
0002
,
0000
1000
2000
0000
3003
0000
0000
0000
,
0010
0000
0001
0100
0110
0000
0000
1000
,
0000
0100
0010
0001
1001
0000
0000
0000
,
0010
0000
1000
0100
0110
0000
0000
0001
,
0000
0100
0010
1000
1001
0000
1001
0000
,
0100
0000
0010
0100
1100
0000
0000
0001
,
0000
1000
0010
0001
0011
0000
0000
0000
,
0100
0000
0010
0100
0101
0000
0000
1000
,
0000
0001
0010
1000
1010
0000
1010
0000
,
0110
0000
1000
0100
0010
0001
0100
0010
,
0110
0000
1000
0100
0010
0001
0100
0010
,
0110
0000
1000
0100
0110
0000
0001
0100
,
0110
0000
1000
0100
0110
0000
0001
0100
,
0110
1000
0010
0100
0010
0001
0010
0100
,
0010
1000
0010
0100
0010
0001
0010
0100
,
0001
1000
0001
1000
0001
1000
0001
1000
0001
1000
0001
1000
0001
1000
0001
1000
,
0000
0000
0000
0000
0000
0000
0000
0000
0001
0010
0000
0100
1000
0000
0001
0000
,
1000
0000
0000
1000
0010
0000
0000
0010
1000
0000
0001
0000
0100
0000
0010
0000
,
1000
0000
0000
1000
0100
0000
0000
0100
0001
0000
0100
0000
1000
0000
0010
0000
,
1000
1000
0001
0001
0100
0010
1000
0001
,
2000
0000
3000
0000
0001
0100
0010
1000
,
0001
1000
0001
1000
0100
0010
0001
1000
,
0001
0100
0001
0100
0010
1000
0010
0100
,
0001
0000
1000
0100
0001
0000
0001
0100
,
1000
0001
1000
0100
0010
0001
1000
0000
,
0001
0000
0000
0001
0010
0000
0000
0010
0001
0000
1000
0000
0100
0000
0010
0000
,
0001
0000
0000
0001
0100
0000
0000
0100
1000
0000
0100
0000
0001
0000
0010
0000
,
0001
0001
1000
1000
0100
0010
0001
1000
,
0002
0000
0003
0000
1000
0100
0010
0001
,
1000
0001
1000
0001
0100
0010
1000
0001
,
1000
0100
1000
0100
0010
0001
0010
0100
,
1000
0000
0001
0100
1000
0000
1000
0100
,
0001
1000
0001
0100
0010
1000
0001
0000
,
1100
1100
0110
0000
0001
0010
0100
1100
,
0000
2002
0000
0000
3003
0000
0010
0001
,
0101
0101
0110
0110
1000
0010
0100
0101
,
0000
1001
0000
0100
1000
0010
0000
1000
,
0001
0000
0000
0010
0001
0000
0000
1000
0010
0000
0100
0000
0010
0000
1000
0000
,
0001
0000
0000
0100
0001
0000
0000
1000
0100
0000
0010
0000
0001
0000
1000
0000
,
0001
0010
1000
0000
1000
0010
0001
0000
,
1000
0001
0100
0010
1010
0000
1001
0000
,
0010
0000
1000
0100
0110
1000
0000
0001
,
0000
0100
0010
1000
1001
0000
0000
0000
,
0010
0000
0001
0100
0110
0001
0000
1000
,
0000
0100
0110
0001
1001
0000
1001
0000
,
0100
0000
0010
0100
0101
0010
0000
1000
,
0000
0001
0100
0010
1010
0000
1010
0000
,
0100
0000
0010
0100
1100
0010
0000
0001
,
0000
1000
0100
0010
0011
0000
0011
0000
,
0110
0000
0001
0100
0110
0000
1000
0100
,
0110
0000
0001
0100
0110
0000
1000
0100
,
0110
0001
0010
0100
0010
1000
0010
0100
,
1000
0001
1000
0001
1000
0001
1000
0001
1000
0001
1000
0001
1000
0001
1000
0001
,
0000
0000
0000
0000
0000
0000
0000
0000
1000
0010
0000
0100
0001
0000
1000
0000
,
1020
0000
0032
0000
1003
0100
0001
0010
,
0021
0000
2030
0000
3001
0100
1000
0010
,
0100
0010
0100
0010
1000
0100
0010
0001
,
0100
0010
0100
0010
1000
0100
0010
0000
,
1200
0000
0302
0000
1003
0010
0001
0100
,
0201
0000
2300
0000
3001
0010
1000
0100
,
0010
0100
1000
0010
0100
0010
1000
0100
,
0010
0001
0100
0001
1000
1000
1000
1000
,
1020
0000
0032
0000
1003
0100
0001
0100
,
1200
0000
0302
0000
1003
0100
0010
0001
,
1000
0001
1000
0001
0100
0010
1000
0100
,
0010
0100
0010
0100
1000
0001
0100
0010
,
2020
0000
3030
0000
0001
1000
0100
0010
,
0022
0000
0033
0000
1000
0010
1000
0100
,
0110
0000
0001
0100
0110
0000
1000
0100
,
0110
0000
0000
0001
0010
0000
0000
1000
0010
0000
0001
0000
0100
0000
0010
0000
,
1001
0000
0000
0000
,
0000
0000
0000
0000
;
#NOTES:
     dance-double:
     :
     Easy:
     6:
     :
00000000
00000000
00000000
00000000
,
00000000
00000000
00000000
00000000
,
00000000
00000000
00000000
00000000
,
00000000
00000000
00000000
00000000
,
00000000
00000000
00000000
00000000
,
00000000
00000000
00000000
00000000
,
20000000
30000000
02000000
03000000
,
00020000
00000000
00000000
00030000
,
00002000
00003000
00000020
00000030
,
00000002
00000000
00000000
00000003
,
00000010
00000001
00001000
00000000
,
00000010
00001000
00000001
00000000
,
00000100
00001000
00010000
00000000
,
00001000
00010000
01000000
00000000
,
10000000
00010000
01000000
00000000
,
00010000
10000000
01000000
00000000
,
00100000
00001000
00010000
00000000
,
00001000
00010000
00001000
00000000
,
00010000
00001000
00000010
00000010
,
00001000
00010000
00100000
00100000
,
00001000
00000010
00010000
00100000
,
00001000
00000010
00010000
00100000
,
00001000
00000010
00000001
00000100
,
00001000
00010000
00100000
10000000
,
01000000
00010000
00001000
00010000
,
00000000
00000000
00000010
00000010
,
00001000
00000001
00000100
00000010
,
00001000
00000100
00010000
00001000
,
00100000
00010000
00100000
01000000
,
20000000
30000000
00010000
00010000
,
00100000
00010000
10010000
00000000
,
00100000
10000000
10010000
00000000
,
10000000
01000000
00010000
00001000
,
00000010
00000001
00000110
00000000
,
00001000
00000001
00000100
00000010
,
00001000
00000100
00010000
00001000
,
01000000
00010000
01000000
00100000
,
20000000
30000000
00010000
00010000
,
10000000
00100000
01100000
00000000
,
00010000
00100000
01100000
00000000
,
10000000
00100000
00010000
00001000
,
00000100
00000001
00000110
00000000
,
00001000
00001000
00001000
00000000
00000001
00000000
00000000
00000000
,
00001000
00000010
00010000
00000100
,
00001000
00001000
00001000
00001000
00001000
00000000
00000000
00000000
,
00010000
00001000
00100000
00010000
,
10000000
00100000
01000000
01000000
,
00010000
00100000
01000000
01000000
,
10000000
01000000
00010000
00001000
,
00000100
00000001
00000010
00000100
,
00000010
00000001
00000010
00000000
,
00000100
00001000
00000100
00000000
,
00010000
00001000
00010000
00000000
,
00001000
01000000
00100000
10000000
,
00010000
01000000
00010000
00000000
,
10000000
01000000
10000000
00000000
,
00100000
01000000
00100000
00000000
,
00001000
00010000
00001000
00000000
,
00010000
00100000
00001000
00000010
,
00010000
00100000
00001000
00000010
,
00010000
00100000
10000000
01000000
,
00010000
00001000
00000010
00000001
,
00000000
00000000
00000100
00000100
,
00001001
00001001
00000100
00001000
,
00011000
00011000
00100000
01000000
,
00100000
00010000
00001000
00010000
,
00100000
00010000
00001000
00010000
,
00011000
00011000
00100000
00010000
,
01100000
01100000
10000000
00010000
,
10000000
00100000
00010000
00001000
,
00000100
00000001
00001000
00001000
,
00001001
00001001
00000010
00001000
,
00011000
00011000
01000000
00100000
,
01000000
00010000
00001000
00010000
,
01000000
00010000
00001000
00010000
,
00022000
00033000
00100000
00010000
,
20020000
30030000
01000000
01000000
,
01100000
00000000
10010000
00000000
,
10000000
01000000
00010000
00001000
,
00011000
00000000
00000000
00000000
,
00000000
00000000
00000000
00000000
;
#NOTES:
     dance-double:
     :
     Medium:
     9:
     :
00000000
00000000
00000000
00000000
,
00000000
00000000
00000000
00000000
,
00000000
00000000
00000000
00000000
,
00000000
00000000
00000000
00000000
,
00000000
00000000
00000000
00000000
,
00000000
00000000
00000000
00000000
,
00000010
00000001
00000100
00000000
,
00000010
00001000
00000100
00000000
,
00010000
00001000
01000000
00000000
,
00010000
00100000
01000000
00000000
,
10000000
00000000
00000000
00010000
01000000
00000000
00000000
00100000
,
00000000
10000000
00100000
01000000
00100000
00000000
00000000
00000000
,
10000000
00000000
00000000
01000000
00010000
00000000
00000000
00001000
,
00000000
00000010
00000100
00000010
00000001
00000000
00000001
00000000
,
00001000
00000000
00000000
00000001
00000100
00000000
00000000
00000010
,
00000000
00000100
00000001
00001000
00000010
00000000
00000000
00000000
,
00010000
00000000
00000000
00001000
00100000
00000000
00000000
01000000
,
00000000
10000000
00010000
10000000
01000000
00000000
01000000
00000000
,
01100000
00000000
10000000
00010000
01000000
00010000
10000000
00000000
,
00110000
00000000
00001000
00010000
00000010
00010000
00001000
00000000
,
00001010
00000000
00000100
00000010
00001000
00000000
00000100
00000010
,
00000001
00000000
00000010
00000100
00001000
00000000
00000010
00000100
,
00000001
00000010
00001000
00010000
,
00100000
10000000
01000000
00010000
,
00001000
00010000
00001000
00010000
00001000
00010000
00001000
00010000
,
00000000
00000000
00000010
00000010
,
00001000
00000000
00000100
00000000
00000010
00000001
00000100
00000010
,
00001000
00000000
00000100
00000000
00010000
00001000
00010000
00001000
,
00100000
00010000
01000000
00000000
00100000
10000000
01000000
00000000
,
00200000
00300000
01000000
01000000
,
10000000
01000000
10000000
00000000
01000000
00100000
01000000
00000000
,
00010000
00001000
00010000
00000000
00000010
00001000
00000010
00000000
,
00001000
00000010
00000001
00000100
,
00001000
00000000
00010000
00000000
00100000
01000000
00100000
00000000
,
00010000
00000000
01000000
00000000
00100000
10000000
01000000
00100000
,
00010000
00000000
01000000
00000000
00001000
00010000
00001000
00010000
,
00000010
00001000
00000100
00000000
00000010
00000001
00000100
00000000
,
00000020
00000030
00000100
00000100
,
00000001
00000100
00000001
00000000
00000100
00000010
00000100
00000000
,
00001000
00010000
00001000
00000000
00100000
00010000
00100000
00000000
,
00010000
00100000
10000000
01000000
,
00010000
00000000
00001000
00000000
00000010
00000100
00000010
00000000
,
00000001
00001000
00000001
00000000
00000100
00000010
00001000
00000001
,
00000000
00000220
00000000
00000000
00000330
00000000
00000100
00000000
,
00010000
00001000
00010000
00001000
00010000
00001000
00000000
00100000
,
00000000
00010000
00000000
00000000
10000000
00000000
00000000
00000000
,
00010000
00000000
01000000
00000000
00100000
10000000
01000000
00000000
,
00100000
00000000
00010000
00000000
01000000
00100000
10000000
00000000
,
01100000
00010000
00011000
00000100
,
00001100
00000010
00000011
00001100
,
00000010
00000000
00000001
00001000
00000100
00000000
00000000
00000010
,
00000000
00001000
00010000
00001000
00010000
00000000
00000000
00000000
,
00100000
00000000
01000000
00010000
00100000
00000000
00000000
01000000
,
00000000
00100000
00100000
00000000
00010000
00000000
10000000
00000000
,
00100000
00000000
10000000
00010000
01000000
00000000
00000000
00001000
,
00000000
00010000
00000010
00001000
00000100
00000000
00000100
00000000
,
00000010
00000000
00000001
00000100
00000010
00000000
00000000
00000100
,
00000000
00000010
00001000
00000010
00000100
00000000
00000100
00000000
,
00000110
00000000
00000001
00000100
00000010
00000000
00001000
00000010
,
00010000
00000000
00001000
01000000
00010000
00000000
10000000
00100000
,
01000000
00010000
00100000
10000000
,
00010000
10000000
00010000
10000000
00010000
10000000
00010000
10000000
,
00000000
00000000
00100000
00100000
,
10100000
00000000
01010000
00000000
10000000
01000000
00100000
00000000
,
00110000
00000000
00011000
00000000
00000010
00001000
00000100
00000000
,
00010000
00000010
00001000
00000000
00000010
00010000
00001000
00000000
,
00010000
00000100
00001000
00000000
00000100
00010000
00001000
00000000
,
01010000
00000000
00011000
00000000
00000010
00001000
00000100
00000000
,
00001100
00000000
00011000
00000000
00100000
00010000
01000000
00000000
,
00010000
10000000
01000000
00000000
00100000
00001000
00010000
00000000
,
00000010
00001000
00000001
00000000
00000010
00000000
00000010
00000000
,
00000011
00000000
00001100
00000000
00000001
00000100
00000010
00000000
,
00001010
00000000
00011000
00000000
00100000
00010000
01000000
00000000
,
00001000
00100000
00010000
00000000
00100000
00001000
00010000
00000000
,
00001000
01000000
00010000
00000000
01000000
00001000
00010000
00000000
,
00002020
00000000
00003030
00000000
00000100
00000001
00000010
00000000
,
00002200
00000000
00003300
00000000
00000010
00000001
00000100
00000000
,
00000110
00000000
00000000
00001000
00010000
00000000
00000000
00100000
,
10000000
00000000
00010000
00000000
00100000
00010000
01000000
00100000
,
10000000
00000000
00000000
00000000
,
00000000
00000000
00000000
00000000
;
#NOTES:
     dance-double:
     :
     Hard:
     13:
     :
00000000
00000000
00000000
00000000
,
00000000
00000000
00000000
00000000
,
00000000
00000000
00000000
00000000
,
00000000
00000000
00000000
00000000
,
00000000
00000000
00000000
00000000
,
00000000
00000000
00000000
00000000
,
00001000
00000000
00000010
00000100
00000000
00000001
00000010
00002000
,
00000000
00010000
00020000
00000000
00033000
00000000
00000000
00000000
,
00001000
00000000
00010000
00100000
00000000
10000000
01000000
00200000
,
00000000
01000000
02000000
00000000
03300000
00000000
00000000
00000000
,
00010000
00000000
10000000
02000000
00001000
00000000
00000000
03010000
,
00000000
00001000
00000010
00000001
00001000
00000000
00000000
00000000
,
00001000
00000000
00000001
00000200
00010000
00000000
00000000
00001300
,
00000000
00010000
00100000
10000000
00010000
00000000
00010000
00000000
,
10000000
00000000
01000000
00200000
00001000
00000000
00000000
00310000
,
00000000
00001000
00000100
00000010
00000001
00000000
00000000
00000000
,
00000001
00000000
00000100
00000020
00010000
00000000
00000000
00001030
,
00000000
00010000
01000000
00100000
10000000
00000000
10000000
00000000
,
10010000
00000000
10000000
01000000
00010000
00001000
00000100
00000001
,
00001001
00000000
00000001
00000100
00001000
00010000
01000000
10000000
,
10010000
00000000
01000000
00100000
01100000
00000000
00010000
00001000
,
00011000
00000000
00000010
00000100
00000110
00000000
00000001
00001000
,
00000010
00000100
00000001
00001000
00000010
00000100
00000001
00001000
,
00000010
00010000
00001000
00100000
00010000
10000000
00100000
01000000
,
00010000
10000000
00010000
10000000
00010000
10000000
00010000
10000000
00010000
10000000
00010000
10000000
00010000
10000000
00010000
10000000
,
00000000
00000000
00000000
00000000
00000000
00000000
00000000
00000000
01000000
00100000
00000000
00010000
10000000
00000000
00100000
00000000
,
01000000
00000000
00000000
01000000
00001000
00000000
00000000
00001000
00010000
00000000
00001000
00000000
00000010
00000000
00001000
00000000
,
00010000
00000000
00000000
00010000
00000010
00000000
00000000
00000010
00000100
00000000
00000010
00000000
00001000
00000000
00000010
00000000
,
00000100
00000001
00001000
00000100
00000010
00000001
00000100
00000001
,
00002000
00003000
00000100
00000100
,
00010000
00001000
00000010
00010000
00000010
00001000
00010000
00010000
,
00001000
00010000
00100000
00001000
00100000
00010000
00001000
00001000
,
00100000
00010000
01000000
00000000
00100000
10000000
01000000
00000000
,
00100000
00010000
00001000
00000100
00000010
00000001
00001000
00000000
,
00000100
00000000
00000000
00000100
00010000
00000000
00000000
00010000
00001000
00000000
00010000
00000000
00100000
00000000
00010000
00000000
,
00001000
00000000
00000000
00001000
00100000
00000000
00000000
00100000
01000000
00000000
00100000
00000000
00010000
00000000
00100000
00000000
,
01000000
10000000
00010000
01000000
00100000
10000000
01000000
10000000
,
00020000
00030000
01000000
01000000
,
00001000
00010000
01000000
00001000
01000000
00010000
00001000
00001000
,
00010000
00001000
00000100
00010000
00000100
00001000
00010000
00010000
,
00000010
00001000
00000100
00000000
00000010
00000001
00000100
00000000
,
00000010
00001000
00010000
01000000
00100000
10000000
00010000
00000000
,
01100000
01100000
10010000
00000000
00100000
10000000
01000000
00100000
,
00000000
00220000
00000000
00000000
00330000
00000000
00001000
00000010
,
00000110
00000110
00001100
00001100
00000001
00000010
00000100
00001100
,
00000000
00000101
00000000
00000010
00001000
00000100
00000000
00010000
,
00001000
00000000
00000000
00100000
00010000
00000000
00000000
10000000
00100000
00000000
01000000
00000000
00010000
00000000
10000000
00000000
,
00100000
00000000
00000000
01000000
00010000
00000000
00000000
10000000
01000000
00000000
00010000
00000000
00001000
00000000
00000100
00000000
,
00000001
00001000
00000100
00000000
00000010
00000100
00001000
00000000
,
00000010
00001000
00000100
00000000
00000011
00000000
00001100
00000000
,
00001000
00000000
00000001
00000200
00010000
00010000
00000000
00001300
,
00000000
00010000
00100000
10000000
00010000
00000000
00000000
00000000
,
00010000
00000000
10000000
02000000
00001000
00001000
00000000
03010000
,
00000000
00001000
00000010
00000001
00001001
00000000
00001001
00000000
,
00000001
00000000
00000100
00000020
00010000
00010000
00000000
00001030
,
00000000
00010000
01000000
00100000
10000000
00000000
00010000
00000000
,
10000000
00000000
01000000
00200000
00001000
00001000
00000000
00310000
,
00000000
00001000
00000100
00000010
00000001
00000000
00000001
00000000
,
00001001
00000000
00000100
00000010
00000110
00000000
00001000
00010000
,
00011000
00000000
00100000
01000000
01100000
00000000
10000000
00010000
,
00100000
01000000
10000000
00010000
00100000
01000000
10000000
00010000
,
10000000
00010000
10000000
00010000
10000000
00010000
10000000
00010000
10000000
00010000
10000000
00010000
10000000
00010000
10000000
00010000
,
00000000
00000000
00000000
00000000
00000000
00000000
00000000
00000000
00100000
01000000
00000000
00100000
00001000
00000000
00010000
00000000
,
00012000
00000000
00003200
00000000
00010300
00001000
00000010
00010000
,
00021000
00000000
02030000
00000000
03001000
00010000
00100000
00001000
,
00010000
00100000
00001000
00100000
00010000
00001000
00100000
00010000
,
00001000
00000100
00000010
00000001
00000100
00000010
00001000
00000000
,
00021000
00000000
00230000
00000000
00301000
00010000
01000000
00001000
,
00012000
00000000
00003020
00000000
00010030
00001000
00000100
00010000
,
00001000
00000100
00010000
00000100
00001000
00010000
00000100
00001000
,
00010000
00100000
01000000
10000000
00100000
01000000
00010000
00000000
,
10020000
00000000
00031000
00000000
00000100
00000010
00000001
00000000
,
00002001
00000000
00013000
00000000
01000000
00100000
10000000
00000000
,
01000000
00100000
00010000
01000000
00100000
00010000
00001000
00000010
,
00000100
00001000
00000010
00000100
00000001
00001000
00000100
00000010
,
00000022
00000000
00000033
00000000
00001000
00000001
00000100
00000010
,
00002020
00000000
00003030
00000000
00010000
00100000
01000000
00010000
,
10010000
00000000
01000000
00100000
00110000
00000000
10000000
00100000
,
01100000
00000000
00000000
01000000
00010000
00000000
00000000
00010000
10000000
00000000
01000000
00000000
00010000
00000000
00001000
00000000
,
00011000
00000000
00000000
00000000
,
00000000
00000000
00000000
00000000
;
